<?xml version="1.0" standalone="no"?>
<!DOCTYPE svg PUBLIC "-//W3C//DTD SVG 1.1//EN" "http://www.w3.org/Graphics/SVG/1.1/DTD/svg11.dtd" >
<svg xmlns="http://www.w3.org/2000/svg" xmlns:xlink="http://www.w3.org/1999/xlink" version="1.1">
<metadata>
Created by FontForge 20160407 at Sun Oct 30 05:52:08 2016
 By Jimmy Warting
Bangla version 1.0

This font is free software; you can redistribute it and/or modify it under the terms of the GNU General Public License as published by the Free Software Foundation; either version 2 of the License, or (at your option) any later version.

This font is distributed in the hope that it will be useful, but WITHOUT ANY WARRANTY; without even the implied warranty of MERCHANTABILITY or FITNESS FOR A PARTICULAR PURPOSE.  See the GNU General Public License (in the COPYING file) for more details.
</metadata>
<defs>
<font id="Bangla" horiz-adv-x="1130" >
  <font-face 
    font-family="Bangla"
    font-weight="500"
    font-stretch="normal"
    units-per-em="2048"
    panose-1="3 0 6 3 0 0 0 0 0 0"
    ascent="1638"
    descent="-410"
    bbox="-1372 -543 1853 1767"
    underline-thickness="160"
    underline-position="-297"
    unicode-range="U+000D-25CC"
  />
<missing-glyph horiz-adv-x="886" 
d="M68 0v1365h682v-1365h-682zM136 68h546v1229h-546v-1229z" />
    <glyph glyph-name=".notdef" horiz-adv-x="886" 
d="M68 0v1365h682v-1365h-682zM136 68h546v1229h-546v-1229z" />
    <glyph glyph-name=".null" horiz-adv-x="0" 
 />
    <glyph glyph-name="nonmarkingreturn" unicode="&#xd;" horiz-adv-x="682" 
 />
    <glyph glyph-name="space" unicode=" " horiz-adv-x="700" 
 />
    <glyph glyph-name="exclam" unicode="!" horiz-adv-x="668" 
d="M446 1016q0 57 -28 90.5t-69 33.5q-51 0 -80 -33t-29 -82l4 -67l84 -668h33l85 668v58zM446 64q0 19 -9 37.5t-23.5 33t-32.5 23.5t-37 9q-23 0 -42 -9.5t-33 -24.5t-21.5 -33.5t-7.5 -35.5q0 -20 8 -36.5t25 -27.5q10 -11 28.5 -18t41.5 -7l42 3q9 3 18.5 10t11.5 12
q17 13 24 29.5t7 34.5z" />
    <glyph glyph-name="quotedbl" unicode="&#x22;" horiz-adv-x="585" 
d="M85 1198h157v-147l-46 -178h-66l-45 178v147zM352 1198h155v-147l-44 -178h-67l-44 178v147z" />
    <glyph glyph-name="numbersign" unicode="#" horiz-adv-x="918" 
d="M806 924l-62 -259h154v-91h-174l-52 -232h173v-89h-193l-65 -280h-124l63 280h-207l-66 -280h-127l63 280h-165v89h188l53 232h-181v91h201l60 259h126l-60 -259h207l60 259h128zM596 574h-203l-53 -232h206z" />
    <glyph glyph-name="dollar" unicode="$" horiz-adv-x="918" 
d="M403 1022h97v-72q190 -11 274 -117l1 -1l2 -2q46 -60 46 -140h-130q-2 88 -82 136q-47 29 -111 32v-331q164 -41 207 -59l1 -1q4 -2 9 -4q143 -62 143 -204q0 -124 -94 -204q-26 -23 -58 -39q-84 -41 -208 -46v-136h-97v136q-241 11 -318 151q-36 66 -30 155h131
q11 -93 29 -122q5 -8 12 -17q59 -66 176 -75v361q-149 36 -192 57l-18 10q-116 71 -116 196q0 176 193 238q58 19 133 26v72zM403 538v318q-153 -19 -185 -111q-8 -21 -8 -46q0 -108 154 -152q-158 -93 39 -9zM500 410v-348q93 6 144 41q5 3 10 7q70 56 70 133q0 72 -60 109
q-203 558 -164 58z" />
    <glyph glyph-name="percent" unicode="%" horiz-adv-x="1471" 
d="M329 910q132 0 216 -79q68 -65 68 -153q0 -92 -84 -158q-83 -66 -198 -66q-125 0 -210 76q-73 65 -73 152q0 95 86 163q256 96 195 65zM329 815q-83 0 -134 -54q-33 -35 -33 -79q0 -62 62 -104q47 -31 107 -31q84 0 135 56q32 35 32 79q0 67 -64 106q-107 -286 -105 27z
M1010 941h110l-656 -968h-109zM1142 427q130 0 213 -77q70 -64 70 -152q0 -90 -84 -157t-198 -67q-127 0 -211 77q-72 65 -72 150q0 97 87 163zM1142 333q-88 0 -137 -56q-30 -34 -30 -76q0 -64 62 -104q46 -30 106 -30q80 0 133 53q35 35 35 78q0 67 -65 107h-1v1h-1z" />
    <glyph glyph-name="ampersand" unicode="&#x26;" horiz-adv-x="1102" 
d="M817 442h132q0 -124 -96 -243l205 -199h-181l-102 102q-80 -61 -132 -84q-87 -48 -215 -48q-182 0 -276 97q-67 69 -67 168q0 97 67 160q1 0 1 1q49 45 150 94q24 12 52 24q-104 108 -125 162q-10 26 -10 56q0 92 89 153q81 56 196 56q138 0 216 -77q56 -55 56 -132
q0 -82 -74 -141q-51 -41 -157 -89l219 -218q48 68 52 144v1v8q-590 580 0 5zM474 572q126 65 154 110q15 23 15 52q0 61 -60 95q-37 21 -85 21q-89 0 -126 -57q-17 -27 -17 -60q0 -39 29 -74q20 -23 64 -64q-126 256 26 -23zM695 182l-267 266q-148 -77 -184 -139
q-17 -29 -17 -66q0 -76 73 -127q62 -44 144 -44q101 0 201 71q18 13 38 29q-279 980 12 10z" />
    <glyph glyph-name="quotesingle" unicode="'" horiz-adv-x="696" 
d="M319 1198q85 0 119 -60q4 -7 7 -14q0 -155 -119 -259q-23 -21 -53 -38q49 70 80 189l-26 -2h-1q-74 0 -99 49l-1 1v1l-1 1q-8 17 -8 38q0 47 43 76z" />
    <glyph glyph-name="parenleft" unicode="(" horiz-adv-x="549" 
d="M393 968h90q-184 -235 -221 -508q-8 -60 -8 -118q0 -271 165 -532q29 -47 64 -92h-90q-163 171 -233 393q-39 120 -39 231q0 212 126 430z" />
    <glyph glyph-name="parenright" unicode=")" horiz-adv-x="549" 
d="M155 -282h-92q181 236 218 504q9 61 9 120q0 281 -173 549q-26 40 -54 77h92q165 -173 235 -397q37 -119 37 -229q0 -205 -121 -420z" />
    <glyph glyph-name="asterisk" unicode="*" horiz-adv-x="641" 
d="M265 968h104l-7 -149l174 49l32 -78l-179 -38l118 -118l-85 -50l-103 123l-106 -123l-83 50l116 118l-179 38l30 78l178 -49z" />
    <glyph glyph-name="plus" unicode="+" horiz-adv-x="1155" 
d="M512 600h-451v-131h451v-422h131v422h451v131h-451v424h-131v-424z" />
    <glyph glyph-name="comma" unicode="," horiz-adv-x="512" 
d="M182 -268q84 36 158 127q74 89 74 170q0 78 -37 135q-47 65 -125 65q-123 0 -123 -123q0 -24 9 -42t24 -30.5t34.5 -19t41.5 -6.5l65 8q25 -6 25 -41q0 -47 -60 -116t-104 -86z" />
    <glyph glyph-name="hyphen" unicode="-" horiz-adv-x="682" 
d="M66 440h552v181h-552v-181z" />
    <glyph glyph-name="period" unicode="." horiz-adv-x="457" 
d="M316 138v-138h-173v138h173z" />
    <glyph glyph-name="slash" unicode="/" horiz-adv-x="457" 
d="M381 968h90l-392 -995h-93z" />
    <glyph glyph-name="colon" unicode=":" horiz-adv-x="457" 
d="M355 212v-137h-172v137h172zM355 770v-136h-172v136h172z" />
    <glyph glyph-name="semicolon" unicode=";" horiz-adv-x="569" 
d="M182 -92q84 36 158 127q74 89 74 170q0 39 -11.5 75.5t-32.5 64t-51 44.5t-67 17q-123 0 -123 -123q0 -24 9 -42.5t24 -31t34.5 -19t41.5 -6.5l65 9q29 0 29 -31q0 -50 -62 -121q-31 -37 -57 -60t-49 -32zM371 883q0 24 -9.5 44.5t-25.5 35.5t-37 23.5t-43 8.5t-43.5 -10
t-39 -25.5t-28 -35.5t-10.5 -41q0 -24 9.5 -46t26 -39.5t38.5 -27.5t47 -10q22 0 43 11t37 28.5t25.5 39.5t9.5 44z" />
    <glyph glyph-name="less" unicode="&#x3c;" horiz-adv-x="965" 
d="M75 262v93l809 273v-104l-652 -214l652 -217v-105z" />
    <glyph glyph-name="equal" unicode="=" horiz-adv-x="1155" 
d="M1094 799h-1033v-131h1033v131zM1094 401h-1033v-131h1033v131z" />
    <glyph glyph-name="greater" unicode="&#x3e;" horiz-adv-x="965" 
d="M896 355v-93l-812 -274v105l652 214l-652 217v104z" />
    <glyph glyph-name="question" unicode="?" horiz-adv-x="764" 
d="M725 834q0 48 -19 91.5t-54 76.5t-84 53t-109 20q-15 0 -24 -0.5t-17.5 -1.5t-17 -3t-21.5 -5l-53 -16q-48 -26 -74 -49t-39 -44t-16.5 -41t-6.5 -41l5 -34q12 -54 49 -86q38 -33 84 -27q55 9 84 35q30 30 30 67q0 47 -49 80l8 11q18 16 41 22q56 6 86 -31q17 -17 26 -36
t9 -39q0 -119 -98 -193l-82 -65l-39 -33q-59 -47 -59 -78l-2 -47l20 -78q14 -19 25 -31t22 -18l70 -39l29 39l-13 20q-12 25 -12 39q0 31 33 70l43 45l57 57l29 25q86 74 116 147q10 23 14.5 39.5t4.5 24.5l4 18v23v33zM387 -31q54 0 80.5 30t26.5 75q0 26 -8 46.5t-25 37.5
q-30 35 -86 35q-28 0 -49 -8.5t-35.5 -23.5t-21.5 -35t-7 -42q0 -43 33 -82q33 -33 92 -33z" />
    <glyph glyph-name="uni0964" unicode="&#x964;" horiz-adv-x="762" 
d="M553 31v936l-102 53l-2 -921l43 -33z" />
    <glyph glyph-name="uni0965" unicode="&#x965;" horiz-adv-x="785" 
d="M475 29l-18 48q-5 25 -6.5 33.5t-2 13.5t-0.5 12q0 8 -2 31l-3 45v678l-5 41q-2 16 -5.5 22t-14.5 19l-24 23q-1 0 -5.5 3t-9.5 6.5t-9.5 7t-5.5 4.5l-64 28l21 -56q6 -9 9.5 -36.5t5 -58.5t2.5 -58t2 -35v-534q0 -21 1 -38.5t2 -34.5t3.5 -34t5.5 -37l22 -37l42 -32z
M680 29l-18 48q-5 25 -6.5 33.5t-2 13.5t-0.5 12q0 8 -2 31l-3 45v678l-5 41q-2 16 -5.5 22t-14.5 19l-24 23q-1 0 -5.5 3t-9.5 6.5t-9.5 7t-5.5 4.5l-64 28l21 -56q6 -9 9.5 -36.5t5 -58.5t2.5 -58t2 -35v-534q0 -21 1 -38.5t2 -34.5t3.5 -34t5.5 -37l22 -37l42 -32z" />
    <glyph glyph-name="bn_chandrabindu" unicode="&#x981;" horiz-adv-x="2" 
d="M-393 1614l-19 -25l-6 -28l4 -23q26 -47 74 -41q25 6 41 24t16 38q2 5 3 9.5t1 12.5q0 25 -20 41t-45 16q-34 0 -49 -24zM-143 1575l-15 14q-5 2 -9.5 3t-12.5 1l-45 -106q-20 -28 -43 -43t-47 -19l-33 -6l-51 8l-64 31q-18 13 -35 29.5t-32 38.5l-41 82q-11 6 -33 6
l-25 -2q8 -13 13 -25t8 -26l20 -54q44 -89 94 -135q73 -65 156 -65t141 67q58 70 58 162z" />
    <glyph glyph-name="bn_anusvar" unicode="&#x982;" horiz-adv-x="616" 
d="M455 686q17 20 29 39.5t18 38.5q8 20 12 40.5t4 43.5q0 48 -16.5 90.5t-50.5 77.5q-65 71 -154 71q-70 0 -133 -51q-37 -29 -52.5 -66.5t-15.5 -82.5q0 -94 70 -182q75 -82 158 -82q37 0 71.5 18.5t59.5 44.5zM700 -117v88l-131 158q-83 97 -133 154.5t-67 74.5l-84 82
l-43 37l-109 94v-231q37 -22 81 -52.5t95 -70.5l105 -80l166 -137zM350 766q-35 -26 -64 -38.5t-50 -12.5q-60 0 -60 76q0 80 51 127q27 26 86 26q21 0 42 -5t38.5 -14.5t28 -22.5t10.5 -28q-2 -14 -7 -27t-14 -26t-24 -26.5t-37 -28.5z" />
    <glyph glyph-name="bn_bisarga" unicode="&#x983;" horiz-adv-x="641" 
d="M524 694q72 78 72 172q0 92 -68 160q-67 70 -153 70q-69 0 -139 -52q-20 -17 -35 -32.5t-23 -30.5q-7 -15 -10.5 -24.5t-5 -19t-2 -20t-0.5 -26.5q0 -51 18 -95.5t53 -86.5q71 -80 158 -80l37 4l33 12q17 8 32.5 20t32.5 29zM516 96q20 23 34.5 45t22.5 43q6 13 9 22
t5 18.5t2.5 21.5t0.5 30q0 92 -64 162t-149 70q-74 0 -135 -49q-44 -32 -61 -72.5t-17 -91.5q0 -100 67 -182q36 -42 74 -62t80 -20q20 3 37 7.5t33 10.5q18 11 33.5 22t27.5 25zM422 766q-32 -23 -60 -34t-51 -11q-37 6 -50 25.5t-13 54.5q0 88 55 131q25 22 78 22
q24 0 46.5 -5.5t40 -15.5t28 -24t10.5 -32q0 -51 -84 -111zM430 164l-59 -39q-11 -5 -22 -7.5t-25 -2.5q-18 0 -32 9t-23 24.5t-14 36t-5 42.5q0 40 12 76q18 40 33 55q14 10 30.5 14.5t34.5 4.5q25 0 51 -7t47 -19.5t34.5 -30.5t13.5 -39q-6 -31 -23.5 -59.5t-52.5 -57.5z
" />
    <glyph glyph-name="bn_a" unicode="&#x985;" horiz-adv-x="1217" 
d="M1302 1040l-104 103h-1300l102 -103h969v-673l-119 206q0 73 -20 143t-62 120l-37 43l-29 30q-98 74 -219 74q-18 0 -37.5 -3t-36 -9.5t-30 -17t-19.5 -25.5q-24 -62 -24 -90q0 -65 57 -99q42 -28 117 -28q40 0 90 71q24 31 37 31q21 0 39.5 -16.5t33 -44t23 -63
t8.5 -73.5q0 -36 -10.5 -66.5t-31.5 -53t-53.5 -35t-76.5 -12.5q-85 0 -159 32q-36 19 -78 51t-90 80l-45 64q-17 26 -28 48.5t-17 41.5l-72 195l-64 26q7 -29 24 -84.5t46 -138.5q29 -82 53.5 -137t44.5 -84q51 -73 89 -119t61 -66q54 -38 139 -69q31 -15 47 -15l45 -2
q39 0 77 13t71 34.5t60.5 50t45.5 60.5q19 -15 32.5 -29t22.5 -26l46 -70l55 -92l18 -39l17 -61l10 -35l12 -33l39 -51v1046h231z" />
    <glyph glyph-name="bn_aa" unicode="&#x986;" horiz-adv-x="1587" 
d="M1174 1036q21 -6 39 -15t32 -22l49 -51q11 -11 17.5 -27.5t9.5 -39.5q2 -5 3 -15.5t1 -25.5v-35v-35v-698l98 -105v1073h227l-102 103h-125l-12 14l-22 29l-11 22l-8 33l-8 53l-41 33q2 -8 3 -20t1 -27v-45l8 -123l33 -233l-12 43l-17 43l-18 39q-49 118 -154 131l-73 6
l-60 2h-31h-1103l102 -103h969v-673l-119 206q0 79 -20 145.5t-62 117.5l-37 43l-29 30q-95 74 -219 74q-18 0 -37.5 -3t-36 -9.5t-30 -17t-19.5 -25.5q-24 -59 -24 -90q0 -65 57 -99q45 -28 117 -28q40 0 90 71q24 31 37 31q21 0 39.5 -16.5t33 -44t23 -63t8.5 -73.5
q0 -36 -10.5 -66.5t-31.5 -53t-53.5 -35t-76.5 -12.5q-91 0 -159 32q-36 17 -77.5 50t-90.5 81l-45 64q-17 26 -28 48.5t-17 41.5l-72 195l-64 26q5 -26 23 -80t47 -139t53.5 -140.5t44.5 -84.5q102 -146 150 -185q26 -20 60 -37t79 -32q31 -15 47 -15l45 -2q39 0 77 13
t71 34.5t60.5 50t45.5 60.5q19 -15 32.5 -29t22.5 -26l46 -70l55 -92l18 -39l17 -61l10 -35l12 -33l39 -51v1046h33z" />
    <glyph glyph-name="bn_i" unicode="&#x987;" horiz-adv-x="961" 
d="M1037 1040l-103 103h-150l2 26q0 75 -41 134q-33 51 -88 81q-59 41 -165 41l-183 -6l-145 -12l-29 2l-65 21q-53 27 -56 40l-6 43q0 55 49 86l-12 3h-16l-31 -5l-14 -6q-17 -19 -23 -41q-5 -9 -7.5 -23t-2.5 -34q0 -18 5.5 -38t15 -39.5t22 -36.5t26.5 -29
q48 -45 113 -63.5t131 -18.5h29q5 2 15.5 3t27.5 1l51 8h62l86 2q27 0 56 -4.5t58 -15.5q60 -23 60 -45l-9 -21q-27 -41 -61 -47l-47 -2l-21 -4h-671l100 -103h315l37 -32q34 -34 27 -47q-3 -8 -37 -17q-42 -15 -67.5 -27t-34.5 -20l-37 -43l-25 -35q-36 -58 -26 -94
q9 -45 38 -63q20 -10 40 -14.5t38 -4.5q60 0 111 39l49 49q35 41 35 98q11 5 22.5 7t22.5 2q25 0 63 -19q40 -15 60 -61q11 -20 15.5 -41t4.5 -41q0 -33 -16 -55q-34 -35 -58 -56t-38 -30l-95 -37q-17 -8 -43 -11.5t-61 -3.5l-76 6l-76 15q-40 12 -75 27.5t-66 33.5
l123 -256q74 -20 127.5 -36.5t87.5 -30.5q35 -14 83.5 -37.5t111.5 -59.5q109 -63 202 -135t168 -157l-32 139l-156 143q-37 35 -96.5 78t-141.5 92l-39 35q72 21 126 53t91 70t55.5 79.5t18.5 82.5l2 20q0 90 -61 178q-61 93 -146 117l-39 10l-45 19l-26 24l-19 47h595z
" />
    <glyph glyph-name="bn_ii" unicode="&#x988;" horiz-adv-x="1051" 
d="M1100 1040h-760q-2 -2 -2 -4l-2 -2q-6 -8 -10 -24l6 -37l8 -15l27 -8q20 0 55 -18q39 -14 70 -51q30 -35 43.5 -56.5t18.5 -40t4 -38t3 -46.5l51 64l23 24l37 31l88 68q35 24 82 43l168 -111l-103 -104q-10 -10 -21.5 -28.5t-25.5 -43.5l-55 -119l-25 -84l-12 -78l-4 -69
q0 -62 8 -106t33 -97l18 -41l35 -61l-86 39l-47 141l-23 94q-12 74 -12 146q0 86 21.5 160.5t62.5 166.5q-4 -10 -49 -63l-121 -140q-67 -92 -115 -139q-79 -74 -163 -100q-93 0 -154 88q-8 8 -31 70q-4 12 -6 24t-4 29l4 16l41 37q25 -113 84 -113l37 9q27 6 59 32l88 93
l33 45l10 61q0 113 -63 129l-37 8q-16 0 -43 -20q4 -53 -24.5 -95t-86.5 -42q-55 0 -96 38.5t-41 94.5q0 28 13 57l22 41l45 35q33 20 49 24l29 7l-47 79h-215l-103 103h859q53 16 53 76q0 24 -36 36.5t-79 12.5l-57 -2l-82 -11l-72 -4l-84 -2h-39l-41 -4h-51q-20 0 -32.5 3
t-37.5 12q-26 10 -55 32.5t-41 34.5q-14 16 -27.5 32.5t-21.5 35.5l-14 69q0 54 26 92l37 29l35 -41q-10 -14 -18.5 -30.5t-10.5 -36.5l6 -29l19 -27q12 -12 43 -24l63 -8l88 6l105 8l74 2h22l39 4q27 0 52.5 -2t47.5 -8q46 -4 92 -28.5t60 -43.5q12 -12 23.5 -28.5
t21.5 -36.5l16 -45l7 -50l-2 -24h120z" />
    <glyph glyph-name="bn_u" unicode="&#x989;" horiz-adv-x="1053" 
d="M1116 1040l-102 103h-133l-2 61l-11 47q-30 91 -116 133q-30 20 -80 29q-47 12 -86 12l-80 -4l-80 -4l-104 -4l-82 -2q-32 0 -74 19q-66 34 -66 92l13 41q12 16 28 28l-47 21q-7 1 -15.5 -8.5t-16.5 -26t-13.5 -37.5t-5.5 -43l4 -41l12 -35q16 -39 56 -71
q48 -45 112.5 -63.5t130.5 -18.5h29q5 2 15.5 3t27.5 1l51 8h62l86 2q36 0 66 -7.5t51 -20t33 -28t12 -30.5l-25 -20l-80 -33h-799l99 -103h420v-313v-74l4 -32q9 -64 41 -99q17 -17 40 -26t52 -9q49 0 121 39q18 13 39.5 30t46.5 40q69 69 75 96q12 -12 22 -30t16.5 -36.5
t10 -35.5t3.5 -29l-3 -22l-14 -50l-31 -57q-32 -57 -97 -93t-152 -36q-46 0 -88 12q-87 28 -123 66l-76 92q-26 31 -47.5 68t-36.5 82l-49 135q-16 54 -23.5 101t-7.5 87l-61 33l18 -154q14 -85 24.5 -140.5t18.5 -84.5l37 -100l20 -54q45 -81 74.5 -130t44.5 -66
q104 -119 246 -119l18 -2h29q65 0 118 15t95 44q83 59 115 160q17 51 24.5 95.5t7.5 84.5q0 60 -18 108t-43 91l-45 70q-12 14 -25.5 23t-27.5 16l-27 6q-42 0 -106 -94q-65 -93 -95 -93l-26 9l-25 20l-14 53v303h610z" />
    <glyph glyph-name="bn_uu" unicode="&#x98a;" horiz-adv-x="1149" 
d="M1204 1040l-100 103l-39 -2h-51h-43l-29 2q0 68 -47 133q-47 71 -94 88q-46 24 -127 33q-80 12 -144 12l-198 -18l-64 -9h-80l-61 2l-45 9q-24 8 -38 18t-21 19.5t-9 18.5t-2 15q0 10 6.5 25t20.5 37l-6 12l-23 31l-26 22l-23 -28q-18 -47 -18 -84q2 -20 4.5 -34t5.5 -22
l16 -39q16 -38 53.5 -64t93.5 -42.5t129 -24t161 -6.5l96 4l90 11l67 6l70 -2q17 0 31 -2t28 -7q9 -3 31 -12q45 -20 45 -57l-4 -31q-6 -14 -49 -14h-47h-866l102 -103h530v-290l5 -80l12 -70q6 -37 43 -74q43 -37 98 -37q20 3 35 5t34 11.5t46 29t71 57.5q76 69 82 96
l39 -72q5 -14 8 -28t3 -31l-2 -29q-7 -24 -13 -42.5t-14 -30.5l-37 -47q-22 -24 -50.5 -44t-60 -34.5t-65 -22.5t-66.5 -8l-45 4l-43 10q-23 10 -43 20.5t-37 22.5l-63 66l-33 45l-28 49l-21 33l-14 37l-19 43l-8 30l-31 99q-18 76 -18 151l-59 43q2 -11 3 -18.5t1 -15.5
v-25l18 -145l18 -101l25 -76l59 -139q20 -40 40 -71t40 -54l-69 58q-31 29 -84 110q-17 23 -32 47.5t-26 50.5l-43 115l-18 64l-23 100l-12 53l-41 41h-12l-2 -26l8 -93l16 -77q29 -94 57 -167.5t54 -125.5q76 -150 162 -217q36 -30 75 -53.5t77.5 -40t76 -25t70.5 -8.5
q131 0 237 73q111 78 142 168q17 48 24.5 91t7.5 83q0 51 -14 101.5t-43 99.5q-17 26 -40 53.5t-54 55.5q-16 16 -31 16l-43 -51q-20 -32 -46 -60.5t-58 -54.5q-50 -47 -105 -59q-16 0 -16 43v86v282h569z" />
    <glyph glyph-name="bn_ri" unicode="&#x98b;" horiz-adv-x="1239" 
d="M1301 1040l-104 103h-159l-6 123l-92 75v-804q-14 26 -32.5 50t-41.5 44l-43 35l-47 32v549l-102 101v-353q-23 42 -48 75.5t-53 57.5q-32 29 -65 52.5t-68 40.5q-80 -130 -213 -142q0 37 -20 70q-29 31 -72 31q-22 0 -41 -9.5t-33 -25.5t-22 -36.5t-8 -41.5l4 -33
q21 -75 80 -96q18 -8 50 -11t77 -3q26 0 60 12.5t77 38.5q43 28 67.5 48t30.5 34q10 0 21 -3t21 -7.5t18 -9t12 -7.5q20 -14 35 -28.5t26 -28.5l-118 -60l-175 -94l-63 -41l-109 -82l107 -153l119 -27q12 -4 27 -10.5t30 -14t29 -15t24 -13.5q19 -11 35.5 -22.5t32.5 -22.5
q8 -6 14.5 -12t14.5 -11q23 -23 42.5 -46t36.5 -48l48 -86l36 -102l35 -37v493q37 -18 63 -35t42 -32q20 -17 37 -40.5t32 -55.5l35 -82q25 -55 25 -72l32 -39v827h259zM676 385q-23 32 -40 54t-34 40l-65 64l-60 49l-104 61l65 54l39 26l39 23l72 49q18 12 40 21t48 14
v-455z" />
    <glyph glyph-name="bn_li" unicode="&#x98c;" horiz-adv-x="918" 
d="M852 475l2 -26q0 -66 -44 -148t-128 -141q-37 -25 -82 -44.5t-90 -32.5t-85 -19.5t-67 -6.5l60 99l37 94l8 65q0 19 5 35.5t-1 28.5q-4 10 -4 18v19q0 10 -3 20t-14 21l-47 47q-4 4 -26.5 14t-46.5 6q-9 -2 -27 -5t-38.5 -9t-38 -16.5t-25.5 -28.5q-11 -25 -11 -45
q0 -19 17 -29l26 2q47 0 67.5 -25.5t20.5 -68.5q0 -35 -12 -66q-18 -47 -78 -47q-28 0 -50.5 12.5t-47.5 34.5q-29 27 -36 60t-13 72l-2 45q8 57 20.5 92t28.5 56.5t41 33.5t59 22q13 7 32.5 10t38.5 6t36.5 4t30.5 1q53 0 101 -32t89 -79q20 -24 27.5 -48.5t8.5 -50.5
t-2 -53.5t-3 -54.5q0 -12 -6.5 -27.5t-13.5 -30.5t-15 -29.5t-12 -22.5l131 96q57 45 57 121q0 63 -26.5 116.5t-86.5 108.5l-98 90q-31 29 -63.5 50.5t-63.5 43t-58.5 43t-47.5 50.5q-45 63 -45 116l2 29q10 41 34 72q9 8 26 18t37.5 18.5t38 13.5t27.5 5q19 0 43.5 1
t39 -4t13.5 -20.5t-34 -46.5q-10 -10 -24.5 -23t-24.5 -24q-17 -43 -10.5 -64.5t10.5 -31.5l33 -47l114 -82q64 -47 106 -87t85 -99q18 -25 33.5 -46.5t27.5 -43t21.5 -47t15.5 -58.5z" />
    <glyph glyph-name="bn_e" unicode="&#x98f;" horiz-adv-x="1188" 
d="M1014 -4v997q0 17 -12 38t-35 44l-47 45q-20 17 -40 25t-38 8l-41 -2l-39 -12l-131 -60q-67 -52 -101 -92q-51 -60 -82 -126t-42 -138l-3 -25q0 -31 11 -61t33 -54t54 -38.5t74 -14.5l52 5q14 3 27.5 10.5t25.5 19.5q17 17 26 38t9 46q-5 23 -8.5 40t-8.5 28
q-21 40 -34 43l-37 6l-54 -6q14 63 38 102t61 68l67 55q16 12 30 21t28 14l45 18l37 6q30 -6 30 -22v-746l-102 82q-72 35 -186 35l-76 -4l-64 -8l-43 -4q-26 0 -51.5 4t-60.5 12q-70 19 -99 47q-43 45 -55 80l-12 55l-2 54l8 82l2 20q0 14 18 47l27 45l-41 43l-31 -53
l-37 -78l-16 -65l-2 -72q0 -64 12 -119l35 -88q16 -32 38.5 -59t53.5 -47q45 -29 88 -44.5t99 -15.5l75 4l105 15l86 12l63 2q25 0 46.5 -4t41.5 -10q22 -7 39.5 -16.5t31.5 -26.5t24.5 -44t19.5 -69q9 -39 19 -45z" />
    <glyph glyph-name="bn_ai" unicode="&#x990;" horiz-adv-x="1239" 
d="M1176 1059q0 28 -6 54t-17 52q-34 69 -94 117q-32 26 -98 55t-166 58q-353 106 -340 176q15 57 47 80l28 14l33 14l-55 60q-15 3 -19 -4l-18 -25q-41 -41 -61 -82l-19 -45l-2 -29q0 -134 164 -215q11 -5 90 -31.5t227 -74.5q187 -61 217 -135l9 -17l6 -53l-12 -51
q-5 -8 -11.5 -15.5t-17.5 -13.5l-33 -16l-29 -2q-16 3 -16 51q0 50 -41 96q-6 8 -21.5 18.5t-41.5 22.5l-48 23l-61 -8l-59 -19q-14 -8 -27 -15.5t-27 -15.5q-21 -12 -37.5 -22.5t-27.5 -18.5q-32 -23 -53.5 -42t-32.5 -33q-52 -64 -82 -142q-14 -38 -21.5 -65.5t-7.5 -42.5
q0 -91 44 -144t124 -53l53 4q15 6 31.5 17.5t30 27t22.5 34.5t9 40l-4 35l-13 31q-28 47 -71 47l-33 -4l-25 -4q16 42 34.5 76.5t41.5 60.5l27 26l41 41l22 19l29 22l33 19l36 14l37 6q31 -6 31 -22v-738l-100 80q-35 17 -82 26t-107 9q-62 0 -147 -12l-58 2l-65 12
q-79 21 -109 49q-21 21 -34.5 41.5t-20.5 41.5t-9.5 43t-2.5 46l10 86l2 21l16 45l23 45l-37 47l-33 -51q-14 -26 -21.5 -46t-10.5 -32q-19 -77 -19 -147q0 -57 9.5 -106t29.5 -91q28 -55 70 -84q29 -20 69 -36.5t94 -29.5q14 -5 38.5 -7.5t56.5 -2.5l112 8l174 15
q82 0 125.5 -31.5t59.5 -91.5l20 -80l47 -47v749q14 20 26 35t23 23q134 83 134 233z" />
    <glyph glyph-name="bn_o" unicode="&#x993;" 
d="M752 1098q90 0 149 -47q60 -41 100 -140q7 -16 7 -45q0 -37 -5.5 -62.5t-17.5 -70.5q-20 -74 -59 -112q24 -31 40.5 -57.5t28.5 -45.5l15 -47q6 -25 6 -59q0 -60 -23 -121q-16 -51 -67 -103q-47 -41 -99 -55q-28 -6 -60 -10t-69 -4q-77 0 -145 33q-43 20 -80 49l-111 110
q-18 17 -37.5 45.5t-43.5 67.5l-29 53l-43 88l-82 205l-76 238l70 -37l26 -84l27 -64q16 -43 39 -90t55 -98l45 -84q33 -62 78 -106t101 -85q26 -18 56 -33.5t58 -29.5q45 -18 103 -18q82 0 140 36.5t83 114.5l4 35q0 39 -25 70l-37 28q-47 -41 -94 -41q-59 6 -87.5 34
t-37.5 91q0 33 17 62q12 16 16 23t29 24q12 12 27.5 16t31.5 4l45 -6l37 -16q74 37 74 123q0 45 -29 79q-12 17 -33.5 25t-64.5 14q-57 0 -113 -20q-41 -14 -59 -27l-78 -53q-25 -18 -45 -51q43 -25 61 -103l2 -12v-10q0 -43 -30 -68q-33 -20 -74 -20q-51 0 -96 31
q-15 12 -35 49q-12 32 -12 71q0 56 20 90q64 111 174 168q62 29 115 43.5t117 14.5z" />
    <glyph glyph-name="bn_au" unicode="&#x994;" horiz-adv-x="1270" 
d="M1202 940v29l-8 61l-20 62q-17 38 -42 70t-59 57q-38 29 -107 60.5t-169 63.5l-203 70q-86 47 -86 109q-8 8 -8 24q0 26 21 42t69 30l-25 35l-30 28q-32 -15 -58.5 -37t-44.5 -48t-27 -52.5t-6 -50.5q0 -114 131 -197q56 -37 134.5 -65.5t181.5 -48.5l94 -27l72 -25
q85 -45 104 -106q5 -11 6.5 -24t1.5 -27q0 -85 -77 -180l-78 -66q15 9 41 61q24 55 24 99l-2 22q-29 91 -92 137t-154 46q-63 0 -119.5 -12.5t-109.5 -37.5q-126 -57 -176 -172q-14 -25 -14 -41l-2 -47q0 -90 47 -125q49 -32 94 -32q21 0 40 8.5t32.5 23.5t21.5 35.5t8 44.5
q0 39 -26 72l-31 27q17 24 28 39.5t19 23.5l68 45q17 10 61 23q25 7 40.5 11t29 6t27 2.5t34.5 0.5q62 0 86 -24q37 -43 37 -84q0 -21 -7.5 -41.5t-18.5 -38t-25 -30.5t-27 -19l-22 8q-14 5 -29.5 7.5t-32.5 2.5l-37 -4l-26 -12q-58 -43 -58 -111l13 -63q6 -11 15.5 -21.5
t23.5 -19.5l32 -15l39 -2l53 10q14 7 25 16t21 21l34 -35q13 -18 19 -36t6 -35v-17l-4 -22q-19 -69 -72 -100t-127 -31q-60 0 -121 18q-46 16 -84 36t-69 46l-74 68l-61 73l-62 103q-29 49 -53 95t-41 91l-53 146l-64 32l66 -221l84 -213l73 -143q23 -38 44 -66t38 -45
q82 -90 142 -131q48 -31 96 -46t96 -15q35 0 65 2.5t56 7.5q29 9 59 24t62 35q49 32 70.5 83.5t21.5 117.5q0 23 -4 45.5t-10 42.5q-22 70 -56 127l115 117q88 107 88 199z" />
    <glyph glyph-name="bn_ka" unicode="&#x995;" horiz-adv-x="1169" 
d="M1229 1040l-101 103h-1243l105 -103h624v-79q-125 -41 -202 -76q-78 -35 -183 -99q-60 -38 -107.5 -71t-84.5 -62l141 -174q45 -6 76 -13t49 -15l68 -29l53 -31q63 -32 131 -123q35 -42 57.5 -75.5t30.5 -59.5l31 -90l37 -37v817l26 2q66 0 125 -30q45 -23 78 -58
q46 -39 66 -98q14 -32 14 -74l-6 -18l-19 20q-35 31 -80 31l-61 -10l-31 -29q-8 -9 -13.5 -18.5t-8.5 -20.5l-6 -37l6 -34l20 -35q50 -56 109 -56q33 0 63 14t53 39.5t36.5 60t13.5 75.5q0 193 -148 319q-113 101 -215 101l-20 -4v77h516zM610 285q-23 40 -45.5 72.5
t-42.5 58.5q-23 29 -47 52t-47 40q-15 12 -26.5 20.5t-20.5 15t-16.5 11.5t-16.5 10q-18 13 -44 25t-60 26l63 46l68 47l110 61q51 28 125 51v-536z" />
    <glyph glyph-name="bn_kha" unicode="&#x996;" horiz-adv-x="995" 
d="M1066 1040l-92 111l-120 2q-12 6 -20 11t-11 10l-12 55l-4 63l-59 37v-1026q-14 23 -31 47.5t-39 48.5q-56 61 -111 105l-63 45l-66 35l45 18l56 33q68 48 96.5 103.5t28.5 111.5q0 22 -5 41.5t-14 38.5q-20 34 -36.5 58.5t-30.5 39.5l-60 53l-63 54l-68 -64l-92 -80
q-17 -10 -59 -16q0 20 -4.5 35t-12.5 26q-27 31 -82 31q-50 0 -82 -41q-8 -11 -13 -20t-7 -17l-2 -51q0 -27 12 -49.5t32 -38t47 -24.5t56 -9q35 0 94 17l84 30l60 33l88 82q29 -23 40 -44t11 -56q0 -40 -45 -84q-32 -29 -72.5 -51t-91.5 -37l-78 -17l-75 -6l-86 8l170 -211
q81 -12 159 -39.5t150 -72.5q52 -34 88 -76l41 -53l24 -39l31 -62l14 -37l17 -34l18 -33l27 -29v1034h218z" />
    <glyph glyph-name="bn_ga" unicode="&#x997;" horiz-adv-x="993" 
d="M1048 1040l-100 103l-35 -6l-67 8q-21 8 -27 24q-9 23 -13.5 44t-4.5 38l4 27l-62 59l2 -284q0 -34 5 -83t14 -112l18 -113q-20 54 -35 91t-26 59t-27 44.5t-39 45.5l-69 66q-18 18 -46.5 33t-63 26t-72.5 17t-74 6q-48 0 -88.5 -10.5t-75.5 -30.5q-48 -33 -86 -88
q-51 -76 -51 -144q0 -42 19 -75.5t61 -59.5q17 -10 36 -10q34 0 101 43q69 43 98 43q31 0 49 -25q8 -8 8 -20q0 -14 -8.5 -30t-25.5 -36l-64 -67l-72 -78l-45 -39l119 -133l57 69l62 95q26 38 40 65.5t17 42.5q5 14 8 32t3 40q0 83 -91 133q-33 18 -53 18l-55 6l-66 -8
l-47 -10q40 88 94 119q17 11 46 18.5t67 14.5q35 6 84 -13l45 -20l29 -14l84 -72q59 -59 73 -96q8 -17 14.5 -32t8.5 -32l20 -65v-609l93 -90v1075h210z" />
    <glyph glyph-name="bn_gha" unicode="&#x998;" horiz-adv-x="965" 
d="M1035 1040l-101 103h-1038l100 -103h102l-24 -53l-6 -59q0 -17 2.5 -31.5t7.5 -28.5l4 -8q5 -17 19 -34.5t40 -37.5q64 -51 133 -51l39 4l39 15q-29 -23 -57.5 -48.5t-54.5 -54.5l-99 -102l135 -139l54 -2l57 -7q60 -11 113.5 -36.5t101.5 -65.5q86 -80 117 -149l43 -107
l49 -47l-2 1042h226zM707 270q-20 34 -45 65t-54 60q-17 19 -30 31t-25 23q-23 20 -55 36q-14 10 -28.5 17t-31.5 12l-73 31q24 32 54.5 65t67.5 68q39 35 71 61t58 41l-110 109q-12 -16 -31.5 -31t-41 -26t-44 -18t-41.5 -7t-39 8t-36 22.5t-26.5 33.5t-10.5 40l14 52
q8 17 17 29.5t20 23.5q36 30 80 24h340v-770z" />
    <glyph glyph-name="bn_nga" unicode="&#x999;" horiz-adv-x="936" 
d="M901 332q0 56 -13.5 108t-39.5 103q-29 57 -70 95t-92 56l-29 -51l-39 -45l-63 -63q-37 -31 -74 -31q-35 5 -49 23t-14 48v185q14 -21 82 -21q95 0 178 39q96 53 96 140l-8 38l-8 37q-23 50 -70 70q-50 24 -104 24q-51 0 -95 -20q-72 -37 -104 -72q-14 -17 -28.5 -44
t-28.5 -64l-25 22l-24 29l-84 158l-152 -41l33 -45l28 -35l52 -57l75 -66l39 -33l54 -39v-248q3 -25 30 -69l31 -41l33 -27q25 -18 46.5 -27.5t41.5 -9.5q14 0 27.5 3t25.5 10l90 59l72 55l18 17l17 26q59 -65 59 -125q0 -99 -82 -157q-68 -47 -170 -47q-60 0 -119 20
q-41 15 -79 44t-72.5 68t-65 86t-55.5 99l-51 121q-8 17 -20.5 70t-30.5 141l-54 41l19 -139l16 -103l23 -98l37 -109l41 -92q30 -64 70 -118t85 -94.5t94 -65.5t97 -31l41 -6l45 -2q154 0 239 92q78 84 78 209zM686 965q4 -8 4 -21q0 -18 -10 -36t-29 -34t-45.5 -28.5
t-60.5 -18.5l-58 -6q-45 0 -53 15q11 27 23.5 48.5t29.5 35.5q35 34 80 47l35 10q11 5 21.5 6.5t21.5 1.5q32 0 41 -20z" />
    <glyph glyph-name="bn_cha" unicode="&#x99a;" horiz-adv-x="836" 
d="M886 1040l-104 103h-882l100 -103h145v-749q0 -49 50 -117q51 -68 94 -74l24 -2q42 0 87 19t90 55t90 87t88 116q20 32 33.5 62t21.5 59l18 63q2 8 3 21.5t1 33.5l-6 35q-11 29 -31.5 58.5t-52.5 46.5l-192 67q-65 23 -94 43l-47 35q-16 12 -28 26t-22 29l-12 31l-12 33
q-2 5 -3 9.5t-1 12.5h642zM584 618l4 -20v-20q0 -34 -17 -80q-17 -35 -32 -57.5t-21 -28.5l-84 -95q-17 -15 -38.5 -30.5t-47.5 -30.5q-20 -11 -35 -15.5t-26 -4.5q-26 6 -33.5 19t-7.5 38v579q23 -38 43.5 -66t40.5 -46q18 -19 52.5 -42.5t76.5 -47.5q8 -8 21.5 -14.5
t33.5 -14.5z" />
    <glyph glyph-name="bn_chha" unicode="&#x99b;" horiz-adv-x="926" 
d="M997 -154l-12 80l-111 109q-60 59 -101 94t-64 49q-11 9 -20 15t-17 8l-43 24l-92 45l49 17l61 37q94 58 123 88q20 17 33.5 36.5t21.5 40.5q7 22 11 35.5t5.5 24.5t2 22t0.5 29q0 116 -78 209q-76 94 -178 94h-21l-26 -4l-37 -8h-35q-32 0 -58 4t-46 12q-98 47 -111 62
q-8 8 -14.5 25.5t-18.5 46.5h769l-94 104h-996l94 -104h127v-433q0 -19 10 -39t26 -37.5t37 -31t44 -19.5l38 -6q64 0 132 43q86 50 135 106.5t49 116.5l-6 37l63 -12l78 -23q31 -47 31 -88q-2 -18 -7.5 -35t-13.5 -32l-35 -39q-55 -50 -94.5 -80.5t-62.5 -44.5
q-16 -10 -27 -16.5t-21 -10.5t-22 -7t-31 -7l-73 -12l-62 -2q-35 0 -78 7.5t-96 24.5l101 -188q58 -8 108 -18t92 -21l123 -39q236 -76 438 -289zM451 776l2 -24q0 -61 -95 -131l-34 -25q-10 -8 -24 -13.5t-34 -9.5q-27 0 -37 7q-8 8 -8 47v295l31 -50l65 -36q32 -29 78 -41
z" />
    <glyph glyph-name="bn_ja" unicode="&#x99c;" horiz-adv-x="1212" 
d="M1253 1040l-100 103h-1274l103 -103h424l-58 -61q-31 -38 -49 -67.5t-25 -49.5q-14 -34 -14 -82q0 -69 37 -133q26 -37 49.5 -63t46.5 -41q26 -13 52 -19t49 -6h26l51 10l86 33l25 6q35 -6 41 -35q14 -25 14 -49q0 -62 -78 -102q-38 -20 -76.5 -29.5t-76.5 -9.5
q-27 2 -47.5 4t-44 12t-53.5 32.5t-76 64.5q-72 66 -103 159l-32 117q-7 24 -7 74v41q0 40 -10 57l-16 21l-41 32l-2 -10v-20l2 -82l2 -96q6 -57 15 -104.5t22 -82.5l32 -88q37 -78 74 -129q32 -45 67 -78t72 -53q83 -43 168 -43q25 0 58.5 8t58.5 19q32 15 55.5 30.5
t38.5 30.5q40 40 60 123q10 17 10 51q0 45 -29 123q-14 38 -29 67.5t-32 49.5l-29 37q-20 20 -33 20q-12 9 -30 0l-33 -16l-86 -43q-34 -19 -51 -19l-33 -6q-76 0 -76 72v8l2 14q28 83 84 154q64 76 82 57l59 -78q22 -27 57 -48.5t77 -37t88 -24t90 -8.5l57 2l23 -4
q-11 -26 -21 -58.5t-18 -70.5q-25 -103 -25 -172l6 -72l17 -92l57 -250q10 -10 53 -23q6 -2 18.5 -3t30.5 -1q-38 85 -57.5 156t-19.5 131v51l10 78q0 93 67 209q55 91 93 129l-58 59l-96 99l-96 -33q-35 -15 -49 -15l-39 -2l-29 -2l-76 9l-63 24q-70 46 -58 103l64 34h575z
" />
    <glyph glyph-name="bn_jha" unicode="&#x99d;" 
d="M1203 1040l-103 103q-8 -1 -21 -1t-26.5 1t-26.5 3t-20 5l-31 12l-14 37l-5 27l-10 65l-49 41v-891l-37 56l-41 47l-39 37q-14 14 -27.5 22.5t-25.5 13.5v525h-827l100 -103h629v-32v-19l-187 -82q-48 -23 -93.5 -48.5t-90.5 -51.5q-17 -11 -42.5 -26.5t-57.5 -37.5
q-28 -18 -54.5 -36t-52.5 -35l137 -172q47 -2 92 -12t91.5 -34.5t95.5 -67.5t104 -112q28 -37 46 -65.5t26 -48.5l39 -92l45 -48v482q64 -34 113 -86l49 -64l20 -35l15 -36l30 -91l50 -49v899h199zM629 291q-16 29 -35.5 57.5t-42.5 57.5l-53 61l-45 45l-64 55
q-17 14 -46 30t-73 36l56 39l53 33l123 69q38 20 70 33.5t57 21.5v-538z" />
    <glyph glyph-name="bn_nya" unicode="&#x99e;" horiz-adv-x="1581" 
d="M1499 236l19 34q8 15 8 29l10 41v31q0 17 -4.5 44t-15.5 62l-58 119q35 38 57.5 89t22.5 108q0 45 -20.5 91t-63.5 83q-70 67 -139 67q-56 0 -121 -41q-50 -33 -98 -92q-20 -18 -36 -39.5t-30 -46.5q-27 -40 -33 -65v229q0 23 -12 41q-12 28 -31 45q-8 11 -26 23t-47 24
l-52 25q-24 0 -46 -4.5t-48 -15.5t-59.5 -29t-79.5 -46q-38 -38 -62.5 -64.5t-35.5 -41.5q-99 -129 -99 -221q0 -45 10.5 -80.5t30.5 -61.5q51 -49 131 -49h19l26 2q13 0 29 8.5t29.5 23.5t23 35.5t9.5 45.5l-7 39l-16 37q-18 27 -29 30q-16 11 -34 11l-56 -6q15 53 43 100
q11 17 25 32.5t33 30.5l24 27l35 27l35 24l31 19q24 12 47 12q43 0 49 -31l10 -39v-671l-117 69q-90 31 -223 31q-57 0 -102 4t-88 12q-132 31 -172 90q-14 20 -22 37.5t-11 32.5l-6 78l2 49l6 37l16 43l31 49l-41 41l-33 -51l-35 -78l-16 -66l-2 -69q0 -68 12 -117l35 -88
q19 -32 41.5 -58t48.5 -44q23 -14 43 -24.5t37 -18.5q18 -6 29.5 -9.5t22 -5t22.5 -2t31 -0.5l43 -2q24 0 71.5 4.5t118.5 14.5l47 8h53l68 -4q41 -6 80 -49q23 -28 31 -60l30 -90l49 -49l2 428l31 -37q20 -20 35 -33t25 -18q32 -34 65.5 -60.5t67.5 -46.5
q45 -26 83.5 -39.5t73.5 -13.5q39 0 68 15.5t51 44.5zM1444 375q-41 -53 -135 -53q-63 0 -115 24q-154 80 -190 219l-3 21q0 56 58 129q58 76 125 119q17 14 35 23t38 15q11 8 20 11.5t17 3.5l35 2q62 0 103 -51q16 -24 16 -52q0 -45 -35 -92l-14 -8l-41 8l-25 -2
q-29 13 -45 13q-22 0 -43 -10t-37.5 -26t-26.5 -37t-10 -42q0 -26 10 -46t26.5 -34t39 -21.5t47.5 -7.5l66 21l45 22l41 -41q20 -20 20 -49q-6 -34 -22 -59z" />
    <glyph glyph-name="bn_Ta" unicode="&#x99f;" horiz-adv-x="848" 
d="M930 1040l-82 103h-111v35q0 15 -3 35.5t-11 46.5q-20 43 -51.5 77.5t-63.5 53.5q-29 20 -70.5 30.5t-95.5 10.5l-106 -7l-105 -4l-71 -4l-58 -4l-51 10l-37 17l-43 33l-10 28l-4 27q0 29 25 53l-5 18v19l-22 -8q-17 -3 -21 -13q-16 -20 -22 -41q-5 -9 -7.5 -23t-2.5 -34
q0 -18 5.5 -37.5t15 -39t22.5 -37t28 -29.5q45 -45 110.5 -63.5t131.5 -18.5h29q5 2 15.5 3t27.5 1l51 8h61l86 2q69 0 117 -26q23 -17 30 -34.5t7 -43.5v-41h-729l84 -103h119v-563v-82l8 -63q8 -26 21.5 -51.5t33.5 -51.5q30 -41 51 -53q37 -24 62 -24h18l51 6q48 9 88 35
q45 26 91 64.5t96 90.5q28 30 48.5 60.5t33 64.5t18.5 72.5t6 83.5l-8 71l-20 48q-46 72 -111 86q-5 2 -13.5 3t-19.5 1q-45 0 -81.5 -24t-53.5 -81l-4 -33q0 -53 39 -86q43 -30 92 -30l31 4q-9 -66 -55 -129q-39 -50 -74.5 -84t-66 -55t-57 -30t-48.5 -9q-39 0 -60 20
q-18 27 -18 53v686h719z" />
    <glyph glyph-name="bn_Tha" unicode="&#x9a0;" horiz-adv-x="829" 
d="M893 1040l-109 103l-346 -2l-51 61l-74 101q-80 122 -80 190q0 74 41 113q14 14 39 27.5t62 29.5l-121 104q-26 -20 -44.5 -41.5t-31.5 -44.5q-33 -59 -33 -118q0 -22 7.5 -57t21.5 -85q17 -51 37 -92.5t43 -75.5q48 -69 53 -84v-26h-407l104 -105h367q11 -37 15.5 -72.5
t4.5 -70.5q0 -37 -8 -68.5t-25 -66.5q-32 -62 -112 -144q-22 -23 -43.5 -38.5t-42.5 -26.5q-17 -11 -41 -20.5t-53 -18.5q-8 -20 -11.5 -44.5t-3.5 -53.5q0 -31 4.5 -56.5t12.5 -54.5q21 -60 45 -88q29 -35 57.5 -59.5t56.5 -36.5q22 -15 52 -21l53 -8l39 -4q60 0 116 31
q39 23 65.5 41t45.5 37q26 17 47 55q14 18 23.5 39.5t15.5 44.5l23 76q5 14 7.5 33.5t2.5 45.5l-8 134q-8 31 -19 66t-26 75l-60 139q-22 38 -46.5 73t-53.5 64h389zM623 586q0 -51 -6.5 -96.5t-18.5 -86.5l-20 -53l-21 -35q-14 -20 -29.5 -36.5t-33.5 -28.5
q-36 -33 -56 -39l-39 -21l-37 -14l-34 -2l-41 6l-47 15q-13 4 -24.5 17.5t-20.5 32t-14 41t-5 44.5q0 43 14 51l39 22l64 35q63 34 96 80q56 69 85.5 147.5t29.5 159.5l-6 86q31 -39 54.5 -82.5t39.5 -86t23.5 -83t7.5 -73.5z" />
    <glyph glyph-name="bn_Da" unicode="&#x9a1;" horiz-adv-x="1071" 
d="M1145 1040l-102 103h-1141l100 -103h404v-18v-43v-180l4 -178q33 -74 53 -99q17 -17 38 -26t46 -9q53 0 112 37q20 13 42.5 31t48.5 41q71 65 77 96q14 -17 25 -36t16 -31q13 -33 13 -52l2 -30q-8 -32 -19 -61.5t-28 -55.5q-16 -26 -43 -48t-60.5 -39t-72 -26.5
t-78.5 -9.5q-46 0 -88 12q-94 32 -136 74l-59 72q-23 29 -44.5 69t-43.5 93l-29 65q-8 20 -12.5 38t-9.5 32q-16 54 -23.5 101t-7.5 87l-59 33l16 -154q12 -83 23 -139.5t20 -85.5l57 -154q44 -80 73 -129t46 -69q103 -121 244 -121q72 0 134.5 14t113.5 43q97 61 129 158
q30 96 30 174q0 81 -34 166q-14 29 -30.5 55t-33.5 49l-41 45q-15 16 -45 29l-27 -29l-18 -26q-20 -32 -47.5 -61t-63.5 -54q-71 -47 -110 -47v397h639z" />
    <glyph glyph-name="bn_Dha" unicode="&#x9a2;" horiz-adv-x="850" 
d="M934 1040l-104 103h-928l98 -103h152l1 -727q5 -23 26.5 -53t48.5 -56t55.5 -42.5t48.5 -11.5l51 6l86 39q50 29 90 65t72 78t52.5 76.5t31.5 62.5q11 29 16.5 66t5.5 82l-10 63q-3 14 -7.5 26.5t-10.5 26.5q-11 20 -23.5 35.5t-26.5 28.5q-14 14 -24.5 21.5t-20.5 7.5
l-32 6l-27 4q-30 0 -52 -8t-37.5 -21.5t-24 -30t-11.5 -34.5l-6 -43q0 -56 39 -89q46 -30 90 -30l33 4l-15 -72q-9 -33 -30 -57q-79 -97 -142 -141q-26 -20 -48.5 -29.5t-41.5 -9.5q-35 6 -47 25t-12 44v688h684z" />
    <glyph glyph-name="bn_Na" unicode="&#x9a3;" horiz-adv-x="899" 
d="M944 1040l-102 103h-37l-55 43q-11 14 -19.5 32.5t-13.5 43.5l-23 38l-37 41l2 -41v-61v-25v-30v-35v-39v-43q0 -32 6.5 -84.5t18.5 -126.5l8 -57l-53 102q-17 35 -37 67t-43 58l-31 39q-30 43 -51 49l-41 21q-17 6 -34.5 9t-34.5 3l-76 -8q-113 -29 -178.5 -108
t-65.5 -197q0 -131 70 -226q83 -98 186 -98h21q75 0 122 43q54 42 54 98l-8 45q-12 28 -23.5 44t-24.5 24t-28.5 10t-34.5 2q-37 0 -70 -20q-28 -23 -28 -64l2 -26l6 -25l-49 10q-58 52 -58 137l2 35q0 69 68 131q50 47 121 47l45 -4q20 -5 37 -11.5t32 -14.5
q15 -9 35 -26.5t39 -40.5t36 -49t26 -50q17 -31 19.5 -55.5t2.5 -38.5v-27l-2 -119v-448l113 -115v1038h186z" />
    <glyph glyph-name="bn_ta" unicode="&#x9a4;" 
d="M1174 1040l-109 103h-1171l102 -103h1178zM1059 522q0 61 -19 127l-24 64l-45 82q-42 57 -93 92.5t-114 50.5l-47 8l-47 4q-48 0 -94 -17.5t-78 -49.5l-39 -45q-29 -41 -29 -99l4 -39q15 -68 39 -102q25 -29 53.5 -44t63.5 -15l35 2l37 6q51 14 76.5 52t25.5 87
q0 66 -39 117q15 5 32 7.5t36 2.5q15 -2 26 -4.5t19 -5.5l34 -23l27 -20q31 -31 47.5 -67.5t16.5 -55.5q2 -6 3 -12.5t1 -14.5v-22q0 -20 -4.5 -41t-14.5 -41l-26 -49q-10 -17 -19 -30t-18 -21q-35 -33 -66 -53t-57 -29l-55 -15l-66 -6l-63 8l-68 23l-64 49q-17 12 -35 31
t-36 45l-58 80l-75 127l-86 178l-47 112l-60 25q13 -59 23.5 -100.5t21.5 -67.5l99 -246l18 -39l27 -51l79 -127l66 -82l37 -37q17 -14 40.5 -27.5t55.5 -29.5q76 -33 148 -33q78 0 102 6l51 19l80 41q79 58 117 129q45 82 45 186z" />
    <glyph glyph-name="bn_tha" unicode="&#x9a5;" horiz-adv-x="977" 
d="M990 1043l-105 105l-60 3q-34 19 -34 98l-5 19l-55 65v-1093q-17 27 -43.5 59t-64.5 68q-93 85 -127 104l-54 33q-20 20 -49 26q106 64 146 109q23 25 42.5 57t34.5 74q19 48 19 98q0 114 -82 193q-79 82 -172 82q-56 0 -108 -13.5t-103 -39.5q-101 -52 -131 -144
l-10 -39l-4 -28q0 -27 8 -53t24 -47t40.5 -33.5t58.5 -12.5l51 8l43 29q17 17 26 35t9 35q0 35 -25 69l-29 35q11 22 45 39l82 43l15 6q3 2 11 3t22 1q27 0 50.5 -10t41 -27t27.5 -39t10 -47q0 -32 -21 -77q-44 -68 -149 -129q-100 -56 -162 -62l-51 -10l-27 -4l-55 2
l161 -213l99 -6q13 -3 27.5 -6.5t27 -7t21.5 -6t12 -3.5q93 -40 153 -82q47 -32 81 -67t57 -72l59 -90l63 -86l-1 1049h160z" />
    <glyph glyph-name="bn_da" unicode="&#x9a6;" horiz-adv-x="979" 
d="M1040 1040h-825v-432l43 33l137 121q31 24 67 46.5t75 45.5l137 61l178 -133l-51 -108q-51 -123 -70 -230l-8 -71l-4 -109l4 -43l6 -33l2 -36l12 -54l13 -51l18 -51l-72 27l-34 104l-21 70l-16 86l-13 123l-2 43v43l2 53l7 51l28 115q-22 -9 -51 -20t-59 -29
q-29 -17 -48.5 -29t-41.5 -35q-39 -35 -70 -67.5t-53 -65.5q-31 -39 -52.5 -78t-35.5 -74l-138 142v585h-104l-100 103h1036z" />
    <glyph glyph-name="bn_dha" unicode="&#x9a7;" horiz-adv-x="920" 
d="M973 1040h-203v-1073l-27 45l-43 105q-12 39 -84 116q-69 76 -120 111q-78 53 -103 62q-74 36 -192 49l-121 161l174 132l47 32l37 29q-37 0 -61.5 4t-53.5 18q-45 21 -73 72l-17 35l-8 53q0 33 11 67t65 70q47 27 110 27q37 0 71 -23.5t38 -58.5l-4 -20
q-6 -27 -30 -43.5t-69 -16.5q-10 0 -18 1t-16 7l-21 17q-16 -10 -16 -57q0 -46 41 -76.5t92 -30.5q20 0 33 4l26 14l152 89l78 47v135h202zM668 264v557q-27 -10 -53.5 -21.5t-53.5 -27.5l-100 -61l-82 -58l-78 -67q57 -21 100 -56q21 -12 44.5 -30.5t52.5 -40.5
q55 -43 94 -90l37 -47z" />
    <glyph glyph-name="bn_na" unicode="&#x9a8;" horiz-adv-x="918" 
d="M954 1040l-106 103h-973l102 -103h697v-546q0 19 -80 143q-56 85 -117 129q-44 34 -80 43q-34 14 -51 14l-43 2q-51 0 -96.5 -17.5t-79 -48.5t-53 -74.5t-19.5 -94.5l4 -43q20 -79 47 -107q37 -29 91 -37l53 -6q91 0 123 66q12 24 12 35q2 5 3 15t1 26q0 53 -57 129l8 18
q74 0 166 -74l65 -63q28 -31 43 -62q50 -105 86 -227q20 -62 29.5 -113.5t9.5 -93.5l-2 -30l39 -50v1067h178z" />
    <glyph glyph-name="bn_pa" unicode="&#x9aa;" horiz-adv-x="1096" 
d="M1102 1040l-58 84l-34 11l-29 6l-53 26q-25 28 -25 78l-6 10l-37 23v-301l19 -258l-25 61l-14 37l-13 41q-24 51 -56 95t-73 79q-54 48 -114.5 71t-128.5 23q-143 0 -240 -71q-37 -29 -70.5 -69.5t-64.5 -94.5q-19 -43 -19 -57q0 -40 35 -62q40 -18 51 -18q85 21 97 30
q10 9 30 9q16 0 28.5 -9.5t21.5 -24.5t13.5 -33t4.5 -36q0 -20 -4.5 -34.5t-13.5 -22.5l-88 -94l145 -54l350 349l25 -17q15 -9 26 -35l33 -55l12 -31l23 -59l10 -35v-522l98 -90v1054zM645 942l-242 -240l5 25q-7 41 -17 61q-15 37 -31 56q-15 24 -43 30q-22 11 -57 11
q14 23 26.5 41t24.5 30q35 32 79.5 46t101.5 14q63 0 94 -25l35 -24q18 -14 24 -25z" />
    <glyph glyph-name="bn_pha" unicode="&#x9ab;" horiz-adv-x="1198" 
d="M1210 1040l-102 103h-1204l100 -103l53 -36l31 -29l57 -35q22 -10 78 -16l70 -13l43 -26l47 -35l-88 -72l-102 -92l-99 -94l119 -170q74 0 138.5 -20.5t115.5 -55.5l86 -65q20 -17 39.5 -38.5t38.5 -45.5q17 -20 33.5 -46t31.5 -57l29 -57l41 -37l-2 803q6 12 39 12
l43 -4l86 -10q28 -6 49.5 -21.5t36.5 -35.5t23 -43.5t8 -45.5l-5 -22q-8 -6 -14 0l-20 12l4 -4q-37 31 -74 31l-35 -6q-74 -26 -74 -99q8 -33 19 -59l37 -41q26 -16 63 -16q49 0 90 22q44 29 63 65.5t19 92.5q0 37 -10.5 78.5t-29 80t-45.5 70.5t-60 51q-35 22 -63 33
t-49 16.5t-36.5 7t-25.5 3.5l-62 2q-50 0 -77 -12v-705q-32 57 -77 105t-102 90l-90 59q-29 17 -50.5 27.5t-37.5 15.5l142 119l53 43l57 49l-61 76l-66 75q-42 39 -77.5 70.5t-67.5 54.5h923z" />
    <glyph glyph-name="bn_ba" unicode="&#x9ac;" horiz-adv-x="909" 
d="M946 1040l-100 103h-950l100 -103h659v-69l-98 -33l-84 -35l-176 -86l-129 -76l-123 -84l131 -186q32 0 64 -4.5t63 -15.5q13 -6 30.5 -14.5t35.5 -17.5t35.5 -18t29.5 -16q42 -23 71 -44t46 -38t37 -42t43 -60l24 -43l25 -47l22 -52l54 -75v1056h190zM655 268
q-23 38 -45.5 67.5t-42.5 49.5l-67 66q-31 26 -56.5 45.5t-56.5 38.5q-32 20 -63.5 36.5t-63.5 30.5l76 49l94 56q57 32 113.5 56.5t111.5 43.5v-539z" />
    <glyph glyph-name="bn_bha" unicode="&#x9ad;" horiz-adv-x="1094" 
d="M1094 1040l-107 103h-1085l102 -103h1090zM1038 594q0 91 -110 233l-119 103q-49 -122 -182 -199l-45 -8l24 33q8 12 12.5 27.5t4.5 33.5l-7 35q-3 11 -7.5 21t-10.5 18q-39 45 -90 51q-149 0 -176 -121l-4 -37q0 -81 37 -122q52 -60 96 -72q27 -15 47 -15l65 -2h50
l53 15q48 26 80 46.5t49 37.5q50 50 67 94q20 -29 32.5 -50.5t17.5 -33.5q14 -25 14 -86l-10 -80q-31 -63 -67.5 -101.5t-78.5 -58.5q-62 -30 -129 -30l-45 2q-51 9 -85.5 17.5t-53.5 16.5l-53 33l-52 43q-45 42 -84 93.5t-73 113.5l-29 57l-37 80q-17 39 -30 74.5t-21 67.5
l-65 20l43 -137q21 -69 36.5 -115t24.5 -69q20 -45 34.5 -77t31.5 -63l45 -71l53 -74q32 -38 57 -65.5t45 -43.5q26 -15 57 -29t68 -26q70 -18 115 -18q57 0 137 18q20 6 40 17t42 26l43 37q40 36 67 71.5t44 75.5t24.5 87t7.5 106z" />
    <glyph glyph-name="bn_ma" unicode="&#x9ae;" horiz-adv-x="967" 
d="M1024 1040h-221v-1044l-43 43l-27 92q-8 25 -19.5 48.5t-23.5 43.5q-22 53 -47 68q-35 33 -65.5 56.5t-55.5 37.5l-39 21v-11l-14 -14l-47 -39l-55 -29l-58 -8q-39 0 -73.5 12.5t-51.5 32.5l-28 35l-13 43l-6 47q0 37 19 74l34 53q25 25 56 33l55 14l47 4q62 0 74 -18
q0 65 -21.5 114.5t-87.5 98.5l-131 47q-90 25 -106 43l-23 18l-35 39l-18 45l-102 103h1022zM705 326v710h-476l138 -114l47 -45q12 -11 23.5 -28.5t25.5 -41.5q14 -23 24.5 -44.5t16.5 -43.5l18 -76q13 -47 13 -72l-5 -41l39 -36q6 -17 33 -37l64 -78z" />
    <glyph glyph-name="bn_ya" unicode="&#x9af;" horiz-adv-x="911" 
d="M922 1040l-105 103h-921l102 -103l27 -34l69 -33l64 -21q75 -15 123 -37l94 -53l-119 -94l-98 -84l-90 -88l139 -172q117 0 180 -25q32 -12 69.5 -38t82.5 -66q80 -68 116 -135q43 -70 62 -125l45 -43v1048h160zM659 258l-84 104l-77 74l-66 49l-45 29q-23 14 -48 24.5
t-54 18.5l77 86q51 54 60 57q12 9 25 21.5t25.5 24.5t22.5 22.5t15 15.5l20 21q-9 14 -21.5 28t-29.5 31l-41 47l-57 52l-31 24l-28 19l-56 34h393v-782z" />
    <glyph glyph-name="bn_ra" unicode="&#x9b0;" horiz-adv-x="881" 
d="M889 1040l-105 103h-884l102 -103h627v-67l-183 -70l-174 -84q-34 -17 -66.5 -35.5t-64.5 -38.5l-121 -81l134 -183q88 0 168 -37l94 -49q54 -34 102 -82q29 -29 50 -55t32 -49l92 -170l39 -37v1038h158zM422 135l12 29q2 5 3 11.5t1 17.5q0 22 -9.5 41t-25 33t-35 22
t-38.5 8q-52 0 -82 -47q-8 -13 -12.5 -26t-4.5 -27q0 -25 10 -45.5t26 -35t36 -22.5t39 -8q52 0 80 49zM629 254q-12 21 -20.5 36t-15.5 27t-14 21.5t-16 19.5l-86 93l-61 55l-56 41q-11 8 -18.5 13t-14.5 9t-16 8.5t-24 10.5l-56 24l80 58l90 55l109 55l47 19l72 22v-567z
" />
    <glyph glyph-name="bn_la" unicode="&#x9b2;" horiz-adv-x="1057" 
d="M1130 1040h-235v-1046l-107 96v567q0 21 -16 50q-12 30 -37 49l-14 10q-39 22 -76 22q-27 0 -53 -38l-12 -33l-2 -41l8 -51l-43 -17l-13 33l-8 16q-28 56 -55 80q-29 29 -107 49l-43 7q-61 0 -110 -37t-68 -107l-6 -43q0 -57 39 -96q39 -33 96 -43q-28 45 -28 80
q0 43 36.5 76.5t77.5 33.5q70 0 107 -79q10 -31 15 -50.5t7 -40.5l-4 -20q-18 -49 -60 -73.5t-97 -24.5q-41 0 -84 13t-68 26q-57 36 -102 104q-31 61 -31 141l6 68q8 49 28.5 90t50.5 69.5t64.5 45t71.5 16.5q72 0 139 -37l52 -43l36 -47q-6 8 4.5 26.5t30 38t44 36
t46.5 20.5q60 0 95 -35l38 -53l19 -27l31 -63v282h-793l-104 105h1128z" />
    <glyph glyph-name="bn_sha" unicode="&#x9b6;" horiz-adv-x="1067" 
d="M1145 1040h-213v-1044l-109 90l-2 649q0 39 -65 142q-64 100 -133 100q-43 0 -73 -24.5t-32 -55.5q17 -4 47 -35l31 -26q20 -17 34.5 -33.5t22.5 -32.5q19 -29 19 -61q0 -17 -1 -26t-3 -15l-13 -37q-4 -15 -10 -24t-18 -17q-49 -23 -86 -23q-70 0 -133 70l-21 33l-12 -27
q-23 -35 -62 -49l-55 -21l-37 -6l-28 4l-23 11l-31 26q-8 10 -16 23.5t-17 32.5l-8 51q0 33 13 55l28 39l43 47l54 43q18 16 38 19l-57 86l-31 18q-36 18 -59 18l-127 -2l-98 103h207q65 0 124 -37l48 -49l34 -49q19 -31 25 -56q37 80 81 118t124 67l24 6l23 4
q18 0 47 -21.5t74 -81.5l78 -118l43 -72l26 -51l-39 284v240l29 -25l37 -43q12 -18 12 -38l2 -31l21 -27l49 -18h16l25 2l30 -2z" />
    <glyph glyph-name="bn_Sha" unicode="&#x9b7;" horiz-adv-x="920" 
d="M991 1040l-90 107h-999l71 -78l29 -31q5 -5 9 -11t9 -17q4 -2 7 -11q13 -32 28 -50.5t34.5 -29t44 -13.5t56.5 -3h39l39 2l37 -4l45 -12l39 -19l-57 -41l-94 -79l-80 -70l-78 -72l137 -178l51 -2l70 -10q20 -6 42 -17t48 -28q41 -19 78 -44t67.5 -53.5t55 -59.5t39.5 -62
l32 -60l27 -47l41 -45v1038h223zM668 715q-24 3 -78 51l-84 76q-26 35 -56.5 64.5t-64.5 54.5l-115 79h398v-325zM668 266q-20 28 -45 56t-52.5 54t-54.5 48.5t-51 40.5l-84 59l-80 39l96 101q14 17 29.5 29.5t38.5 29.5l37 25l12 -11l72 -59l86 -88z" />
    <glyph glyph-name="bn_sa" unicode="&#x9b8;" horiz-adv-x="1042" 
d="M1103 1040l-102 103h-1101l92 -90l26 -15l33 -47q12 -10 23 -17.5t27 -13t40.5 -8t63.5 -2.5q8 0 24 -1t45 -9l50 -22q23 -20 39.5 -43.5t25.5 -51.5q5 -8 6.5 -18t1.5 -21l9 -61l-89 -119l-45 -59q-26 -27 -51 -27q-14 3 -24.5 8t-18.5 13l-35 53q-11 22 -16.5 37
t-5.5 26l-68 -65l19 -37l22 -39l51 -78q19 -23 34 -36t28 -15l31 -14q6 -2 12 -3t14 -1h25l41 2q22 3 63 57l144 201q15 21 27.5 35t24.5 22t25 11t29 3q36 0 62 -30l45 -66l20 -53l-2 -443l100 -114v1048h235zM770 705l-92 106q-12 12 -21.5 20t-19 12.5t-20.5 6.5t-27 2
l-29 -2q-22 -6 -67 -45l-41 -27q4 8 4 39q0 19 -5 43t-16 55q-12 29 -25.5 48t-27.5 30l-57 47h442z" />
    <glyph glyph-name="bn_ha" unicode="&#x9b9;" horiz-adv-x="860" 
d="M979 -170l-39 139l-139 146q-41 46 -107 94l-90 63l-102 56l-10 18q145 58 204 117q60 60 78 145q2 5 3 15.5t1 27.5q0 45 -14 83t-43 81q-60 84 -137 113q-39 14 -60.5 21t-27.5 7l-17 5q-16 9 -22 28l-17 51h480l-101 103h-923l104 -103h295q44 -12 78 -55
q15 -20 4 -27l-78 -26q-76 -29 -109 -74q-34 -37 -40 -63l-5 -31l2 -27q13 -49 43.5 -72.5t75.5 -23.5q26 0 43 4t28.5 10t19.5 13l16 14l53 49q37 49 37 103q13 8 43 8q21 0 43.5 -5.5t43.5 -14.5t38 -20.5t26 -23.5q17 -26 25 -47.5t8 -40.5q0 -43 -35 -78l-41 -32
q-14 -14 -36.5 -27.5t-53.5 -26.5q-19 -14 -49 -20l-33 -8l-36 -6h-46q-35 0 -74 5.5t-77 16.5l-82 31l-72 41l113 -277q66 -14 119 -29.5t90 -29.5q51 -23 96 -44t88 -46q66 -41 116.5 -72.5t82.5 -54.5l92 -74l80 -76z" />
    <glyph glyph-name="bn_nukta" unicode="&#x9bc;" horiz-adv-x="612" 
d="M299 137q-59 0 -99 -40t-40 -97q0 -56 41 -95t98 -39q29 0 52.5 9.5t45.5 25.5q43 45 43 99q0 63 -41 100t-100 37z" />
    <glyph glyph-name="bn_aakaar" unicode="&#x9be;" horiz-adv-x="414" 
d="M483 1040h-227v-1071l-98 103v698v35v35q0 28 -4 41q-7 43 -25 67q-23 35 -67 64.5t-93 29.5l-26 -2l-105 103l41 4l41 2h31l49 -8q27 -2 48.5 -13.5t37.5 -27.5q33 -27 66 -96l18 -39l16 -43l13 -43l-33 233l-8 123v45q0 27 -4 47l41 -33l8 -53l8 -33l10 -22l23 -29
l12 -12h125z" />
    <glyph glyph-name="bn_ikaar" unicode="&#x9bf;" horiz-adv-x="389" 
d="M1065 1253l-23 66l-36 39q-44 42 -80.5 72t-65.5 47q-18 14 -38.5 24.5t-43.5 20.5l-90 39q-72 29 -131.5 41t-116.5 12q-81 0 -135 -25q-52 -25 -88.5 -46t-56.5 -38q-13 -14 -35.5 -47t-56.5 -86l-13 -37q-8 -19 -8 -49q0 -33 14 -47l91 -96h-263l103 -103h149l-2 -964
l105 -92v1056l235 4l-86 99h-184l-39 88q3 20 23 57l47 72l47 55q4 8 49 37q46 31 96 37q55 12 105 12l81 -6q45 -6 134 -37q45 -14 79 -32.5t60 -41.5z" />
    <glyph glyph-name="bn_iikaar" unicode="&#x9c0;" horiz-adv-x="414" 
d="M485 1040h-260v-1046l-100 98v948h-168l-82 103h262l-26 78q-5 16 -12 34.5t-19 38.5l-21 37q-6 23 -26 43q-47 70 -117 105q-27 12 -63.5 25.5t-88.5 29.5l-94 18l-102 7l-49 -3h-47q-29 0 -48.5 -4t-44.5 -16q-18 -4 -39.5 -16.5t-50.5 -30.5l-8 -8l-8 -21
q0 -18 31 -30l59 -17l125 -6q106 0 168 -16l90 -19q37 -12 70 -51l37 -55l8 -49l-2 -41l-6 -46h-109l33 31q10 15 16 41q0 45 -69 68l-107 8h-57q-47 0 -82 2t-60 8q-26 4 -57 19.5t-66 38.5q-32 18 -50.5 49.5t-18.5 68.5q0 62 33 88l59 54q61 34 217 55l37 2l25 2h32
q23 0 40.5 -2t49.5 -12l142 -37q18 -6 37.5 -15.5t42.5 -21.5l82 -64q63 -45 116 -143q17 -29 31 -61.5t29 -69.5l26 -96h160z" />
    <glyph glyph-name="bn_ukaar" unicode="&#x9c1;" horiz-adv-x="2" 
d="M84 -396l-17 49l-18 37l-47 74l-62 63l-47 45l-49 41q-3 2 -3.5 9t1.5 18l2 31l-2 26q0 53 -43 111l-51 37l2 -60l2 -71l-2 -25q-3 -11 -12 -8l-66 39q-32 16 -80 16l-45 -6q-20 -5 -34 -10.5t-23 -10.5l-41 -32q-41 -47 -41 -94l6 -52q3 -18 20 -36t43 -31.5t58 -22
t65 -8.5q31 0 60 12.5t55 32.5l68 62l41 -25l47 -37q21 -17 39.5 -31t33.5 -28q8 -7 15.5 -14t15.5 -15l60 -66l24 -32l12 -8l13 8v12zM-314 -95q3 -29 -22 -43q-16 -11 -35.5 -18.5t-44.5 -10.5q-38 0 -58 7.5t-26 27.5q-3 32 20 51q28 19 68 19q48 0 68 -6z" />
    <glyph glyph-name="bn_uukaar" unicode="&#x9c2;" horiz-adv-x="2" 
d="M166 -479q3 28 -6 65q-12 42 -21 52l-274 233q-29 -21 -55 -27q-11 -5 -25.5 -9t-34.5 -7q-14 -5 -29 -7.5t-30 -2.5q-41 0 -78 24q-21 16 -21 39l9 43q9 22 24 31q14 11 29.5 17t32.5 10l59 6l41 -2l41 -9q14 4 14 31q0 50 -16 72l-41 43l-35 31l6 -52l4 -47
q-19 15 -45 15l-26 -4l-35 -7q-32 -9 -53.5 -18.5t-35.5 -20t-23 -23.5t-15 -28q-16 -29 -16 -43q-5 -10 -5 -41q0 -24 7.5 -47.5t21.5 -46.5q26 -47 62 -62.5t84 -15.5l34 2l37 9q38 8 68 18.5t53 26.5z" />
    <glyph glyph-name="bn_rikaar" unicode="&#x9c3;" horiz-adv-x="2" 
d="M-266 -543l-56 56l-63 47q-47 32 -92 62t-90 56l-117 66l-109 63l299 216l37 102l84 -162l-231 -164q26 -14 57 -34.5t64 -47.5l86 -67l37 -23l30 -24q43 -31 49 -72z" />
    <glyph glyph-name="bn_rrikaar" unicode="&#x9c4;" horiz-adv-x="2" 
d="M-131 -541l-47 45l-53 39q-39 27 -77 45.5t-75 38.5l-98 56l-76 51l199 145l84 -43l-146 -108q23 -11 51.5 -28t55.5 -40l71 -43l31 -18l27 -21q37 -24 41 -59zM82 -362l-47 47l-53 39q-41 26 -79 49.5t-75 46.5l-96 53l-92 53l157 103l31 82l57 -105l-88 -86
q23 -12 48.5 -29.5t52.5 -40.5l73 -53l31 -18l27 -21q34 -26 41 -59z" />
    <glyph glyph-name="bn_ekaar" unicode="&#x9c7;" horiz-adv-x="604" 
d="M643 1042l-100 101h-658l103 -103h307q-51 -58 -88.5 -114.5t-63.5 -110.5q-49 -110 -49 -147l-6 -76v-55q0 -57 9 -112.5t26 -111.5q50 -146 153 -231q29 -25 71 -37t85 -12q31 0 72 14q32 15 53.5 33t34 38t17.5 41t5 42q0 19 -5.5 37t-14.5 33t-21 26t-24 16l-31 13
q-13 8 -35 8l-49 -15q-56 -27 -65 -86v-30q6 -23 14.5 -40t19.5 -30l25 -20l-4 -7h-23q-25 0 -41 7q-59 40 -90 67q-15 15 -26.5 35t-20.5 42t-15 44t-9 41l-6 78l4 74l14 98l27 121q24 66 60.5 116.5t86.5 88.5q40 30 141 75z" />
    <glyph glyph-name="bn_aikaar" unicode="&#x9c8;" horiz-adv-x="592" 
d="M662 1040l-101 103h-69v28l-5 46l-8 40q-18 57 -55 86q-37 38 -86 57t-94 19q-50 6 -129 6q-66 0 -101 7l-34 14q-23 12 -32 31t-9 39q0 29 24 43l-35 34l-16 -12q-25 -42 -25 -84q0 -18 4.5 -35.5t12.5 -34.5q31 -50 69 -73l95 -45l133 -23l100 -12q24 -4 41.5 -16
t28.5 -27t15 -31.5t1 -28.5q-9 -18 -27 -28h-469l101 -103h258q-48 -57 -86 -113t-64 -112q-26 -54 -39.5 -91.5t-13.5 -57.5l-6 -72l-2 -59q0 -113 35 -226q49 -140 153 -229q17 -13 33.5 -22t30.5 -15l47 -16l49 -2q18 0 37 3.5t37 10.5t34 16t27 21q56 56 56 110
q0 28 -10.5 52.5t-30.5 44.5l-29 24q-9 8 -21.5 12.5t-29.5 4.5l-31 2l-35 -4l-29 -17q-32 -26 -38 -51l-7 -45q4 -19 8 -31t9 -20l14 -21l10 -16l-20 -4q-27 6 -80 30q-56 31 -89.5 104.5t-33.5 190.5l6 93q3 26 8 51.5t11 48.5q23 88 51.5 148t60.5 96q34 35 84.5 69.5
t118.5 69.5l64 16l90 13q21 0 33 -7z" />
    <glyph glyph-name="bn_okaar" unicode="&#x9cb;" horiz-adv-x="890" 
d="M1447 1040h-227v-1071l-98 103v698v35v35q0 28 -4 41q-7 43 -25 67q-23 35 -67 64.5t-93 29.5l-26 -2l-105 103l41 4l41 2h31l49 -8q27 -2 48.5 -13.5t37.5 -27.5q33 -27 66 -96l18 -39l16 -43l13 -43l-33 233l-8 123v45q0 27 -4 47l41 -33l8 -53l8 -33l10 -22l23 -29
l12 -12h125zM6 1042l-100 101h-658l103 -103h307q-51 -58 -88.5 -114.5t-63.5 -110.5q-49 -110 -49 -147l-6 -76v-55q0 -57 9 -112.5t26 -111.5q50 -146 153 -231q29 -25 71 -37t85 -12q31 0 72 14q32 15 53.5 33t34 38t17.5 41t5 42q0 19 -5.5 37t-14.5 33t-21 26t-24 16
l-31 13q-13 8 -35 8l-49 -15q-56 -27 -65 -86v-30q6 -23 14.5 -40t19.5 -30l25 -20l-4 -7h-23q-25 0 -41 7q-59 40 -90 67q-15 15 -26.5 35t-20.5 42t-15 44t-9 41l-6 78l4 74l14 98l27 121q24 66 60.5 116.5t86.5 88.5q40 30 141 75z" />
    <glyph glyph-name="bn_aukaar" unicode="&#x9cc;" horiz-adv-x="890" 
d="M1355 1040l-104 103h-95l7 67l-11 74q-33 98 -106 125l-49 21l-49 10l-50 6h-36l-68 -4l-104 -2h-19l-57 -2h-56q-68 0 -106.5 13t-44.5 50l-6 23q-2 5 -3 13t-1 19q6 33 14 41q9 19 25 31l-45 39l-23 -18q-37 -58 -37 -121q0 -88 74 -150q32 -26 70.5 -43.5t85.5 -25.5
q21 -9 55 -9l76 -2h24h31h76q62 0 103 -1t66 -5t37.5 -11t18.5 -19q16 -24 16 -52q0 -40 -24 -67h-269l103 -103h166v-960l112 -109v1069h203zM6 1042l-100 101h-658l103 -103h307q-51 -58 -88.5 -114.5t-63.5 -110.5q-49 -110 -49 -147l-6 -76v-55q0 -57 9 -112.5
t26 -111.5q50 -146 153 -231q29 -25 71 -37t85 -12q31 0 72 14q32 15 53.5 33t34 38t17.5 41t5 42q0 19 -5.5 37t-14.5 33t-21 26t-24 16l-31 13q-13 8 -35 8l-49 -15q-56 -27 -65 -86v-30q6 -23 14.5 -40t19.5 -30l25 -20l-4 -7h-23q-25 0 -41 7q-59 40 -90 67
q-15 15 -26.5 35t-20.5 42t-15 44t-9 41l-6 78l4 74l14 98l27 121q24 66 60.5 116.5t86.5 88.5q40 30 141 75z" />
    <glyph glyph-name="bn_hasanta" unicode="&#x9cd;" horiz-adv-x="2" 
d="M346 -292h-151l-351 243h251z" />
    <glyph glyph-name="uni09CE" unicode="&#x9ce;" horiz-adv-x="731" 
d="M791 39l6 76q0 50 -13 92l-30 90q-14 29 -27 50.5t-27 35.5q-17 17 -35.5 32.5t-39.5 30.5q-32 23 -57.5 38.5t-45.5 23.5l-49 22l-55 25l-127 59q-88 44 -128 100t-46 117l4 41q5 14 8 24.5t8 18.5q35 50 47 50q13 -19 19 -66q6 -26 12 -43.5t12 -28.5q35 -55 79 -83.5
t95 -28.5l27 -4h23q87 0 127 38.5t47 104.5l4 51q0 29 -6 56t-17 53q-20 35 -46.5 64t-61.5 50q-35 23 -68 23q-8 2 -20 3t-27 1h-53q-8 0 -24.5 -1t-45.5 -9l-45 -17l-20 -12q-70 -45 -101 -82q-20 -23 -34 -51.5t-23 -60.5l-12 -54l-2 -47q0 -31 5.5 -60.5t16.5 -58.5
l39 -71l33 -53q58 -77 143 -125q29 -17 76.5 -38t114.5 -44q66 -23 111 -44t71 -38q100 -67 100 -142q0 -26 -12 -51l-12 -33zM543 905q-4 -13 -16 -26.5t-28.5 -24t-37.5 -17t-43 -6.5q-20 4 -32.5 8t-20.5 9l-41 33l-31 30q-19 33 -19 62l5 45q12 5 27.5 6.5t35.5 1.5
l33 -2h33q66 0 103.5 -31t31.5 -88z" />
    <glyph glyph-name="bn_auMark" unicode="&#x9d7;" horiz-adv-x="449" 
d="M475 1040l-104 103h-95l7 67l-11 74q-33 98 -106 125l-49 21l-49 10l-50 6h-36l-68 -4l-104 -2h-19l-57 -2h-56q-68 0 -106.5 13t-44.5 50l-6 23q-2 5 -3 13t-1 19q6 33 14 41q9 19 25 31l-45 39l-23 -18q-37 -58 -37 -121q0 -88 74 -150q32 -26 70.5 -43.5t85.5 -25.5
q21 -9 55 -9l76 -2h24h31h76q62 0 103 -1t66 -5t37.5 -11t18.5 -19q16 -24 16 -52q0 -40 -24 -67h-269l103 -103h166v-960l112 -109v1069h203z" />
    <glyph glyph-name="bn_Ra" unicode="&#x9dc;" horiz-adv-x="1073" 
d="M1118 1040l-104 103h-1114l102 -103h408v-311v-72l6 -24q25 -76 62.5 -115t94.5 -39q28 0 57 10.5t58 30.5l90 70q74 65 80 90q49 -64 49 -137q0 -30 -12 -58l-29 -53q-16 -31 -45 -57.5t-66 -46.5t-79 -31.5t-84 -11.5q-43 0 -86 12q-54 15 -95.5 39.5t-72.5 58.5
l-74 103l-33 55q-12 17 -20 37t-14 39l-50 135q-30 108 -30 188l-62 33l17 -154q24 -168 43 -225l26 -78l33 -75q119 -229 193 -289q50 -37 94 -55q15 -6 26.5 -9.5t22.5 -5t24.5 -2t32.5 -0.5l47 -2q133 0 234 76q85 70 117 168q8 23 14 45t8 41l6 84q0 51 -12 98l-33 94
q-45 95 -119 162l-18 10q-12 0 -31 -24l-30 -41l-41 -51l-52 -47l-77 -58l-19 -10l-24 -6q-17 3 -23 39l-4 57v43v270h608zM698 -164q8 14 11.5 29t3.5 31q0 24 -10 45t-26.5 36.5t-37.5 24t-43 8.5q-40 -6 -59 -14q-32 -25 -47 -49.5t-15 -59.5q0 -52 35 -84q34 -34 86 -34
q69 0 102 67z" />
    <glyph glyph-name="bn_Rha" unicode="&#x9dd;" horiz-adv-x="862" 
d="M868 1040l-102 103h-864l102 -103h150v-542v-62l2 -47l8 -37q12 -30 26 -56.5t27 -47t25 -34t20 -17.5q40 -25 66 -25l53 6q35 13 60 24.5t42 22.5q66 43 142 129q65 71 77 105q13 32 18 52.5t7 39.5q5 17 6.5 41t1.5 53q0 70 -35 129q-23 37 -46 60.5t-52 25.5l-53 6
q-47 0 -78 -24q-31 -29 -43 -82l-4 -33q0 -55 37 -86q48 -31 90 -31l33 4l-11 -67l-28 -49q-41 -53 -75.5 -89.5t-63 -58.5t-52 -31.5t-41.5 -9.5q-22 3 -37 21q-12 21 -12 43v667h604zM481 -111q5 10 8 23.5t3 32.5q0 27 -9.5 48t-25.5 35.5t-37 22.5t-45 8l-35 -6l-31 -16
q-14 -11 -26 -26.5t-21 -35.5q-10 -20 -10 -55q0 -27 9.5 -48.5t25 -37t37 -23.5t45.5 -8q18 0 34.5 6t30.5 17q35 21 47 63z" />
    <glyph glyph-name="bn_Ya" unicode="&#x9df;" horiz-adv-x="922" 
d="M928 1040l-107 103h-925l106 -109q11 -14 20.5 -24.5t18.5 -16.5q29 -20 67.5 -33.5t86.5 -19.5t82.5 -17t54.5 -28q14 -14 25.5 -22t19.5 -11l-113 -88l-96 -84l-94 -90l137 -174q54 0 97.5 -6t81.5 -21.5t75.5 -41t79.5 -64.5q38 -35 65.5 -68.5t44.5 -62.5
q20 -29 36 -62.5t30 -68.5l43 -45v1054h164zM442 104q19 37 19 60q0 22 -9.5 41.5t-25.5 34.5t-37 23.5t-43 8.5q-16 0 -34 -6.5t-33 -19.5t-25 -32.5t-10 -45.5q0 -22 9.5 -42.5t25.5 -36t36.5 -25t42.5 -9.5q53 0 84 49zM662 252q-6 9 -14.5 22.5t-19 28t-21 28
t-19.5 23.5l-76 76q-34 29 -63 50t-54 32l-41 18l-63 23l80 90l57 57l74 66l33 35l-72 84l-70 71q-28 35 -55 52l-49 32h373v-788z" />
    <glyph glyph-name="bn_rri" unicode="&#x9e0;" horiz-adv-x="1239" 
d="M1301 1040l-104 103h-159l-6 123l-92 75v-804q-14 26 -32.5 50t-41.5 44l-43 35l-47 32v549l-102 101v-353q-23 42 -48 75.5t-53 57.5q-32 29 -65 52.5t-68 40.5q-80 -130 -213 -142q0 37 -20 70q-29 31 -72 31q-22 0 -41 -9.5t-33 -25.5t-22 -36.5t-8 -41.5l4 -33
q21 -75 80 -96q18 -8 50 -11t77 -3q26 0 60 12.5t77 38.5q43 28 67.5 48t30.5 34q10 0 21 -3t21 -7.5t18 -9t12 -7.5q20 -14 35 -28.5t26 -28.5l-118 -60l-175 -94l-63 -41l-109 -82l107 -153l119 -27q12 -4 27 -10.5t30 -14t29 -15t24 -13.5q19 -11 35.5 -22.5t32.5 -22.5
q8 -6 14.5 -12t14.5 -11q23 -23 42.5 -46t36.5 -48l48 -86l36 -102l35 -37v493q37 -18 63 -35t42 -32q20 -17 37 -40.5t32 -55.5l35 -82q25 -55 25 -72l32 -39v827h259zM676 385q-23 32 -40 54t-34 40l-65 64l-60 49l-104 61l65 54l39 26l39 23l72 49q18 12 40 21t48 14
v-455zM508 -316l-56 56l-63 47q-47 32 -92 62t-90 56l-117 66l-109 63l299 216l37 102l84 -162l-231 -164q26 -14 57 -34.5t64 -47.5l86 -67l37 -23l30 -24q43 -31 49 -72z" />
    <glyph glyph-name="bn_lli" unicode="&#x9e1;" horiz-adv-x="1114" 
d="M891 535q82 -54 119 -99q32 -47 34 -114q5 -86 -37 -147.5t-114 -92.5q-10 -2 -25.5 -9t-27.5 5q-9 6 -9 33q0 4 1.5 12t1.5 14q10 15 16 43.5t2 44.5q-10 58 -41 82q-23 35 -59 29q-35 -6 -62 -37q-6 -14 -12 -49q0 -43 12 -45q25 22 51.5 -0.5t22.5 -69.5
q-8 -55 -57 -55q-35 -4 -58.5 28.5t-30.5 81.5q0 27 4.5 56.5t16.5 58.5q14 29 33.5 48.5t42.5 31.5q51 27 98 -2q43 -16 67.5 -63.5t24.5 -106.5q0 -33 21 -14q53 53 56 105t-46 91q-41 31 -97.5 64t-117.5 61q-29 10 -49.5 21.5t-28.5 27.5q-8 -100 -58 -172.5
t-136 -107.5q-17 -4 -39.5 -11.5t-32.5 11.5q-15 12 -15 35v34q7 11 12 28t8 35.5t4 34t-1 23.5q-8 60 -51 109q-33 41 -82 35.5t-82 -58.5q-4 -6 -9 -22.5t-5 -44.5q-11 -35 14 -45q10 10 30.5 11t39.5 -11q16 -17 24 -45.5t4 -53.5q-12 -67 -82 -71q-47 -7 -73.5 36
t-38.5 111q-6 35 2 68.5t24 74.5q27 64 73 98t95 34q15 0 32 -4.5t36 -10.5q55 -24 89 -89.5t34 -135.5q-2 -29 5 -32t21 11q70 68 75 135.5t-58 125.5q-56 43 -130.5 84.5t-160.5 78.5q-88 33 -120 77t-36 97q-4 29 1 50.5t18 44.5q30 39 76 28q20 -8 35.5 -20t19.5 -27
q16 -61 -41 -82q-10 -37 76 -63q41 -10 89 -34t109 -52q54 -35 92.5 -65.5t61.5 -65.5q18 -11 26 -41q0 4 3 6q10 14 25.5 20.5t28.5 3t24.5 -13.5t13.5 -26q14 -41 -27 -64q-6 -23 57 -41q29 -12 66 -27.5t82 -37.5z" />
    <glyph glyph-name="bn_likaar" unicode="&#x9e2;" horiz-adv-x="465" 
d="M285 412q71 -41 101 -84t30 -101q4 -69 -31 -124.5t-96 -79.5q-10 -5 -26.5 -7t-26.5 9q-9 10 -4.5 24t4.5 19q6 14 12 41.5t2 40.5q-2 34 -33 71q-20 27 -55 21q-17 -2 -29 -11.5t-20 -23.5q-13 -14 -15 -41q-4 -31 13 -37q8 8 19 9t24 -9q10 -8 16 -26.5t4 -36.5
q-4 -23 -18.5 -34.5t-30.5 -13.5q-31 -4 -53.5 26t-26.5 75q-4 39 18 92q23 51 68 72q43 22 86 -2q39 -15 60.5 -56t21.5 -88q0 -14 3 -17t13 5q45 45 48.5 89t-39.5 79q-33 26 -83.5 55t-107.5 51q-55 25 -75.5 51.5t-22.5 61.5q-6 37 12 61q21 25 49 19q27 -8 33 -35
q10 -35 -23 -51q-6 -19 48 -37q26 -8 59 -22.5t72 -34.5z" />
    <glyph glyph-name="bn_llikaar" unicode="&#x9e3;" horiz-adv-x="934" 
d="M756 643q69 -39 98 -88q12 -20 21.5 -47t11.5 -57q2 -72 -34 -130.5t-95 -84.5q-8 -5 -25.5 -11t-25.5 4q-11 11 -6.5 29t4.5 27q8 12 13 41.5t1 44.5q-2 18 -11.5 36.5t-23.5 36.5q-14 27 -53 23q-35 -6 -49 -39q-13 -12 -13 -43q-6 -31 11 -37q8 8 19 9t22 -9
q12 -10 18 -29.5t4 -35.5q-4 -25 -18.5 -37.5t-32.5 -14.5q-29 -4 -57 35q0 -80 -43 -144.5t-111 -92.5q-10 -6 -29 -6q-20 0 -35 12q-8 12 -4 27.5t4 23.5q5 8 9 21.5t6 28t3 28.5t-1 22q-2 25 -12.5 46.5t-26.5 43.5q-27 31 -66 25q-36 -4 -61 -43q-4 -8 -8 -20.5
t-6 -30.5q-2 -39 14 -45q8 8 23.5 9t25.5 -9q14 -12 21.5 -35t5.5 -43q-13 -59 -62 -61q-28 -5 -48.5 15.5t-32 55.5t-9.5 79t19 91q30 64 82 90q53 29 104 -2q43 -22 69.5 -71.5t26.5 -110.5q-2 -18 2 -21.5t19 7.5q53 57 57 111.5t-47 99.5q-41 34 -101.5 69t-125.5 64
q-72 28 -94.5 63t-26.5 76q-6 51 14 78q27 33 62 22q32 -8 38 -41q13 -51 -26 -65q-8 -25 55 -45q33 -13 72 -30t88 -42q41 -29 71.5 -55.5t47.5 -48.5q8 -23 18 -37q4 31 16 57q23 55 66 78q45 20 86 -2q39 -16 60.5 -59t21.5 -93q0 -16 4 -18t14 6q45 45 48.5 91t-39.5 83
q-33 31 -83.5 59.5t-107.5 53.5q-55 24 -75.5 53t-22.5 64q-2 36 12 63q19 27 49 20q27 -8 33 -34q10 -37 -23 -56q-6 -18 46 -39q28 -8 61 -23t74 -36z" />
    <glyph glyph-name="bn_shunya" unicode="&#x9e6;" horiz-adv-x="1026" 
d="M907 479l4 33v31q0 66 -15.5 127t-47.5 118q-35 65 -85.5 107.5t-115.5 67.5q-38 14 -73 20t-66 6q-142 0 -264 -100q-117 -99 -140 -238l-6 -71q0 -169 88 -308q111 -159 295 -159q150 0 281 114q127 112 145 252zM782 580q-9 -69 -43.5 -128t-93.5 -112
q-115 -100 -231 -100q-29 0 -55.5 8.5t-51.5 23.5q-29 23 -47 45t-28.5 44t-14.5 45.5t-4 50.5q0 20 4.5 49t15.5 67l48 105q40 79 131 135q43 28 84.5 42.5t83.5 14.5l41 -4q76 -18 112 -61q28 -29 40.5 -68t12.5 -92z" />
    <glyph glyph-name="bn_ek" unicode="&#x9e7;" horiz-adv-x="897" 
d="M526 51q107 64 162 137q64 89 64 199l-4 59l-13 58q-28 94 -98 188l-129 152l-72 78l-55 53l4 29q2 6 3 18t1 31l-2 24q-19 48 -45.5 70t-58.5 22q-20 -3 -34 -7t-22 -9q-43 -24 -55 -49l-14 -35l-2 -33l6 -43q3 -14 13.5 -32t29.5 -39l53 -56l148 -139l106 -111l63 -73
l39 -49q23 -44 23 -127q0 -34 -14 -58l-45 -47q-15 18 -39 31.5t-52.5 23t-58.5 14.5t-57 5l-29 -2l-35 -6q-36 -15 -64.5 -36t-49 -45.5t-31 -51.5t-10.5 -52q2 -18 7 -35t13 -32q14 -17 29.5 -29.5t34.5 -21.5l32 -19q34 -12 74 -12q19 0 40 2.5t44 7.5l51 23z" />
    <glyph glyph-name="bn_dui" unicode="&#x9e8;" horiz-adv-x="981" 
d="M983 -164l-25 131l-94 88l-35 33l-59 45l-96 74q-48 37 -87 64t-71 44l76 25l53 27q42 32 67 54t36 36q20 26 30 57t17 82l4 45q0 148 -115 248q-37 31 -65.5 53.5t-51.5 38t-43 26.5t-39 19q-11 5 -21.5 8t-21.5 6q-9 85 -55 101l-31 4q-8 4 -24 4q-14 0 -29.5 -5
t-34.5 -16l-26 -20q-13 -48 -13 -76q0 -81 95 -133l194 -86q133 -71 178 -176q5 -11 8 -20.5t3 -18.5q0 -64 -91 -106l-65 -25q-29 -6 -74 -6q-12 0 -19.5 0.5t-14 1.5t-15 3t-22.5 5l-101 33q-63 23 -110 46t-78 48l-33 31q-14 14 -14 28l100 -348q144 -30 242 -76
q61 -29 117 -60t122 -73q56 -34 100 -64t78 -56q17 -13 26.5 -20.5t12.5 -10.5q10 -8 19 -17l18 -18z" />
    <glyph glyph-name="bn_tin" unicode="&#x9e9;" horiz-adv-x="1040" 
d="M979 637q-17 105 -51 186t-88 138q-69 72 -134 105.5t-131 25.5q-42 0 -72 -6t-54 -20t-45 -38t-46 -61l-16 -41q-16 -43 -16 -90q0 -14 4 -36t12 -46q9 -25 17.5 -43t19.5 -29q62 -74 133 -74l47 8l41 21q50 34 70 77.5t20 84.5l-12 65q-5 19 -9.5 32.5t-11.5 23.5
q127 -44 166 -93q31 -40 47.5 -103t16.5 -153q0 -58 -22 -110.5t-62 -102.5q-102 -106 -232 -106l-63 6q-90 15 -182 121q-34 35 -59.5 71.5t-45.5 73.5q-34 68 -59 126.5t-37 109.5q-11 32 -17.5 68t-9.5 71l-88 41l23 -147l33 -138q24 -88 65.5 -175t99.5 -175
q177 -262 359 -262q57 0 111 18t99.5 50t81 76.5t56.5 97.5l27 90q11 38 15.5 82.5t4.5 95.5z" />
    <glyph glyph-name="bn_chaar" unicode="&#x9ea;" horiz-adv-x="1018" 
d="M829 343q0 128 -73 207q-29 32 -64.5 55t-79.5 35q26 10 53.5 30t55.5 52q55 64 67 136l3 30q0 99 -80 176q-87 84 -213 84l-23 -2q-80 0 -145.5 -24.5t-116.5 -75.5q-102 -102 -102 -223q0 -143 127 -217q17 -11 37 -19t44 -14q-30 -8 -53 -15.5t-39 -15.5
q-103 -58 -141 -170q-5 -9 -6.5 -21t-1.5 -26q0 -101 90 -188q108 -99 250 -99l39 2q77 10 140 31.5t114 56.5q118 86 118 215zM287 987q34 40 69 53q19 7 30 11t20.5 6t20 2.5t28.5 0.5q43 0 82 -14t68.5 -38t47 -56.5t17.5 -69.5q0 -67 -78 -127l-39 -26l-72 -39
q-49 11 -89.5 32t-72.5 50q-65 65 -65 135q0 47 33 80zM684 303l-20 -48q-14 -26 -29.5 -44t-32.5 -27q-70 -37 -149 -37q-31 0 -59 5.5t-54 16.5q-54 32 -75 66.5t-21 73.5q0 52 24 90q40 58 150 131q4 4 18 4q38 0 131 -61q117 -84 117 -170z" />
    <glyph glyph-name="bn_paanch" unicode="&#x9eb;" horiz-adv-x="1026" 
d="M995 745q-29 8 -60.5 22t-66.5 36l-84 51l-69 8q-36 9 -39 17q-25 29 -25 67q0 22 8 44t21.5 40.5t31 32t36.5 18.5l-168 39q-98 -18 -228 -116q-160 -130 -239 -297q-17 -36 -27.5 -65.5t-13.5 -55.5l-6 -101q0 -115 47 -204q55 -108 172 -172q31 -21 73.5 -38
t88.5 -28.5t92.5 -18t87.5 -6.5l106 9q44 9 90 30l-65 27l-45 20q-115 73 -133 193l-5 27v24q0 42 12.5 79.5t35.5 72.5q37 53 112 114q60 51 131 84q22 10 38 17.5t30.5 12.5t28.5 9t32 8zM711 752q-104 -41 -170 -125q-92 -119 -92 -269q0 -29 7.5 -64t24.5 -73
q35 -75 86 -123l-59 8q-102 26 -215 125q-42 40 -61.5 68.5t-27 51.5t-7.5 44t-2 47q0 45 12 94t35 105q24 56 58 105t73 88.5t79.5 68.5t77.5 47l15 -61q12 -41 30 -60l66 -55q19 -16 70 -22z" />
    <glyph glyph-name="bn_chhoi" unicode="&#x9ec;" horiz-adv-x="989" 
d="M944 403l4 43v25q0 56 -13 110.5t-38 104.5t-61 93t-82 77q-14 -42 -34 -78t-48 -67l-58 -68q-54 -55 -102 -55q-33 6 -47 16q-19 19 -19 43v324q0 34 -8.5 63.5t-24 50.5t-38.5 33t-53 12q-28 0 -49.5 -8.5t-36.5 -22t-23 -31.5t-8 -36q3 -20 7 -32.5t9 -20.5l29 -31
q20 -14 49 -14l39 -275q6 -27 14 -49t19 -39q32 -43 75 -70.5t105 -27.5l67 6q35 9 67 27t58.5 40t45.5 46.5t28 46.5q47 -71 47 -147l-2 -39l-8 -41q-31 -104 -104.5 -152.5t-174.5 -48.5l-40 2q-44 8 -79.5 20t-64.5 27q-34 20 -60 42t-44 48q-57 82 -95.5 145t-60.5 109
q-22 48 -40 113.5t-34 150.5l-57 27q0 -51 4 -95t12 -81q10 -37 34 -104t65 -166q48 -106 88 -166q58 -80 106.5 -128.5t92.5 -75.5t87 -37.5t91 -14.5l38 2l48 8q62 17 110.5 51.5t85.5 85.5q64 96 82 229z" />
    <glyph glyph-name="bn_saat" unicode="&#x9ed;" horiz-adv-x="1032" 
d="M956 72l2 30q0 55 -27 75t-75 20v544l2 23q0 113 -115 233q-112 119 -233 119q-112 0 -217 -108t-105 -228l5 -43q21 -88 112 -155q78 -60 125 -60l303 4v-366q0 -57 23 -105q14 -21 33 -35t42 -20l54 2l33 12q32 28 38 58zM735 676l-317 -2l-51 6q-45 12 -45 65l8 74
q12 53 104 127q93 74 148 62q61 -31 108 -140q47 -108 47 -168z" />
    <glyph glyph-name="bn_aat" unicode="&#x9ee;" horiz-adv-x="1059" 
d="M983 717l6 37l2 24l-2 39l-6 27l-16 6l-35 -62q-33 -20 -119 -20q-107 0 -145 -63q-20 -23 -23 -37l-10 -25l-19 14q-29 39 -52 62t-42 33q-36 24 -80 24l-51 -4q-17 -5 -38.5 -15.5t-47.5 -29.5q-25 -17 -40 -32t-23 -29v247l-11 107q-5 24 -18 43.5t-31 34t-39 22.5
t-43 8q-42 0 -66 -29t-24 -77q0 -53 33 -80q37 -24 84 -24v-676q26 -76 94 -138q67 -61 105 -55q88 26 157.5 66t120.5 94q105 108 105 231q0 59 -31 123l-6 21q3 28 88 28l108 6q94 32 115 99zM551 510q0 -14 -3 -34t-11 -46q-8 -23 -18 -44t-21 -38q-132 -178 -232 -178
l-12 18l-12 39l-2 348q23 16 41.5 26t35.5 15q17 8 29 11.5t19 3.5q5 2 18 3t33 1q21 0 42.5 -5t41.5 -16q55 -36 55 -77z" />
    <glyph glyph-name="bn_noi" unicode="&#x9ef;" horiz-adv-x="987" 
d="M915 438q-11 68 -35 126.5t-59 109.5q-85 116 -227 178l-299 98l-68 64q29 21 29 65q-5 19 -8 32.5t-8 23.5q-9 13 -20 21.5t-22.5 13.5t-22 7.5t-17.5 2.5q-38 0 -70 -37q-11 -14 -20 -32t-15 -40l-2 -29q0 -52 45 -116q85 -112 279 -189l289 -116q133 -73 133 -197
q0 -75 -58 -121l-98 -67q14 34 14 81q0 112 -84 207q-81 94 -190 94q-45 0 -98 -22q-42 -21 -77 -53.5t-60 -73.5t-38.5 -89.5t-13.5 -100.5l2 -46q12 -78 68 -131q25 -23 51 -35t55 -12q59 0 78 47q12 31 12 66q0 42 -20 68t-68 26l-26 -2q-33 23 -33 74q0 65 43 129
q47 65 82 59q70 -12 78 -18l47 -47q17 -19 32 -42.5t23 -43.5q5 -9 8 -17t4.5 -17t1.5 -21v-27l-2 -35l-34 -197q109 0 256 103q166 118 166 252z" />
    <glyph glyph-name="bn_asamiba" unicode="&#x9f0;" horiz-adv-x="905" 
d="M756 1040h221l-100 103h-975l98 -103h655v-69l-98 -33l-84 -35l-176 -86l-129 -76l-123 -84l131 -186q33 0 64.5 -4t62.5 -16l131 -66q43 -27 69.5 -45t46 -36.5t37 -42t44.5 -60.5l24 -43l25 -47l22 -52l54 -69v1050zM444 707l9 6q57 32 102 53.5t100 40.5v-285z
M655 268q-22 37 -44.5 65.5t-43.5 51.5l-67 66q-31 26 -56.5 45.5t-56.5 38.5q-33 20 -63.5 36.5t-63.5 30.5l76 49l22 13l297 -256v-140z" />
    <glyph glyph-name="bn_asamira" unicode="&#x9f1;" horiz-adv-x="881" 
d="M924 1040h-193v-1038l-39 37l-92 170q-20 43 -82 104q-24 23 -50 44.5t-52 37.5l-94 49q-80 37 -168 37l-134 183l121 81q64 41 131 74l174 84l183 70v67h-627l-100 103h917zM473 66l-22 28q-7 12 -22 29.5t-33.5 35t-36 34t-27.5 26.5q-31 23 -73 37t-79 49
q-10 8 7.5 30.5t25.5 31.5q6 4 28.5 -5.5t50 -23.5t52.5 -29.5t33 -23.5q29 -27 44 -36t40 -34q4 -4 16 -21.5t24.5 -37t22.5 -36.5l11 -16zM629 254v567l-72 -22l-47 -19l-109 -55l-90 -55l-80 -58l56 -24q28 -13 38.5 -19t34.5 -22l56 -41l61 -55l86 -93q17 -20 29 -41.5
t37 -62.5z" />
    <glyph glyph-name="bn_takamark" unicode="&#x9f2;" horiz-adv-x="879" 
d="M838 -479q-101 321 -260 587q-82 133 -171.5 243t-189.5 200l-162 -88q232 -111 426 -359q99 -125 176.5 -270.5t139.5 -312.5h41z" />
    <glyph glyph-name="bn_takasign" unicode="&#x9f3;" horiz-adv-x="786" 
d="M776 534q0 51 -6 66l-22 55q-42 75 -101 103q-12 5 -25.5 6.5t-27.5 1.5q-26 0 -49 -7.5t-41 -24t-30 -44t-15 -66.5l-2 -22q0 -139 135 -139l24 2l-6 -62l-37 -71q-21 -39 -44.5 -69.5t-51.5 -51.5q-28 -19 -52.5 -27t-47.5 -8q-46 0 -74 25q-27 33 -27 75l3 326h147
l-96 119h-56q2 5 3.5 17t1.5 32v41l-3 86v72q0 86 -33.5 138.5t-82.5 74.5l-27 4q-21 0 -38.5 -6.5t-32.5 -16t-26 -20t-18 -19.5q-3 -8 0 -26.5t13 -42.5l20 -41q5 5 16.5 8.5t28.5 3.5q37 -8 54.5 -26t17.5 -56v-229h-193l95 -113h90v-16v-35v-162l6 -166q6 -41 55 -96
q28 -25 51.5 -43t46.5 -29q19 -12 56 -12l78 10q29 8 58.5 26.5t63.5 43.5q94 71 123 139l52 92q26 59 26 180z" />
    <glyph glyph-name="bn_currency1" unicode="&#x9f4;" horiz-adv-x="885" 
d="M215 51q104 88 189 197.5t165 245.5q166 264 269 589h-43q-64 -168 -143 -313t-181 -272q-98 -127 -200.5 -215t-219.5 -142z" />
    <glyph glyph-name="bn_currency2" unicode="&#x9f5;" horiz-adv-x="979" 
d="M455 86q86 74 169 193.5t164 281.5q162 326 209 610h-41q-14 -86 -50 -183t-89 -210q-57 -110 -120.5 -206.5t-131.5 -176.5q-6 140 -84 234q-78 88 -170 88t-157 -68q-70 -65 -70 -166q0 -77 42 -127.5t97 -50.5q53 0 91 44t38 104q0 57 -61 137q0 33 57 33
q66 0 115 -60q51 -61 51 -139q0 -137 -235 -281z" />
    <glyph glyph-name="bn_currency3" unicode="&#x9f6;" horiz-adv-x="1104" 
d="M1008 1171q-35 -253 -114 -455t-185 -319q-54 -59 -104 -100t-97 -64q-98 -47 -215 -47q-68 0 -115 31t-47 84q0 33 57 33h19t34.5 -2t41 -3t34.5 -1q117 0 197 80q80 81 80 192t-66 188q-65 72 -161 72q-74 0 -126.5 -51t-52.5 -139q0 -60 39 -99t97 -39q51 0 88 33
t37 84q0 29 -15 49q-12 21 -12 29q0 23 27 23q34 0 62 -36t28 -89q0 -78 -56.5 -124t-154.5 -46q-13 0 -30 1t-39.5 3t-33 3t-14.5 1q-127 0 -127 -150q0 -123 68.5 -188.5t191.5 -65.5q180 0 332 138q153 135 256 424q100 288 121 550h-45z" />
    <glyph glyph-name="bn_currency4" unicode="&#x9f7;" horiz-adv-x="752" 
d="M137 1128q-78 0 -90 -112q64 0 64 -78v-670q0 -172 82 -172q77 0 77 117h-2q-35 0 -45 16.5t-10 51.5v688q0 73 -19.5 116t-56.5 43z" />
    <glyph glyph-name="bn_currency1less" unicode="&#x9f8;" horiz-adv-x="1169" 
d="M102 455q0 -162 76 -162q25 0 58.5 10t60.5 41q8 8 15 17.5t17.5 23.5t25 39t34.5 65q49 97 67.5 161.5t32.5 92.5q17 33 22 50.5t11 17.5q21 0 21 -47v-502q0 -170 78 -170q73 0 73 115h-2q-35 0 -43 16.5t-8 50.5v519q0 153 -76 153q-20 0 -48 -10t-48 -39
q-23 -27 -50.5 -121t-90.5 -244q-23 -53 -39.5 -77.5t-28.5 -32.5t-21.5 -5t-15.5 3q-24 0 -24 47v516q0 147 -72 147t-84 -110q59 0 59 -78v-487z" />
    <glyph glyph-name="bn_currency16" unicode="&#x9f9;" horiz-adv-x="752" 
d="M62 614q0 -86 54 -136t144 -50q93 0 146 59q29 33 41 64t20 90q11 86 -46.5 130t-143.5 44q-96 0 -158 -59q-57 -64 -57 -142zM391 639q-4 -35 -12 -57.5t-33 -42.5q-26 -23 -46.5 -36.5t-55.5 -13.5q-47 0 -68.5 18.5t-21.5 67.5q0 76 47 123q23 23 41 33t51 12
q53 5 75.5 -23t22.5 -81z" />
    <glyph glyph-name="bn_isshar" unicode="&#x9fa;" horiz-adv-x="733" 
d="M414 1012q-54 0 -76.5 31.5t-20.5 70.5t27 71t70 32q49 2 78.5 -27t29.5 -80q0 -37 -28.5 -67.5t-79.5 -30.5zM782 1047q-32 -64 -59 -110t-49 -75q-49 -63 -117 -107t-139 -48q-53 -5 -123 31t-141 122q-23 29 -39.5 70t-27.5 83t-17.5 79.5t-6.5 60.5q0 35 19.5 45
t36.5 -31q6 -16 15 -44.5t20.5 -59.5t23.5 -58.5t27 -41.5q43 -52 100 -77.5t111 -19.5q47 0 103 32t93 77q31 33 51.5 58.5t37 51t35 56t46.5 76.5q31 61 61.5 108t65.5 84q37 45 77 63.5t85 22.5q21 2 40 1t40 -3q41 -6 53.5 -24.5t16.5 -45.5q-2 -30 -8.5 -55t-26.5 -55
q-10 2 -22.5 3t-26.5 -1q4 49 3 74.5t-16 40.5q-24 16 -42.5 17t-49.5 -9q-28 -15 -49.5 -35.5t-44.5 -48.5q-27 -33 -65.5 -114t-90.5 -193z" />
    <glyph glyph-name="uni09FC" unicode="&#x9fc;" horiz-adv-x="731" 
d="M791 39l6 76q0 50 -13 92l-30 90q-14 29 -27 50.5t-27 35.5q-17 17 -35.5 32.5t-39.5 30.5q-32 23 -57.5 38.5t-45.5 23.5l-49 22l-55 25l-127 59q-88 44 -128 100t-46 117l4 41q5 14 8 24.5t8 18.5q35 50 47 50q13 -19 19 -66q6 -26 12 -43.5t12 -28.5q35 -55 79 -83.5
t95 -28.5l27 -4h23q87 0 127 38.5t47 104.5l4 51q0 29 -6 56t-17 53q-20 35 -46.5 64t-61.5 50q-35 23 -68 23q-8 2 -20 3t-27 1h-53q-8 0 -24.5 -1t-45.5 -9l-45 -17l-20 -12q-70 -45 -101 -82q-20 -23 -34 -51.5t-23 -60.5l-12 -54l-2 -47q0 -31 5.5 -60.5t16.5 -58.5
l39 -71l33 -53q58 -77 143 -125q29 -17 76.5 -38t114.5 -44q66 -23 111 -44t71 -38q100 -67 100 -142q0 -26 -12 -51l-12 -33zM543 905q-4 -13 -16 -26.5t-28.5 -24t-37.5 -17t-43 -6.5q-20 4 -32.5 8t-20.5 9l-41 33l-31 30q-19 33 -19 62l5 45q12 5 27.5 6.5t35.5 1.5
l33 -2h33q66 0 103.5 -31t31.5 -88z" />
    <glyph glyph-name="zwnj" unicode="&#x200c;" horiz-adv-x="0" 
d="M67 101h-147v1033h147v-1033z" />
    <glyph glyph-name="zwj" unicode="&#x200d;" horiz-adv-x="0" 
d="M357 670l-98 -79l-189 79l5 -542h-145l-5 542l-203 -120l-97 76l285 172l-219 118l99 77l208 -119l224 143l102 -74l-237 -145z" />
    <glyph glyph-name="uni25CC" unicode="&#x25cc;" horiz-adv-x="1213" 
d="M56 381l-44 169l131 20l45 -166zM19 658l54 154l128 -28l-54 -152zM152 914l167 103l82 -83l-167 -104zM476 1074h191v-108h-184zM848 1032l212 -118l-77 -88l-206 119zM1152 777l43 -217l-132 -15l-44 216zM1166 366l-118 -124l-106 67l116 121zM865 122l-205 -47
l-37 103l208 46zM387 102l-199 115l77 90l201 -116z" />
    <glyph glyph-name="bn_half_ka" horiz-adv-x="1169" 
d="M1074 -292h-151l-351 243h251zM1229 1040l-101 103h-1243l105 -103h624v-79q-125 -41 -202 -76q-78 -35 -183 -99q-60 -38 -107.5 -71t-84.5 -62l141 -174q45 -6 76 -13t49 -15l68 -29l53 -31q63 -32 131 -123q35 -42 57.5 -75.5t30.5 -59.5l31 -90l37 -37v817l26 2
q66 0 125 -30q45 -23 78 -58q46 -39 66 -98q14 -32 14 -74l-6 -18l-19 20q-35 31 -80 31l-61 -10l-31 -29q-8 -9 -13.5 -18.5t-8.5 -20.5l-6 -37l6 -34l20 -35q50 -56 109 -56q33 0 63 14t53 39.5t36.5 60t13.5 75.5q0 193 -148 319q-113 101 -215 101l-20 -4v77h516z
M610 285q-23 40 -45.5 72.5t-42.5 58.5q-23 29 -47 52t-47 40q-15 12 -26.5 20.5t-20.5 15t-16.5 11.5t-16.5 10q-18 13 -44 25t-60 26l63 46l68 47l110 61q51 28 125 51v-536z" />
    <glyph glyph-name="bn_half_kha" horiz-adv-x="995" 
d="M1205 -292h-151l-351 243h251zM1066 1040l-92 111l-120 2q-12 6 -20 11t-11 10l-12 55l-4 63l-59 37v-1026q-14 23 -31 47.5t-39 48.5q-56 61 -111 105l-63 45l-66 35l45 18l56 33q68 48 96.5 103.5t28.5 111.5q0 22 -5 41.5t-14 38.5q-20 34 -36.5 58.5t-30.5 39.5
l-60 53l-63 54l-68 -64l-92 -80q-17 -10 -59 -16q0 20 -4.5 35t-12.5 26q-27 31 -82 31q-50 0 -82 -41q-8 -11 -13 -20t-7 -17l-2 -51q0 -27 12 -49.5t32 -38t47 -24.5t56 -9q35 0 94 17l84 30l60 33l88 82q29 -23 40 -44t11 -56q0 -40 -45 -84q-32 -29 -72.5 -51t-91.5 -37
l-78 -17l-75 -6l-86 8l170 -211q81 -12 159 -39.5t150 -72.5q52 -34 88 -76l41 -53l24 -39l31 -62l14 -37l17 -34l18 -33l27 -29v1034h218z" />
    <glyph glyph-name="bn_half_ga" horiz-adv-x="512" 
d="M725 825v123l-37 45l-12 15l-17 6l-57 41q-15 15 -42 29.5t-61.5 25t-73 17t-75.5 6.5q-48 0 -88.5 -10.5t-75.5 -30.5q-47 -33 -86 -88q-51 -78 -51 -144q0 -42 19 -75.5t61 -59.5q17 -10 37 -10q33 0 100 43q69 43 99 43t49 -25q8 -8 8 -20q0 -29 -37 -78l-61 -72
l-64 -69l-37 -31l101 -121l53 61l35 41l32 50q26 38 40.5 65.5t17.5 42.5q5 14 7.5 32t2.5 40q0 83 -90 133q-35 18 -53 18l-56 6l-65 -8l-47 -10q39 88 94 119q17 11 45.5 18.5t67.5 14.5l45 -4q18 -5 32 -8.5t23 -8.5l78 -39l65 -51z" />
    <glyph glyph-name="bn_half_gha" horiz-adv-x="965" 
d="M1181 -292h-151l-351 243h251zM1035 1040l-101 103h-1038l100 -103h102l-24 -53l-6 -59q0 -17 2.5 -31.5t7.5 -28.5l4 -8q5 -17 19 -34.5t40 -37.5q64 -51 133 -51l39 4l39 15q-29 -23 -57.5 -48.5t-54.5 -54.5l-99 -102l135 -139l54 -2l57 -7q60 -11 113.5 -36.5
t101.5 -65.5q86 -80 117 -149l43 -107l49 -47l-2 1042h226zM707 270q-20 34 -45 65t-54 60q-17 19 -30 31t-25 23q-23 20 -55 36q-14 10 -28.5 17t-31.5 12l-73 31q24 32 54.5 65t67.5 68q39 35 71 61t58 41l-110 109q-12 -16 -31.5 -31t-41 -26t-44 -18t-41.5 -7t-39 8
t-36 22.5t-26.5 33.5t-10.5 40l14 52q8 17 17 29.5t20 23.5q36 30 80 24h340v-770z" />
    <glyph glyph-name="bn_half_nga" horiz-adv-x="553" 
d="M882 -292h-151l-351 243h251zM774 471q0 26 -2.5 48t-7.5 40q-5 19 -8 30.5t-6 19.5t-6 14.5t-9 15.5q-50 91 -147 129l-27 -53q-15 -31 -43 -49q-23 -17 -44.5 -25t-41.5 -8q-60 0 -70 33q-8 35 -10 51t-2 24l8 54l21 65l20 41q7 -10 25 -20t41 -18.5t50 -13.5t52 -5
l66 8l63 18q31 17 51.5 48.5t20.5 74.5l-14 60q-7 19 -25 35.5t-44 28.5t-59.5 19t-70.5 7h-664l107 -109h334q-6 -9 -10.5 -17t-6.5 -16l-24 -59l-21 -55l-8 -45q-2 -11 -3 -25t-1 -31v-51q0 -104 68 -160q63 -49 137 -49q26 0 46 6.5t36 18.5l61 51l31 41q27 -27 45 -74
q8 -13 8 -41q0 -25 -6 -41q-25 -79 -66 -100l-43 -29q-11 -5 -23 -8.5t-28 -5.5l-39 -4l-41 4l-45 14l-65 41q-48 36 -80 72l-39 45l-37 66q-17 26 -25 43t-14 37l-33 88l-18 71l-22 101l-54 41l2 -56l9 -65l10 -70l12 -63l33 -127l43 -101l35 -61l47 -68l55 -57l53 -37
q23 -15 44.5 -26t41.5 -17q23 -6 46.5 -8t48.5 -2t53.5 7.5t56 20t52 28.5t42.5 34q17 14 30 33.5t24 44.5q24 49 24 98zM530 1047q5 2 15.5 3t27.5 1l43 -4l29 -11l21 -24l10 -17q-3 -32 -25 -49l-30 -24l-31 -2l-60 2q-57 9 -75 18q-19 18 -19 29l10 28l35 29
q11 8 23 12.5t26 8.5z" />
    <glyph glyph-name="bn_half_cha" horiz-adv-x="455" 
d="M711 -292h-151l-351 243h251zM594 1040l-90 103h-604l100 -103h104v-606q0 -14 3.5 -30.5t9.5 -34.5q8 -19 18 -36t21 -34q33 -52 86 -66l22 -4l49 19l58 26l51 41q26 20 48 44.5t42 52.5l53 80l29 51l27 51l14 39q8 20 2 37l-12 32l-13 25l-22 27l-37 20l-66 12
q-64 14 -102 31l-35 14l-24 13l-27 20l-25 23l-32 39l-23 37q-12 24 -12 41l-4 36h391zM477 651l-14 -51q-6 -23 -17 -43t-26 -39l-35 -45l-37 -35l-24 -20l-29 -21l-16 -14q-8 -6 -31 -6q-26 2 -34.5 17.5t-8.5 41.5v408l33 -49l30 -31l33 -35q15 -20 55 -39q8 -8 22 -14
t34 -14l34 -7z" />
    <glyph glyph-name="bn_half_chha" horiz-adv-x="926" 
d="M916 -292h-151l-351 243h251zM997 -154l-12 80l-111 109q-60 59 -101 94t-64 49q-11 9 -20 15t-17 8l-43 24l-92 45l49 17l61 37q94 58 123 88q20 17 33.5 36.5t21.5 40.5q7 22 11 35.5t5.5 24.5t2 22t0.5 29q0 116 -78 209q-76 94 -178 94h-21l-26 -4l-37 -8h-35
q-32 0 -58 4t-46 12q-98 47 -111 62q-8 8 -14.5 25.5t-18.5 46.5h769l-94 104h-996l94 -104h127v-433q0 -19 10 -39t26 -37.5t37 -31t44 -19.5l38 -6q64 0 132 43q86 50 135 106.5t49 116.5l-6 37l63 -12l78 -23q31 -47 31 -88q-2 -18 -7.5 -35t-13.5 -32l-35 -39
q-55 -50 -94.5 -80.5t-62.5 -44.5q-16 -10 -27 -16.5t-21 -10.5t-22 -7t-31 -7l-73 -12l-62 -2q-35 0 -78 7.5t-96 24.5l101 -188q58 -8 108 -18t92 -21l123 -39q236 -76 438 -289zM451 776l2 -24q0 -61 -95 -131l-34 -25q-10 -8 -24 -13.5t-34 -9.5q-27 0 -37 7q-8 8 -8 47
v295l31 -50l65 -36q32 -29 78 -41z" />
    <glyph glyph-name="bn_half_ja" horiz-adv-x="548" 
d="M653 1022l-85 88h-658l90 -88h248q-14 -19 -23.5 -35.5t-15.5 -30.5l-27 -61q-12 -20 -16 -40.5t-4 -55.5q0 -41 20 -68q31 -38 66 -50.5t67 -12.5l82 14l64 31q31 -26 31 -68q0 -38 -29 -67q-5 -7 -19 -14t-31 -12.5t-35.5 -9t-33.5 -3.5q-17 0 -29.5 2.5t-23.5 7.5
l-72 37l-57 59q-23 26 -45.5 67.5t-42.5 98.5l-31 80l-16 65q0 10 -19 23l15 -109l16 -82l24 -81q27 -77 59 -129.5t69 -85t79 -46.5t90 -14q24 0 41.5 3.5t34 13t34.5 26t44 41.5q9 9 16.5 24.5t13 35.5t8.5 43.5t3 48.5q0 19 -12 45l-29 49q-33 39 -63 63q-24 -28 -74 -47
l-43 -20q-20 -10 -43 -10q-35 0 -43 14l-6 16l-2 21l2 30l10 33l20 33l27 35l47 47q20 -28 34.5 -46.5t25.5 -29.5q32 -25 64 -46t73 -26h51l92 21v90l-41 -14l-43 -13q-8 -2 -20 -3t-27 -1q-37 0 -55 6l-47 23q-26 17 -41 37.5t-15 46.5h256z" />
    <glyph glyph-name="bn_half_jha" 
d="M1255 -292h-151l-351 243h251zM1203 1040l-103 103q-8 -1 -21 -1t-26.5 1t-26.5 3t-20 5l-31 12l-14 37l-5 27l-10 65l-49 41v-891l-37 56l-41 47l-39 37q-14 14 -27.5 22.5t-25.5 13.5v525h-827l100 -103h629v-32v-19l-187 -82q-48 -23 -93.5 -48.5t-90.5 -51.5
q-17 -11 -42.5 -26.5t-57.5 -37.5q-28 -18 -54.5 -36t-52.5 -35l137 -172q47 -2 92 -12t91.5 -34.5t95.5 -67.5t104 -112q28 -37 46 -65.5t26 -48.5l39 -92l45 -48v482q64 -34 113 -86l49 -64l20 -35l15 -36l30 -91l50 -49v899h199zM629 291q-16 29 -35.5 57.5t-42.5 57.5
l-53 61l-45 45l-64 55q-17 14 -46 30t-73 36l56 39l53 33l123 69q38 20 70 33.5t57 21.5v-538z" />
    <glyph glyph-name="bn_half_nya" horiz-adv-x="1581" 
d="M1246 -292h-151l-351 243h251zM1499 236l19 34q8 15 8 29l10 41v31q0 17 -4.5 44t-15.5 62l-58 119q35 38 57.5 89t22.5 108q0 45 -20.5 91t-63.5 83q-70 67 -139 67q-56 0 -121 -41q-50 -33 -98 -92q-20 -18 -36 -39.5t-30 -46.5q-27 -40 -33 -65v229q0 23 -12 41
q-12 28 -31 45q-8 11 -26 23t-47 24l-52 25q-24 0 -46 -4.5t-48 -15.5t-59.5 -29t-79.5 -46q-38 -38 -62.5 -64.5t-35.5 -41.5q-99 -129 -99 -221q0 -45 10.5 -80.5t30.5 -61.5q51 -49 131 -49h19l26 2q13 0 29 8.5t29.5 23.5t23 35.5t9.5 45.5l-7 39l-16 37q-18 27 -29 30
q-16 11 -34 11l-56 -6q15 53 43 100q11 17 25 32.5t33 30.5l24 27l35 27l35 24l31 19q24 12 47 12q43 0 49 -31l10 -39v-671l-117 69q-90 31 -223 31q-57 0 -102 4t-88 12q-132 31 -172 90q-14 20 -22 37.5t-11 32.5l-6 78l2 49l6 37l16 43l31 49l-41 41l-33 -51l-35 -78
l-16 -66l-2 -69q0 -68 12 -117l35 -88q19 -32 41.5 -58t48.5 -44q23 -14 43 -24.5t37 -18.5q18 -6 29.5 -9.5t22 -5t22.5 -2t31 -0.5l43 -2q24 0 71.5 4.5t118.5 14.5l47 8h53l68 -4q41 -6 80 -49q23 -28 31 -60l30 -90l49 -49l2 428l31 -37q20 -20 35 -33t25 -18
q32 -34 65.5 -60.5t67.5 -46.5q45 -26 83.5 -39.5t73.5 -13.5q39 0 68 15.5t51 44.5zM1444 375q-41 -53 -135 -53q-63 0 -115 24q-154 80 -190 219l-3 21q0 56 58 129q58 76 125 119q17 14 35 23t38 15q11 8 20 11.5t17 3.5l35 2q62 0 103 -51q16 -24 16 -52q0 -45 -35 -92
l-14 -8l-41 8l-25 -2q-29 13 -45 13q-22 0 -43 -10t-37.5 -26t-26.5 -37t-10 -42q0 -26 10 -46t26.5 -34t39 -21.5t47.5 -7.5l66 21l45 22l41 -41q20 -20 20 -49q-6 -34 -22 -59z" />
    <glyph glyph-name="bn_half_Ta" horiz-adv-x="848" 
d="M745 -292h-151l-351 243h251zM930 1040l-82 103h-111v35q0 15 -3 35.5t-11 46.5q-20 43 -51.5 77.5t-63.5 53.5q-29 20 -70.5 30.5t-95.5 10.5l-106 -7l-105 -4l-71 -4l-58 -4l-51 10l-37 17l-43 33l-10 28l-4 27q0 29 25 53l-5 18v19l-22 -8q-17 -3 -21 -13
q-16 -20 -22 -41q-5 -9 -7.5 -23t-2.5 -34q0 -18 5.5 -37.5t15 -39t22.5 -37t28 -29.5q45 -45 110.5 -63.5t131.5 -18.5h29q5 2 15.5 3t27.5 1l51 8h61l86 2q69 0 117 -26q23 -17 30 -34.5t7 -43.5v-41h-729l84 -103h119v-563v-82l8 -63q8 -26 21.5 -51.5t33.5 -51.5
q30 -41 51 -53q37 -24 62 -24h18l51 6q48 9 88 35q45 26 91 64.5t96 90.5q28 30 48.5 60.5t33 64.5t18.5 72.5t6 83.5l-8 71l-20 48q-46 72 -111 86q-5 2 -13.5 3t-19.5 1q-45 0 -81.5 -24t-53.5 -81l-4 -33q0 -53 39 -86q43 -30 92 -30l31 4q-9 -66 -55 -129
q-39 -50 -74.5 -84t-66 -55t-57 -30t-48.5 -9q-39 0 -60 20q-18 27 -18 53v686h719z" />
    <glyph glyph-name="bn_half_Tha" horiz-adv-x="829" 
d="M823 -292h-151l-351 243h251zM893 1040l-109 103l-346 -2l-51 61l-74 101q-80 122 -80 190q0 74 41 113q14 14 39 27.5t62 29.5l-121 104q-26 -20 -44.5 -41.5t-31.5 -44.5q-33 -59 -33 -118q0 -22 7.5 -57t21.5 -85q17 -51 37 -92.5t43 -75.5q48 -69 53 -84v-26h-407
l104 -105h367q11 -37 15.5 -72.5t4.5 -70.5q0 -37 -8 -68.5t-25 -66.5q-32 -62 -112 -144q-22 -23 -43.5 -38.5t-42.5 -26.5q-17 -11 -41 -20.5t-53 -18.5q-8 -20 -11.5 -44.5t-3.5 -53.5q0 -31 4.5 -56.5t12.5 -54.5q21 -60 45 -88q29 -35 57.5 -59.5t56.5 -36.5
q22 -15 52 -21l53 -8l39 -4q60 0 116 31q39 23 65.5 41t45.5 37q26 17 47 55q14 18 23.5 39.5t15.5 44.5l23 76q5 14 7.5 33.5t2.5 45.5l-8 134q-8 31 -19 66t-26 75l-60 139q-22 38 -46.5 73t-53.5 64h389zM623 586q0 -51 -6.5 -96.5t-18.5 -86.5l-20 -53l-21 -35
q-14 -20 -29.5 -36.5t-33.5 -28.5q-36 -33 -56 -39l-39 -21l-37 -14l-34 -2l-41 6l-47 15q-13 4 -24.5 17.5t-20.5 32t-14 41t-5 44.5q0 43 14 51l39 22l64 35q63 34 96 80q56 69 85.5 147.5t29.5 159.5l-6 86q31 -39 54.5 -82.5t39.5 -86t23.5 -83t7.5 -73.5z" />
    <glyph glyph-name="bn_half_Da" horiz-adv-x="1071" 
d="M1067 -292h-151l-351 243h251zM1145 1040l-102 103h-1141l100 -103h404v-18v-43v-180l4 -178q33 -74 53 -99q17 -17 38 -26t46 -9q53 0 112 37q20 13 42.5 31t48.5 41q71 65 77 96q14 -17 25 -36t16 -31q13 -33 13 -52l2 -30q-8 -32 -19 -61.5t-28 -55.5q-16 -26 -43 -48
t-60.5 -39t-72 -26.5t-78.5 -9.5q-46 0 -88 12q-94 32 -136 74l-59 72q-23 29 -44.5 69t-43.5 93l-29 65q-8 20 -12.5 38t-9.5 32q-16 54 -23.5 101t-7.5 87l-59 33l16 -154q12 -83 23 -139.5t20 -85.5l57 -154q44 -80 73 -129t46 -69q103 -121 244 -121q72 0 134.5 14
t113.5 43q97 61 129 158q30 96 30 174q0 81 -34 166q-14 29 -30.5 55t-33.5 49l-41 45q-15 16 -45 29l-27 -29l-18 -26q-20 -32 -47.5 -61t-63.5 -54q-71 -47 -110 -47v397h639z" />
    <glyph glyph-name="bn_half_Dha" horiz-adv-x="850" 
d="M846 -292h-151l-351 243h251zM934 1040l-104 103h-928l98 -103h152l1 -727q5 -23 26.5 -53t48.5 -56t55.5 -42.5t48.5 -11.5l51 6l86 39q50 29 90 65t72 78t52.5 76.5t31.5 62.5q11 29 16.5 66t5.5 82l-10 63q-3 14 -7.5 26.5t-10.5 26.5q-11 20 -23.5 35.5t-26.5 28.5
q-14 14 -24.5 21.5t-20.5 7.5l-32 6l-27 4q-30 0 -52 -8t-37.5 -21.5t-24 -30t-11.5 -34.5l-6 -43q0 -56 39 -89q46 -30 90 -30l33 4l-15 -72q-9 -33 -30 -57q-79 -97 -142 -141q-26 -20 -48.5 -29.5t-41.5 -9.5q-35 6 -47 25t-12 44v688h684z" />
    <glyph glyph-name="bn_half_Na" horiz-adv-x="475" 
d="M672 817l-33 113q-43 71 -92 125.5t-115 81.5q-61 30 -106 30q-39 0 -74 -8q-92 -18 -156 -112q-47 -70 -51 -125q-6 -142 37 -211q51 -80 182 -107q10 -2 18.5 -3t18.5 -1q66 0 111 44t45 110q0 43 -22.5 77.5t-63.5 36.5q-9 2 -27 2q-104 0 -104 -88q0 -24 8 -47
q4 -10 -6 -10q-33 0 -54 55q-16 45 -16 82q0 15 1 28t3 25q19 107 150 107q57 0 104 -17.5t74 -37.5q53 -41 82.5 -89.5t36.5 -76.5z" />
    <glyph glyph-name="bn_khanda_ta" horiz-adv-x="731" 
d="M791 39l6 76q0 50 -13 92l-30 90q-14 29 -27 50.5t-27 35.5q-17 17 -35.5 32.5t-39.5 30.5q-32 23 -57.5 38.5t-45.5 23.5l-49 22l-55 25l-127 59q-88 44 -128 100t-46 117l4 41q5 14 8 24.5t8 18.5q35 50 47 50q13 -19 19 -66q6 -26 12 -43.5t12 -28.5q35 -55 79 -83.5
t95 -28.5l27 -4h23q87 0 127 38.5t47 104.5l4 51q0 29 -6 56t-17 53q-20 35 -46.5 64t-61.5 50q-35 23 -68 23q-8 2 -20 3t-27 1h-53q-8 0 -24.5 -1t-45.5 -9l-45 -17l-20 -12q-70 -45 -101 -82q-20 -23 -34 -51.5t-23 -60.5l-12 -54l-2 -47q0 -31 5.5 -60.5t16.5 -58.5
l39 -71l33 -53q58 -77 143 -125q29 -17 76.5 -38t114.5 -44q66 -23 111 -44t71 -38q100 -67 100 -142q0 -26 -12 -51l-12 -33zM543 905q-4 -13 -16 -26.5t-28.5 -24t-37.5 -17t-43 -6.5q-20 4 -32.5 8t-20.5 9l-41 33l-31 30q-19 33 -19 62l5 45q12 5 27.5 6.5t35.5 1.5
l33 -2h33q66 0 103.5 -31t31.5 -88z" />
    <glyph glyph-name="bn_half_tha" horiz-adv-x="977" 
d="M1174 -292h-151l-351 243h251zM990 1043l-105 105l-60 3q-34 19 -34 98l-5 19l-55 65v-1093q-17 27 -43.5 59t-64.5 68q-93 85 -127 104l-54 33q-20 20 -49 26q106 64 146 109q23 25 42.5 57t34.5 74q19 48 19 98q0 114 -82 193q-79 82 -172 82q-56 0 -108 -13.5
t-103 -39.5q-101 -52 -131 -144l-10 -39l-4 -28q0 -27 8 -53t24 -47t40.5 -33.5t58.5 -12.5l51 8l43 29q17 17 26 35t9 35q0 35 -25 69l-29 35q11 22 45 39l82 43l15 6q3 2 11 3t22 1q27 0 50.5 -10t41 -27t27.5 -39t10 -47q0 -32 -21 -77q-44 -68 -149 -129
q-100 -56 -162 -62l-51 -10l-27 -4l-55 2l161 -213l99 -6q13 -3 27.5 -6.5t27 -7t21.5 -6t12 -3.5q93 -40 153 -82q47 -32 81 -67t57 -72l59 -90l63 -86l-1 1049h160z" />
    <glyph glyph-name="bn_half_da" horiz-adv-x="979" 
d="M1049 -292h-151l-351 243h251zM1040 1040h-825v-432l43 33l137 121q31 24 67 46.5t75 45.5l137 61l178 -133l-51 -108q-51 -123 -70 -230l-8 -71l-4 -109l4 -43l6 -33l2 -36l12 -54l13 -51l18 -51l-72 27l-34 104l-21 70l-16 86l-13 123l-2 43v43l2 53l7 51l28 115
q-22 -9 -51 -20t-59 -29q-29 -17 -48.5 -29t-41.5 -35q-39 -35 -70 -67.5t-53 -65.5q-31 -39 -52.5 -78t-35.5 -74l-138 142v585h-104l-100 103h1036z" />
    <glyph glyph-name="bn_half_dha" horiz-adv-x="920" 
d="M1098 -292h-151l-351 243h251zM973 1040h-203v-1073l-27 45l-43 105q-12 39 -84 116q-69 76 -120 111q-78 53 -103 62q-74 36 -192 49l-121 161l174 132l47 32l37 29q-37 0 -61.5 4t-53.5 18q-45 21 -73 72l-17 35l-8 53q0 33 11 67t65 70q47 27 110 27q37 0 71 -23.5
t38 -58.5l-4 -20q-6 -27 -30 -43.5t-69 -16.5q-10 0 -18 1t-16 7l-21 17q-16 -10 -16 -57q0 -46 41 -76.5t92 -30.5q20 0 33 4l26 14l152 89l78 47v135h202zM668 264v557q-27 -10 -53.5 -21.5t-53.5 -27.5l-100 -61l-82 -58l-78 -67q57 -21 100 -56q21 -12 44.5 -30.5
t52.5 -40.5q55 -43 94 -90l37 -47z" />
    <glyph glyph-name="bn_half_na" horiz-adv-x="410" 
d="M479 1044l-76 103h-505l75 -103h506zM621 690l-19 39l-35 49l-41 45l-34 31l-41 37q-77 55 -156 55q-40 0 -73 -13t-57 -37t-37 -58.5t-13 -77.5q2 -14 7 -27.5t13 -27.5l33 -43q27 -29 80 -29q26 0 48 8.5t39 22t28 31.5t16 36q0 53 -33 76l23 2q32 0 70.5 -19t70.5 -51
q10 -7 39 -49l61 -88z" />
    <glyph glyph-name="bn_half_pa" horiz-adv-x="627" 
d="M592 948l-203 -227v20l-2 23l-12 33l-29 45q-20 26 -49 32q-22 11 -55 11q22 51 49 71l28 25q15 16 31 23q17 8 35.5 12t38.5 4l53 -8l43 -17l33 -20zM815 731v119l-16 24l-43 60l-51 55l-50 43l-65 45q-97 56 -176 56q-71 0 -117 -19q-26 -9 -90 -55q-42 -31 -79 -72.5
t-69 -95.5q-18 -41 -18 -57q0 -41 35 -62q20 -9 33 -13.5t18 -4.5l119 34q7 5 33 5q32 -14 42.5 -36t10.5 -48q-3 -26 -10 -37l-23 -27l-88 -86l102 -67l322 342q14 11 33 8l30 -11l52 -34l32 -33z" />
    <glyph glyph-name="bn_half_pha" horiz-adv-x="1198" 
d="M1130 -292h-151l-351 243h251zM1210 1040l-102 103h-1204l100 -103l53 -36l31 -29l57 -35q22 -10 78 -16l70 -13l43 -26l47 -35l-88 -72l-102 -92l-99 -94l119 -170q74 0 138.5 -20.5t115.5 -55.5l86 -65q20 -17 39.5 -38.5t38.5 -45.5q17 -20 33.5 -46t31.5 -57l29 -57
l41 -37l-2 803q6 12 39 12l43 -4l86 -10q28 -6 49.5 -21.5t36.5 -35.5t23 -43.5t8 -45.5l-5 -22q-8 -6 -14 0l-20 12l4 -4q-37 31 -74 31l-35 -6q-74 -26 -74 -99q8 -33 19 -59l37 -41q26 -16 63 -16q49 0 90 22q44 29 63 65.5t19 92.5q0 37 -10.5 78.5t-29 80t-45.5 70.5
t-60 51q-35 22 -63 33t-49 16.5t-36.5 7t-25.5 3.5l-62 2q-50 0 -77 -12v-705q-32 57 -77 105t-102 90l-90 59q-29 17 -50.5 27.5t-37.5 15.5l142 119l53 43l57 49l-61 76l-66 75q-42 39 -77.5 70.5t-67.5 54.5h923z" />
    <glyph glyph-name="bn_half_ba" horiz-adv-x="909" 
d="M1112 -292h-151l-351 243h251zM946 1040l-100 103h-950l100 -103h659v-69l-98 -33l-84 -35l-176 -86l-129 -76l-123 -84l131 -186q32 0 64 -4.5t63 -15.5q13 -6 30.5 -14.5t35.5 -17.5t35.5 -18t29.5 -16q42 -23 71 -44t46 -38t37 -42t43 -60l24 -43l25 -47l22 -52
l54 -75v1056h190zM655 268q-23 38 -45.5 67.5t-42.5 49.5l-67 66q-31 26 -56.5 45.5t-56.5 38.5q-32 20 -63.5 36.5t-63.5 30.5l76 49l94 56q57 32 113.5 56.5t111.5 43.5v-539z" />
    <glyph glyph-name="bn_half_bha" horiz-adv-x="1094" 
d="M1049 -292h-151l-351 243h251zM1094 1040l-107 103h-1085l102 -103h1090zM1038 594q0 91 -110 233l-119 103q-49 -122 -182 -199l-45 -8l24 33q8 12 12.5 27.5t4.5 33.5l-7 35q-3 11 -7.5 21t-10.5 18q-39 45 -90 51q-149 0 -176 -121l-4 -37q0 -81 37 -122
q52 -60 96 -72q27 -15 47 -15l65 -2h50l53 15q48 26 80 46.5t49 37.5q50 50 67 94q20 -29 32.5 -50.5t17.5 -33.5q14 -25 14 -86l-10 -80q-31 -63 -67.5 -101.5t-78.5 -58.5q-62 -30 -129 -30l-45 2q-51 9 -85.5 17.5t-53.5 16.5l-53 33l-52 43q-45 42 -84 93.5t-73 113.5
l-29 57l-37 80q-17 39 -30 74.5t-21 67.5l-65 20l43 -137q21 -69 36.5 -115t24.5 -69q20 -45 34.5 -77t31.5 -63l45 -71l53 -74q32 -38 57 -65.5t45 -43.5q26 -15 57 -29t68 -26q70 -18 115 -18q57 0 137 18q20 6 40 17t42 26l43 37q40 36 67 71.5t44 75.5t24.5 87t7.5 106z
" />
    <glyph glyph-name="bn_half_ma" horiz-adv-x="578" 
d="M614 776l-32 -10q-5 -2 -12.5 -3t-18.5 -1l-55 8l-72 25l-74 51q-20 17 -32 29.5t-17 23.5l-22 70q-5 17 -9.5 29t-9.5 18l-14 24h334q37 -6 56 -49.5t19 -105.5q0 -19 -2.5 -37t-7.5 -35q-13 -31 -31 -37zM528 616h27q35 0 64 11t67 43q20 17 36.5 44.5t22.5 53.5
q11 28 11 49q2 8 3 20.5t1 30.5q0 26 -4.5 46.5t-12.5 43.5q-9 23 -22.5 44t-30.5 38h78l-100 103h-764l92 -103h121q21 0 37 -13t26.5 -32.5t15.5 -42t5 -41.5v-15t-2 -11q-6 -10 -23 -13l-24 -4q-99 -24 -99 -127q0 -24 10.5 -45.5t28 -37t40 -23t46.5 -4.5
q24 0 46.5 10.5t40 28.5t26.5 42t6 52l78 -76q32 -29 61.5 -46t55.5 -24z" />
    <glyph glyph-name="bn_half_ya" horiz-adv-x="911" 
d="M1112 -292h-151l-351 243h251zM922 1040l-105 103h-921l102 -103l27 -34l69 -33l64 -21q75 -15 123 -37l94 -53l-119 -94l-98 -84l-90 -88l139 -172q117 0 180 -25q32 -12 69.5 -38t82.5 -66q80 -68 116 -135q43 -70 62 -125l45 -43v1048h160zM659 258l-84 104l-77 74
l-66 49l-45 29q-23 14 -48 24.5t-54 18.5l77 86q51 54 60 57q12 9 25 21.5t25.5 24.5t22.5 22.5t15 15.5l20 21q-9 14 -21.5 28t-29.5 31l-41 47l-57 52l-31 24l-28 19l-56 34h393v-782z" />
    <glyph glyph-name="bn_half_ra" horiz-adv-x="881" 
d="M1068 -292h-151l-351 243h251zM889 1040l-105 103h-884l102 -103h627v-67l-183 -70l-174 -84q-34 -17 -66.5 -35.5t-64.5 -38.5l-121 -81l134 -183q88 0 168 -37l94 -49q54 -34 102 -82q29 -29 50 -55t32 -49l92 -170l39 -37v1038h158zM422 135l12 29q2 5 3 11.5t1 17.5
q0 22 -9.5 41t-25 33t-35 22t-38.5 8q-52 0 -82 -47q-8 -13 -12.5 -26t-4.5 -27q0 -25 10 -45.5t26 -35t36 -22.5t39 -8q52 0 80 49zM629 254q-12 21 -20.5 36t-15.5 27t-14 21.5t-16 19.5l-86 93l-61 55l-56 41q-11 8 -18.5 13t-14.5 9t-16 8.5t-24 10.5l-56 24l80 58
l90 55l109 55l47 19l72 22v-567z" />
    <glyph glyph-name="bn_half_la" horiz-adv-x="606" 
d="M-27 1036h805l-92 107h-819zM782 700v115l-10 16q-9 20 -24 29l-58 43q-38 19 -72 19q-15 -1 -29.5 -6.5t-26.5 -13t-20.5 -16t-11.5 -14.5l-12 -28l-10 -43l-68 71q-15 13 -35.5 25t-43.5 21t-47 14.5t-46 5.5q-41 0 -78 -11.5t-67 -34.5t-51.5 -57.5t-30.5 -80.5
q-2 -7 -3 -19.5t-1 -32.5q0 -38 9.5 -77.5t29.5 -77.5q41 -75 112 -113q43 -24 93 -24q45 0 83.5 19t69.5 63q12 18 12 53q0 53 -26 98q-30 45 -84 45q-23 0 -43 -7t-35 -19.5t-24 -30.5t-9 -39q0 -20 7.5 -40t21.5 -40q-54 20 -84.5 53t-30.5 84l6 53q19 62 56.5 87.5
t93.5 25.5l65 -8q35 -8 62.5 -25t50.5 -45l51 -75q2 -4 4.5 -8.5t6.5 -12.5l12 -23l35 21v49q0 92 65 98q19 0 34.5 -4t29.5 -12l30 -25q25 -17 37 -36z" />
    <glyph glyph-name="bn_half_sha" horiz-adv-x="578" 
d="M729 778l25 90l-21 50q-9 15 -24.5 34.5t-36.5 42.5q-25 27 -51 46t-50 30.5t-45.5 17t-36.5 5.5q-14 -2 -26 -6t-25 -9l-51 -35l-53 -79l-45 53l-35 29q-20 20 -51 26q-23 8 -43 11.5t-37 5.5h-119l66 -70l92 -8q90 -32 90 -78l-98 -88q-45 -45 -45 -98q0 -18 7.5 -35.5
t20.5 -32t30 -23t36 -8.5q25 0 46.5 9t41.5 26q8 8 21 26.5t30 47.5l51 -74q17 -17 35.5 -26t38.5 -9t35.5 6t29.5 17q27 26 27 76q0 61 -70 118q-15 16 -27.5 29.5t-23.5 26.5q-3 5 -6 9t-8 9q12 26 30 42.5t35 16.5h19l33 -6q26 -6 49 -22.5t55 -55.5q14 -18 27.5 -36
t21.5 -35z" />
    <glyph glyph-name="bn_half_Sha" horiz-adv-x="485" 
d="M514 696l45 37l27 25l35 59q20 41 20 107l-8 63q-9 29 -33 53l137 4l-92 99h-788l104 -103h246q-51 -45 -83 -98.5t-32 -107.5q0 -25 4 -45.5t10 -38.5q8 -19 19 -36t25 -32q65 -68 137 -68q8 -4 24 -4l25 4l37 9l78 28zM557 963q0 -21 -6 -42t-16.5 -37.5t-25 -27
t-32.5 -10.5l-133 119q-6 15 33 43q38 26 78 26l39 -10l36 -18q27 -18 27 -43zM418 803q3 -12 -8 -23l-41 -26q-46 -37 -78 -37q-42 0 -62 35l-20 34l-12 29l8 27q5 11 10.5 18.5t11.5 13.5l33 27q17 10 23 4z" />
    <glyph glyph-name="bn_half_sa" horiz-adv-x="975" 
d="M1028 1044h-156q23 -34 31 -65l17 -57l4 -50q0 -41 -15 -57l-24 -43l-37 -39l-55 -22l-41 -11l-33 -2l-47 7l-41 16l-31 12q-16 6 -27 17q-53 41 -87.5 96t-34.5 96l-31 -76l-27 -55l-39 -68q-22 -30 -55 -50.5t-55 -20.5q-17 0 -47 10q-11 6 -26 17.5t-34 27.5l-43 49
q-8 15 -14 26t-8 23l24 49l17 -12l14 -6q41 -37 63 -41q23 0 50.5 21.5t58.5 76.5q33 58 33 95q0 36 -25 36h-295l-82 99h1024zM825 932q0 35 -22 69q-23 43 -53 43h-246q0 -43 24.5 -93t53.5 -74q26 -21 77 -37l29 -4h29l41 14q33 12 49 35q18 18 18 47z" />
    <glyph glyph-name="bn_half_ha" horiz-adv-x="860" 
d="M979 -292h-151l-351 243h251zM979 -170l-39 139l-139 146q-41 46 -107 94l-90 63l-102 56l-10 18q145 58 204 117q60 60 78 145q2 5 3 15.5t1 27.5q0 45 -14 83t-43 81q-60 84 -137 113q-39 14 -60.5 21t-27.5 7l-17 5q-16 9 -22 28l-17 51h480l-101 103h-923l104 -103
h295q44 -12 78 -55q15 -20 4 -27l-78 -26q-76 -29 -109 -74q-34 -37 -40 -63l-5 -31l2 -27q13 -49 43.5 -72.5t75.5 -23.5q26 0 43 4t28.5 10t19.5 13l16 14l53 49q37 49 37 103q13 8 43 8q21 0 43.5 -5.5t43.5 -14.5t38 -20.5t26 -23.5q17 -26 25 -47.5t8 -40.5
q0 -43 -35 -78l-41 -32q-14 -14 -36.5 -27.5t-53.5 -26.5q-19 -14 -49 -20l-33 -8l-36 -6h-46q-35 0 -74 5.5t-77 16.5l-82 31l-72 41l113 -277q66 -14 119 -29.5t90 -29.5q51 -23 96 -44t88 -46q66 -41 116.5 -72.5t82.5 -54.5l92 -74l80 -76z" />
    <glyph glyph-name="bn_half_Ra" horiz-adv-x="1073" 
d="M1288 -292h-151l-351 243h251zM1118 1040l-104 103h-1114l102 -103h408v-311v-72l6 -24q25 -76 62.5 -115t94.5 -39q28 0 57 10.5t58 30.5l90 70q74 65 80 90q49 -64 49 -137q0 -30 -12 -58l-29 -53q-16 -31 -45 -57.5t-66 -46.5t-79 -31.5t-84 -11.5q-43 0 -86 12
q-54 15 -95.5 39.5t-72.5 58.5l-74 103l-33 55q-12 17 -20 37t-14 39l-50 135q-30 108 -30 188l-62 33l17 -154q24 -168 43 -225l26 -78l33 -75q119 -229 193 -289q50 -37 94 -55q15 -6 26.5 -9.5t22.5 -5t24.5 -2t32.5 -0.5l47 -2q133 0 234 76q85 70 117 168q8 23 14 45
t8 41l6 84q0 51 -12 98l-33 94q-45 95 -119 162l-18 10q-12 0 -31 -24l-30 -41l-41 -51l-52 -47l-77 -58l-19 -10l-24 -6q-17 3 -23 39l-4 57v43v270h608zM698 -164q8 14 11.5 29t3.5 31q0 24 -10 45t-26.5 36.5t-37.5 24t-43 8.5q-40 -6 -59 -14q-32 -25 -47 -49.5
t-15 -59.5q0 -52 35 -84q34 -34 86 -34q69 0 102 67z" />
    <glyph glyph-name="bn_half_Rha" horiz-adv-x="862" 
d="M1082 -292h-151l-351 243h251zM868 1040l-102 103h-864l102 -103h150v-542v-62l2 -47l8 -37q12 -30 26 -56.5t27 -47t25 -34t20 -17.5q40 -25 66 -25l53 6q35 13 60 24.5t42 22.5q66 43 142 129q65 71 77 105q13 32 18 52.5t7 39.5q5 17 6.5 41t1.5 53q0 70 -35 129
q-23 37 -46 60.5t-52 25.5l-53 6q-47 0 -78 -24q-31 -29 -43 -82l-4 -33q0 -55 37 -86q48 -31 90 -31l33 4l-11 -67l-28 -49q-41 -53 -75.5 -89.5t-63 -58.5t-52 -31.5t-41.5 -9.5q-22 3 -37 21q-12 21 -12 43v667h604zM481 -111q5 10 8 23.5t3 32.5q0 27 -9.5 48
t-25.5 35.5t-37 22.5t-45 8l-35 -6l-31 -16q-14 -11 -26 -26.5t-21 -35.5q-10 -20 -10 -55q0 -27 9.5 -48.5t25 -37t37 -23.5t45.5 -8q18 0 34.5 6t30.5 17q35 21 47 63z" />
    <glyph glyph-name="bn_half_Ya" horiz-adv-x="922" 
d="M1116 -292h-151l-351 243h251zM928 1040l-107 103h-925l106 -109q11 -14 20.5 -24.5t18.5 -16.5q29 -20 67.5 -33.5t86.5 -19.5t82.5 -17t54.5 -28q14 -14 25.5 -22t19.5 -11l-113 -88l-96 -84l-94 -90l137 -174q54 0 97.5 -6t81.5 -21.5t75.5 -41t79.5 -64.5
q38 -35 65.5 -68.5t44.5 -62.5q20 -29 36 -62.5t30 -68.5l43 -45v1054h164zM442 104q19 37 19 60q0 22 -9.5 41.5t-25.5 34.5t-37 23.5t-43 8.5q-16 0 -34 -6.5t-33 -19.5t-25 -32.5t-10 -45.5q0 -22 9.5 -42.5t25.5 -36t36.5 -25t42.5 -9.5q53 0 84 49zM662 252
q-6 9 -14.5 22.5t-19 28t-21 28t-19.5 23.5l-76 76q-34 29 -63 50t-54 32l-41 18l-63 23l80 90l57 57l74 66l33 35l-72 84l-70 71q-28 35 -55 52l-49 32h373v-788z" />
    <glyph glyph-name="bn_half_asamiba" horiz-adv-x="905" 
d="M1117 -292h-151l-351 243h251zM756 1040h221l-100 103h-975l98 -103h655v-69l-98 -33l-84 -35l-176 -86l-129 -76l-123 -84l131 -186q33 0 64.5 -4t62.5 -16l131 -66q43 -27 69.5 -45t46 -36.5t37 -42t44.5 -60.5l24 -43l25 -47l22 -52l54 -69v1050zM444 707l9 6
q57 32 102 53.5t100 40.5v-285zM655 268q-22 37 -44.5 65.5t-43.5 51.5l-67 66q-31 26 -56.5 45.5t-56.5 38.5q-33 20 -63.5 36.5t-63.5 30.5l76 49l22 13l297 -256v-140z" />
    <glyph glyph-name="bn_half_asamira" horiz-adv-x="580" 
d="M793 -292h-151l-351 243h251zM662 1040l-105 103h-676l101 -103h346v-67l-154 -62l-160 -73q-28 -13 -57 -29t-57 -33l-111 -71l121 -160q41 0 77 -8.5t74 -22.5l84 -43q23 -16 46.5 -33.5t46.5 -38.5q26 -26 45.5 -48.5t29.5 -43.5l82 -147l35 -33v913h232zM201 201
l55 32l-9 15q-9 14 -20.5 31.5t-22.5 32t-16 18.5q-20 22 -32.5 33.5t-38.5 33.5q-11 6 -32.5 19.5t-46 26t-44 20.5t-25.5 6q-8 -8 -22.5 -27.5t-5.5 -27.5q34 -29 72 -40.5t67 -31.5q8 -10 22.5 -25.5t29.5 -32t28.5 -31.5t19.5 -26zM328 358q-23 37 -28 49.5t-21 30.5
l-78 80l-56 47l-51 37q-22 12 -30.5 18.5t-34.5 16.5l-47 22l69 50l82 49l98 49l41 14l56 19v-482z" />
    <glyph glyph-name="bn_g_hasanta" horiz-adv-x="993" 
d="M1046 1040l-100 103l-35 -6l-67 8q-21 8 -27 24q-9 23 -13.5 44t-4.5 38l4 27l-62 59l2 -284q0 -34 5 -83t14 -112l18 -113q-20 54 -35 91t-26 59t-27 44.5t-39 45.5l-69 66q-18 18 -46.5 33t-63 26t-72.5 17t-74 6q-48 0 -88.5 -10.5t-75.5 -30.5q-48 -33 -86 -88
q-51 -76 -51 -144q0 -42 19 -75.5t61 -59.5q17 -10 36 -10q34 0 101 43q69 43 98 43q31 0 49 -25q8 -8 8 -20q0 -14 -8.5 -30t-25.5 -36l-64 -67l-72 -78l-45 -39l119 -133l57 69l62 95q26 38 40 65.5t17 42.5q5 14 8 32t3 40q0 83 -91 133q-33 18 -53 18l-55 6l-66 -8
l-47 -10q40 88 94 119q17 11 46 18.5t67 14.5q35 6 84 -13l45 -20l29 -14l84 -72q59 -59 73 -96q8 -17 14.5 -32t8.5 -32l20 -65v-609l93 -90v1075h210zM1105 -296h-151l-351 243h251z" />
    <glyph glyph-name="bn_j_hasanta" horiz-adv-x="1212" 
d="M1251 1040l-100 103h-1274l103 -103h424l-58 -61q-31 -38 -49 -67.5t-25 -49.5q-14 -34 -14 -82q0 -69 37 -133q26 -37 49.5 -63t46.5 -41q26 -13 52 -19t49 -6h26l51 10l86 33l25 6q35 -6 41 -35q14 -25 14 -49q0 -62 -78 -102q-38 -20 -76.5 -29.5t-76.5 -9.5
q-27 2 -47.5 4t-44 12t-53.5 32.5t-76 64.5q-72 66 -103 159l-32 117q-7 24 -7 74v41q0 40 -10 57l-16 21l-41 32l-2 -10v-20l2 -82l2 -96q6 -57 15 -104.5t22 -82.5l32 -88q37 -78 74 -129q32 -45 67 -78t72 -53q83 -43 168 -43q25 0 58.5 8t58.5 19q32 15 55.5 30.5
t38.5 30.5q40 40 60 123q10 17 10 51q0 45 -29 123q-14 38 -29 67.5t-32 49.5l-29 37q-20 20 -33 20q-12 9 -30 0l-33 -16l-86 -43q-34 -19 -51 -19l-33 -6q-76 0 -76 72v8l2 14q28 83 84 154q64 76 82 57l59 -78q22 -27 57 -48.5t77 -37t88 -24t90 -8.5l57 2l23 -4
q-11 -26 -21 -58.5t-18 -70.5q-25 -103 -25 -172l6 -72l17 -92l57 -250q10 -10 53 -23q6 -2 18.5 -3t30.5 -1q-38 85 -57.5 156t-19.5 131v51l10 78q0 93 67 209q55 91 93 129l-58 59l-96 99l-96 -33q-35 -15 -49 -15l-39 -2l-29 -2l-76 9l-63 24q-70 46 -58 103l64 34h575z
M1482 -304h-151l-351 243h251z" />
    <glyph glyph-name="bn_N_hasanta" horiz-adv-x="899" 
d="M910 1040l-102 103h-37l-55 43q-11 14 -19.5 32.5t-13.5 43.5l-23 38l-37 41l2 -41v-61v-25v-30v-35v-39v-43q0 -32 6.5 -84.5t18.5 -126.5l8 -57l-53 102q-17 35 -37 67t-43 58l-31 39q-30 43 -51 49l-41 21q-17 6 -34.5 9t-34.5 3l-76 -8q-113 -29 -178.5 -108
t-65.5 -197q0 -131 70 -226q83 -98 186 -98h21q75 0 122 43q54 42 54 98l-8 45q-12 28 -23.5 44t-24.5 24t-28.5 10t-34.5 2q-37 0 -70 -20q-28 -23 -28 -64l2 -26l6 -25l-49 10q-58 52 -58 137l2 35q0 69 68 131q50 47 121 47l45 -4q20 -5 37 -11.5t32 -14.5
q15 -9 35 -26.5t39 -40.5t36 -49t26 -50q17 -31 19.5 -55.5t2.5 -38.5v-27l-2 -119v-448l113 -115v1038h186zM1102 -292h-151l-351 243h251z" />
    <glyph glyph-name="bn_half_ta" 
d="M993 -292h-151l-351 243h251zM1174 1040l-109 103h-1171l102 -103h1178zM1059 522q0 61 -19 127l-24 64l-45 82q-42 57 -93 92.5t-114 50.5l-47 8l-47 4q-48 0 -94 -17.5t-78 -49.5l-39 -45q-29 -41 -29 -99l4 -39q15 -68 39 -102q25 -29 53.5 -44t63.5 -15l35 2l37 6
q51 14 76.5 52t25.5 87q0 66 -39 117q15 5 32 7.5t36 2.5q15 -2 26 -4.5t19 -5.5l34 -23l27 -20q31 -31 47.5 -67.5t16.5 -55.5q2 -6 3 -12.5t1 -14.5v-22q0 -20 -4.5 -41t-14.5 -41l-26 -49q-10 -17 -19 -30t-18 -21q-35 -33 -66 -53t-57 -29l-55 -15l-66 -6l-63 8l-68 23
l-64 49q-17 12 -35 31t-36 45l-58 80l-75 127l-86 178l-47 112l-60 25q13 -59 23.5 -100.5t21.5 -67.5l99 -246l18 -39l27 -51l79 -127l66 -82l37 -37q17 -14 40.5 -27.5t55.5 -29.5q76 -33 148 -33q78 0 102 6l51 19l80 41q79 58 117 129q45 82 45 186z" />
    </font>
</defs>
</svg>
