<svg xmlns="http://www.w3.org/2000/svg">
<defs>
<font id="CharuChandanHardStrokeUnicode" horiz-adv-x="0" >
  <font-face 
    font-family="CharuChandan HardStroke Unicode"
    font-weight="400"
    font-stretch="normal"
    units-per-em="2048"
    panose-1="2 0 5 0 0 0 0 0 0 0"
    ascent="1638"
    descent="-410"
    x-height="1050"
    cap-height="1454"
    bbox="-1473 -936 3331 2467"
    underline-thickness="70"
    underline-position="-385"
    unicode-range="U+000D-25CC"
  />
<missing-glyph horiz-adv-x="1300" 
d="M627 650l-133 -167l-63 -60l-60 55l55 23l120 142l-47 124l-106 111l43 108l36 -46l39 -52l-20 -25l91 -88l192 132q12 19 23 34.5t20 34.5q19 -31 24 -37t22 -34l-25 -40l8 3l-89 -71l-70 -60l103 -151l159 -106l-124 -9l33 -18l-110 75h4l-57 53zM160 370l-18 174
l-5 -6l16 31l-9 50v-2q3 30 7 65t7 65l14 107l-25 51l15 148l-9 86l-24 53l18 14l-8 149v75l-17 -10l72 50l-14 -2l47 7h-4l146 7l79 -24l96 -45l-31 -10l-130 2l-160 20l-8 -128l-16 -168l19 -119l-26 -70l23 -43l-18 -155q2 -32 6.5 -69t6.5 -69l3 -13l14 -73l36 -130
l-11 -111l9 -75l-24 -120q74 -8 110 -11t58 -3l98 -24q10 -5 19.5 -15t18.5 -18l3 -10l-98 5h-85h-88q-5 0 -10 -1.5t-11 -1.5l-39 13l-41 -8l-14 38l-31 63q0 12 2.5 27.5t2.5 27.5v-3l18 137l8 62zM1205 51q-11 -10 -16 -27q-29 -8 -48 -14.5t-46 -13.5l-172 26l-96 -3
h-29q2 12 4.5 17t5.5 18l14 2q19 5 37.5 15.5t36.5 17.5l180 -7l-7 77l17 88l-29 135l-5 -5l27 62l2 130v52v63v98l3 146l2 86l2 60l7 216l2 163l-229 -40h10l-65 -5q20 28 32.5 44t32.5 44l95 -10l158 10h-2q18 0 29 2.5t29 2.5l16 -12l-62 -59q19 -49 15 -93.5t13 -87.5
l-2 5q0 -17 1 -33.5t1 -33.5l-7 -136l-7 -108q0 -13 -2.5 -28t-2.5 -27l-9 -99l-12 -150l38 -73l-5 8l-7 -46q2 -43 6 -84t6 -84v-17l-5 -144l41 -148h2z" />
    <glyph glyph-name=".notdef" horiz-adv-x="1300" 
d="M627 650l-133 -167l-63 -60l-60 55l55 23l120 142l-47 124l-106 111l43 108l36 -46l39 -52l-20 -25l91 -88l192 132q12 19 23 34.5t20 34.5q19 -31 24 -37t22 -34l-25 -40l8 3l-89 -71l-70 -60l103 -151l159 -106l-124 -9l33 -18l-110 75h4l-57 53zM160 370l-18 174
l-5 -6l16 31l-9 50v-2q3 30 7 65t7 65l14 107l-25 51l15 148l-9 86l-24 53l18 14l-8 149v75l-17 -10l72 50l-14 -2l47 7h-4l146 7l79 -24l96 -45l-31 -10l-130 2l-160 20l-8 -128l-16 -168l19 -119l-26 -70l23 -43l-18 -155q2 -32 6.5 -69t6.5 -69l3 -13l14 -73l36 -130
l-11 -111l9 -75l-24 -120q74 -8 110 -11t58 -3l98 -24q10 -5 19.5 -15t18.5 -18l3 -10l-98 5h-85h-88q-5 0 -10 -1.5t-11 -1.5l-39 13l-41 -8l-14 38l-31 63q0 12 2.5 27.5t2.5 27.5v-3l18 137l8 62zM1205 51q-11 -10 -16 -27q-29 -8 -48 -14.5t-46 -13.5l-172 26l-96 -3
h-29q2 12 4.5 17t5.5 18l14 2q19 5 37.5 15.5t36.5 17.5l180 -7l-7 77l17 88l-29 135l-5 -5l27 62l2 130v52v63v98l3 146l2 86l2 60l7 216l2 163l-229 -40h10l-65 -5q20 28 32.5 44t32.5 44l95 -10l158 10h-2q18 0 29 2.5t29 2.5l16 -12l-62 -59q19 -49 15 -93.5t13 -87.5
l-2 5q0 -17 1 -33.5t1 -33.5l-7 -136l-7 -108q0 -13 -2.5 -28t-2.5 -27l-9 -99l-12 -150l38 -73l-5 8l-7 -46q2 -43 6 -84t6 -84v-17l-5 -144l41 -148h2z" />
    <glyph glyph-name=".null" 
 />
    <glyph glyph-name=".null" 
 />
    <glyph glyph-name="nonmarkingreturn" unicode="&#xd;" horiz-adv-x="744" 
 />
    <glyph glyph-name="space" unicode=" " horiz-adv-x="744" 
 />
    <glyph glyph-name="Charu_Chandan" unicode="!" horiz-adv-x="884" 
d="M662 195l-3 3l34 -49l-43 -157l6 6l-57 -72h-43l-89 49l20 -6l-23 77l103 101l14 65q15 -2 33.5 -3.5t35.5 -1.5zM513 387l3 43q-9 11 -17.5 21.5t-14.5 21.5l9 -11l31 105l-28 58l31 54l57 120l-31 84v-3l-37 129l2 -3l-2 203l-3 106l-9 86l-17 -12l80 72q6 0 16 -3
t16 -3l91 -54l-23 11l20 -192l3 6l-68 -195l31 -77v3l34 -120l-2 3l-9 -218l-29 -172l15 9l-29 -66l9 -29z" />
    <glyph glyph-name="Charu_Chandan" unicode="&#x22;" horiz-adv-x="734" 
d="M284 1376l-154 -9l53 72q4 44 8.5 89.5t7.5 89.5l66 59l66 10l-19 -116v-185zM523 1657l-7 -217q0 -16 -3 -37.5t-3 -37.5l29 13q-10 -4 -29 -17q-33 7 -58 17t-54 16q0 53 1.5 104t1.5 103l132 83h3z" />
    <glyph glyph-name="Charu_Chandan" unicode="#" horiz-adv-x="1422" 
d="M829 424l-307 3l27 -78l-150 -186l-57 18l51 111l3 120v66l-111 -45h6l-138 -36q-3 30 -6 45t-6 45l-3 -9q12 24 28.5 51t31.5 51l147 -21l66 48l-6 232q-21 3 -61.5 10.5t-61.5 10.5h12l-153 66l27 -9l-30 81l60 63l219 -57l-18 90l12 120l-21 39l183 15l-24 -45
l-66 -252l186 60l262 15l-72 213q15 9 24 12t24 12q30 -3 54 -3h51l33 -210l135 -27l99 -9l-39 -57l9 -69l-12 -12l-9 -9l-186 21l12 -54l-21 12l-3 -99l-6 -199l171 27l102 15l-36 -39l9 -123l-210 -39l-3 -21l102 -183l-114 -18q-54 12 -81 0q-6 0 -12 3t-9 3l-63 219
q-3 0 -13.5 -1.5t-22.5 -1.5zM946 634l-36 151l18 156l-168 -30h3l-217 -27l-15 -126v3l-18 -163l51 -33l93 -15h271z" />
    <glyph glyph-name="Charu_Chandan" unicode="%" horiz-adv-x="1582" 
d="M429 1320l-78 -122l84 -215l122 75l102 268l-96 55l-122 -24zM281 1369l163 32h145q49 -9 93 -19t90 -19l-44 -148v-113l9 9l-55 -85l12 3l-88 -64l-136 -23l-26 -8q-12 5 -28 12.5t-27 13.5l20 -3l-160 255zM1315 1323l-20 3l101 -88q0 -8 1.5 -20t1.5 -20l-20 -38
l-6 -23l-41 6l-156 -128l-61 -67l-117 -128l3 3l-122 -125l-72 -69h3l-70 -64l-73 -73l-145 -157l-61 -69l3 3l-101 -93l-58 -90q-18 11 -35.5 20t-31.5 20h8l-46 44l58 125l-9 -6l122 113l137 128h-3l58 52l61 61l128 137l168 183l90 98l163 186l72 93zM987 391l-12 -282
l3 -44l157 44l23 67v-3l58 157l-93 52zM839 234l11 96l-14 -12l136 134l-20 -3l38 11h-6l134 15l113 -67l-18 6l85 -177l-111 -215l9 6l-15 -15l-191 -26l-50 23l18 -3l-142 145z" />
    <glyph glyph-name="Charu_Chandan" unicode="&#x26;" horiz-adv-x="1219" 
d="M85 354l117 296l160 195l-137 244l-12 67l123 268l306 28l146 -135l78 -264l-94 -60l-26 -58l-182 -123l184 -295l128 -162l73 372l184 -98l-38 -82l-116 -399l119 -89l-86 15l-95 -27l-44 67l-267 -124l-70 42l-168 31l-117 48l-129 130zM537 99l206 112l-60 209
l-251 311l-118 -281l-17 -217l148 -124zM456 1085l4 -101l108 -45l110 162l-51 298l-229 -221z" />
    <glyph glyph-name="Charu_Chandan" unicode="'" horiz-adv-x="747" 
d="M452 1667l-7 -214q0 -16 -3 -37.5t-3 -37.5l28 13q-9 -3 -28 -16q-33 6 -57.5 15.5t-53.5 16.5q0 52 1.5 102t1.5 102l130 81h3z" />
    <glyph glyph-name="Charu_Chandan" unicode="(" horiz-adv-x="921" 
d="M354 663l-31 -65l28 -166l-2 -85l-3 -169q28 -28 67 -59t70 -60l135 -129l-5 2l57 -69l-6 5q8 -31 21 -73q-36 0 -49 -7.5t-60 10.5l44 -5l-82 54h7l-88 91l8 -6l-41 65l-50 52l6 -3l-120 176l3 -2l-18 34l5 -3l-26 93l-36 135q-3 44 -6.5 86.5t-6.5 86.5q3 47 6.5 100
t6.5 100l93 373l-8 -73l91 130q0 5 -2.5 11.5t-2.5 11.5l-5 -5l41 75l-5 -3l111 132l-5 -2l117 119l49 44l90 70l19 -36l-57 -26l-104 -99l-70 -75l-93 -153l-57 -145l-29 -142l-25 -119l7 -122z" />
    <glyph glyph-name="Charu_Chandan" unicode=")" horiz-adv-x="921" 
d="M644 698l-24 130l-24 107l-60 230l-40 148l-27 46h3l-68 156l-59 68l-95 113l-78 35l-24 -27l108 -27l43 -22h-3l68 -45h-8l99 -97l-2 2l97 -126h-3l59 -92l-5 3l49 -119l27 -59l29 -81l3 -254l5 -342l-64 -116q-3 -33 -7 -65t-7 -65l3 6l-27 -68l5 3l-78 -102h3l-68 -76
l-89 -108l11 3l-86 -46q-22 0 -47.5 1.5t-47.5 1.5q-5 5 -9 17t-7 18l60 78l56 51l267 270l19 129l30 216z" />
    <glyph glyph-name="Charu_Chandan" unicode="*" horiz-adv-x="1382" 
d="M807 843l-3 -72l176 -3l12 6l186 3h21l30 -66l30 -66l-30 -27l-201 24l-36 6l-239 3l51 -51l-12 6l36 -90l74 -48l-30 -6l90 -173q3 -12 15 -36l-143 -12l-36 72l-111 206l-159 -239l-45 -87l-39 6h12q-36 15 -68.5 28.5t-68.5 28.5l48 51q26 51 54.5 100t55.5 100l57 96
l-275 42l-87 -15q-9 24 -19.5 51t-16.5 51h3l-6 45l30 -9l341 3l-78 149l-83 165h3l-18 39l86 81l-24 -3l48 12l18 -51l30 -75l99 -239l63 -63l105 239l60 132l-30 9l113 51l57 -24q6 -6 15 -9t18 -9l-69 -177l6 3l-45 -66h3z" />
    <glyph glyph-name="Charu_Chandan" unicode="+" horiz-adv-x="1422" 
d="M755 379l-6 -102v-97l6 9l-29 -46q6 0 -19 -4.5t-51 -10.5l-102 70l49 41l24 67l-9 137l6 96l-76 99l-114 -5h-175l-58 -6t-59 -9q-5 6 -12.5 25t-10.5 25l12 11q-3 27 -1.5 62t-1.5 64q38 -3 49.5 -6t49.5 -6h-3l134 -23l219 -3l32 134l-9 125l-8 73l14 35q0 30 -3 62
t-3 61q35 3 51 6t43 6q26 -15 49.5 -32.5t49.5 -32.5l-23 12q0 -6 1 -13t1 -13v3l-17 -158l-3 -116l12 -190l259 32l105 3l18 23q6 -3 20.5 -3h20.5q14 -3 31.5 -7t32.5 -10l14 -56l-2 3q0 -20 -1.5 -46.5t-1.5 -49.5l-97 26l-274 -11l-99 26l-44 -44z" />
    <glyph glyph-name="Charu_Chandan" unicode="," horiz-adv-x="713" 
d="M517 -22q-3 -43 -7.5 -84.5t-9.5 -72.5h22l-128 -91l-42 -31h3l-100 -77l-6 -6l188 196q0 37 -3 71.5t-3 71.5v-3l20 114l-119 -74l-111 -43q-15 23 -22 35.5t-21 35.5l46 37q17 32 35.5 57.5t43.5 39.5l-31 9l134 48l42 -9l23 -48l69 -154z" />
    <glyph glyph-name="Charu_Chandan" unicode="-" horiz-adv-x="1227" 
d="M635 655l-72 11l-86 -9l-175 -16l-49 -5l-91 68l84 72l56 -3l-12 -2l70 7h-9l147 -16l212 -26l21 19l-3 2l-4 3l137 2q14 2 28 5.5t28 5.5l54 -18l60 5q-4 -26 -6.5 -46t-7.5 -45l-261 -24l7 -7l75 -9h-114z" />
    <glyph glyph-name="Charu_Chandan" unicode="." horiz-adv-x="503" 
d="M120 169l72 90l64 14q31 -9 66 -11.5t46 -26.5l-31 9l14 -26q0 -14 6 -26l3 -46q0 -12 -1.5 -25t-1.5 -24l6 6q-9 -21 -23.5 -44t-26.5 -43l-72 -26q-8 0 -20 6q-14 3 -23 5.5t-23 8.5l-41 127z" />
    <glyph glyph-name="Charu_Chandan" unicode="/" horiz-adv-x="1212" 
d="M903 1638q20 -3 23.5 -6.5t23.5 -6.5h-3l114 -29l-7 -48h3l-80 -206l3 4l-45 -97l-16 -30q-19 -42 -40.5 -86t-40.5 -86h2l-79 -166l-57 -115h3l-84 -138l-118 -226l-8 -26l-35 -90l-70 -232l3 1l-46 -131l8 -13l-162 -68l-57 8l39 118l-2 -3l64 139l38 84l108 224l13 27
l103 217l19 43l80 169l52 122l87 215l28 72l41 110l77 202l10 30l-11 -7z" />
    <glyph glyph-name="Charu_Chandan" unicode=":" horiz-adv-x="713" 
d="M263 1185l9 33l-27 6l81 42l164 -39l-66 -9l9 18l57 -81q-6 -21 -12 -41.5t-12 -41.5l6 3q-9 -18 -24 -40.5l-27 -40.5q-24 -6 -34 -6t-28 -3q-12 3 -21 1.5t-18 1.5l-81 60l18 54zM254 390l9 69l84 33q3 0 15 6l104 -45l-27 -3l63 -60l-12 -39l6 3l-48 -90l9 6l-57 -59
l-71 6l-93 116l18 6v51z" />
    <glyph glyph-name="Charu_Chandan" unicode=";" horiz-adv-x="768" 
d="M517 -22q-3 -43 -7.5 -84.5t-9.5 -72.5h22l-128 -91l-42 -31h3l-100 -77l-6 -6l188 196q0 37 -3 71.5t-3 71.5v-3l20 114l-119 -74l-111 -43q-15 23 -22 35.5t-21 35.5l46 37q17 32 35.5 57.5t43.5 39.5l-31 9l134 48l42 -9l23 -48l69 -154zM212 513l76 93l66 15
q33 -9 69 -12t48 -27l-33 9l15 -27q0 -15 6 -27l3 -48q0 -12 -1.5 -26t-1.5 -26l6 6q-9 -21 -24 -45t-27 -45l-75 -27q-9 0 -21 6q-15 3 -24 6t-24 9l-42 133z" />
    <glyph glyph-name="Charu_Chandan" unicode="&#x3c;" horiz-adv-x="978" 
d="M591 342l89 -50l104 -61l-24 -5l3 -87q-37 -5 -60 -7.5t-54 -7.5l19 25q-28 24 -61.5 55.5t-61.5 58.5l-98 92l-98 55l-98 56h3l-132 80l92 65l123 83l85 90l117 121l-6 19l248 51l65 -7l-19 -25l37 10l-166 -106l-159 -122l-95 -82l-123 -109l49 -19l-24 -13l61 -50z
" />
    <glyph glyph-name="Charu_Chandan" unicode="=" horiz-adv-x="1559" 
d="M730 450l-153 26l-156 -23l-95 -12l-44 46l55 119h23l142 11l153 -29l124 -23l150 18q20 0 50.5 -1.5t50.5 -1.5l220 -9h17q6 -23 11.5 -44.5t11.5 -45.5l-12 -34l-161 -6l-98 9l-104 11h-130zM857 825h6l-93 12h-57l-177 -15l-158 -11l-87 -9l-26 61l12 40l-6 -3l49 92
l89 -20l162 -3q20 0 43 1.5t44 4.5l98 -49l89 41l81 -21l220 26l127 -17l23 -75q0 -17 1.5 -34.5t3.5 -32.5l-92 9l-75 3h-162h-115z" />
    <glyph glyph-name="Charu_Chandan" unicode="&#x3e;" horiz-adv-x="1012" 
d="M579 452l61 50l-24 13l49 19l-123 109l-95 82l-159 122l-166 106l37 -10l-19 25l65 7l248 -51l-6 -19l117 -121l85 -90l123 -83l92 -65l-132 -80h3l-98 -56l-98 -55l-98 -92q-28 -27 -61.5 -58.5t-61.5 -55.5l19 -25q-31 5 -54 7.5t-60 7.5l3 87l-24 5l104 61l89 50z" />
    <glyph glyph-name="Charu_Chandan" unicode="?" horiz-adv-x="1637" 
d="M737 473l6 -14q11 -32 24 -64.5t27 -64.5q-68 6 -122.5 13t-111.5 13q3 6 3 17q3 32 7.5 64.5t6.5 64.5l23 19l126 109l85 80l-11 -3l228 108h-11l100 69l40 80l-9 -6l43 68l-9 49l3 57l-28 63l-126 211h-217l-122 -117l14 -103l43 -122l-3 8l-40 -165l-29 -6
q-54 14 -104 31t-104 32l34 62l26 123l11 77l-5 -3l45 80l-8 -6l202 183l86 -6q28 0 52.5 -2.5t52.5 -2.5l237 -100l-20 5l32 -42q22 -26 55 -57.5t56 -56.5l-12 11l-20 -143l18 -102l-123 -103l8 3l-97 -49l-145 -77l-217 -245v-40zM620 28l-34 34q6 20 11.5 40t11.5 40
l-9 -6l52 69l62 20q15 -9 32 -19t31 -15h-11l37 -38l-9 3l29 -48l-6 8l9 -94l-117 -85l11 3l-11 -6l-77 45z" />
    <glyph glyph-name="Charu_Chandan" unicode="@" horiz-adv-x="1328" 
d="M1130 506l13 6l-167 -119l24 3l-16 -3q-33 -5 -67.5 -14.5t-67.5 -15.5l-72 11l-101 63l-198 -126l-83 129l28 -8q-17 38 -32 76.5t-32 77.5v69q0 27 -2.5 56t-2.5 56l-6 -8q22 36 44 70.5t44 69.5l-13 -2q27 22 57.5 39.5t57.5 39.5l187 3q8 0 16.5 1.5t16.5 1.5l39 -28
l19 -55l-3 6l11 -149l-8 -184l63 -159l171 167l27 105l6 154l5 115l-88 102l-209 160q-3 0 -15 1.5t-18 3.5l-256 31l-145 -116l-58 -99l-61 -118l-35 -86h2l-71 -154l25 -176l13 -79l99 -143l113 -119l88 -44l157 36l58 17l88 22q11 -20 16.5 -32t16.5 -29l-36 -22l-206 5
h-143q-6 0 -13 1.5t-12 1.5h16l-159 66l8 -2l-58 44l11 -3q-22 27 -44 53.5t-44 53.5l6 -3l-63 179q0 30 -3 62t-3 62l17 190l63 162l-3 -3q11 17 23.5 33.5t23.5 32.5l-8 -2l96 85l66 113l-3 -3l36 55h143h151l171 -6q11 0 17.5 -1t17.5 -1l89 -75l129 -107h-3l96 -82
l53 -39l-42 -135l-27 -146zM439 622l61 -256l178 159l20 72l22 168l-11 176q-20 -11 -11 -11l-31 24l-22 -22l-132 -13l-22 -83z" />
    <glyph glyph-name="Charu_Chandan" unicode="[" horiz-adv-x="902" 
d="M205 326l-25 228l14 30l-8 71l16 177l19 141l11 63l27 215l19 138l-89 58l-11 198v101l76 57l49 8h-3l196 11l117 -35h-8l133 -63q-22 -5 -28.5 -8t-25.5 -8l-169 2l-128 3l-87 -141l30 -180l-22 -130l-38 -172v-100l6 -166l19 -188l2 -16l17 -77l54 -195l-3 2l-13 -152
l8 -106l46 -161l142 -11q38 -8 74.5 -18.5t74.5 -19.5l-19 3l60 -46q-11 -11 -13 -11l-123 3h-117h-117q-5 0 -9 -1.5t-10 -1.5l-60 19q-13 -3 -31 -7t-31 -7l-6 9l-65 136l5 -9l9 74q5 46 10.5 92.5t10.5 92.5l11 84z" />
    <glyph glyph-name="Charu_Chandan" unicode="\" horiz-adv-x="1108" 
d="M265 1633l-11 7l10 -30l77 -202l41 -110l29 -72l86 -215l53 -122l79 -169l19 -43l103 -217l13 -27l108 -224l38 -84l64 -139l-2 3l39 -118l-57 -8l-162 68l8 13l-46 131l3 -1l-70 232l-35 90l-7 26l-119 226l-84 138h3l-57 115l-79 166h2q-19 42 -40.5 86t-40.5 86
l-16 30l-45 97l3 -4l-80 206h3l-7 48l114 29h-3q20 3 23.5 6.5t23.5 6.5z" />
    <glyph glyph-name="Charu_Chandan" unicode="]" horiz-adv-x="977" 
d="M737 -122l-22 -33q-40 -11 -67.5 -20.5t-65.5 -20.5l-230 36l-125 -3q-14 0 -24.5 1.5t-24.5 1.5q5 16 5 27t6 24l22 3q21 11 51 20.5t52 20.5l163 -25l19 144l13 127q3 38 7 73.5t7 73.5l-3 -5l32 76l3 179v70v82v133l3 195l3 114q0 16 1 40.5t1 40.5l8 291l3 214
l-293 -54l-89 -8q27 38 48.5 66.5t46.5 63.5l135 -19l209 14l84 5q6 -5 10 -9.5t9 -6.5l-97 -74l57 -247l-3 6q0 -22 1.5 -45t1.5 -45l-11 -181l-11 -147q0 -19 -3 -36.5t-3 -36.5l-10 -131l-17 -203l49 -95l-5 8l-8 -62l16 -226v-21l-8 -193l54 -198v-5z" />
    <glyph glyph-name="Charu_Chandan" unicode="{" horiz-adv-x="959" 
d="M497 1622l5 3l-115 -94l27 -80l43 -123l16 -46v3l67 -226l-19 43l3 -67l8 6l-108 -161l-48 -169l35 -70h-3l78 -179l-3 2l16 -110l6 8l-27 -43l8 -48v3l-3 -27q0 -11 1.5 -29.5t1.5 -32.5l-8 -152l64 -188l46 -11q-5 -11 -12 -21.5t-12 -18.5q-14 5 -28.5 6.5t-28.5 4.5
h9l-164 77l-27 76l3 -6l13 99l-27 126l30 14v86v182l-16 37l3 -2l-27 104l-30 73l-107 94l80 37l159 94l8 236l-59 83l8 -8l-11 94l-59 86l8 -8q0 16 2.5 32t2.5 32l-2 -5l29 75l32 93l-13 -5q35 27 68.5 55t68.5 55h-3q13 11 29.5 20t29.5 20l147 27l19 -62l-61 6z" />
    <glyph glyph-name="Charu_Chandan" unicode="|" horiz-adv-x="916" 
d="M624 181l-31 -14q-45 6 -78 8.5t-72 8.5l-12 37l-14 40l37 309v28v54q0 26 1.5 53t1.5 52l20 273q0 14 2.5 26.5t2.5 27.5l14 142l-19 93h11h-3l136 3l-8 -62l-9 -174q0 -25 -2.5 -59t-2.5 -60l-9 -113v-273l9 -51v3q2 -23 6.5 -45.5t7.5 -45.5l11 -218v-43z" />
    <glyph glyph-name="Charu_Chandan" unicode="}" horiz-adv-x="966" 
d="M184 1761l-11 -26q5 0 11 2l26 -5h113l198 -108h-8l21 -16l-5 3q26 -35 54 -68t54 -67l-8 8q0 -50 -2.5 -100t-2.5 -100l5 5l-13 -21l-32 -71l-42 -161l24 -164l69 -87l92 -26q2 -8 6 -16t7 -16l8 11l-82 -114l-63 -132l8 -65v2l16 -163l8 -77q0 -16 2.5 -34.5t2.5 -33.5
l-24 -172h3l-37 -142l-85 -3l-68 5q-27 0 -50.5 1.5t-49.5 1.5l-8 -11l126 119l50 158l-50 180l3 -6l8 37q0 29 2.5 71.5t2.5 73.5q5 24 14.5 48t14.5 47l-3 -2l64 153l39 100l-145 132l13 -8l-26 142q-5 6 -5 16q2 24 6 49t7 49l-3 -3l69 232l39 132l-89 82l-66 60l-100 69
z" />
    <glyph glyph-name="Charu_Chandan" unicode="&#x2013;" horiz-adv-x="1119" 
d="M644 546h3h-152l-118 8q-40 -3 -80.5 -7t-80.5 -7q-31 11 -60.5 22.5t-60.5 22.5l104 96l31 -9l107 9q37 0 72 1.5t72 1.5l87 -34l68 17h-3l62 11l90 17q17 3 38 8.5t41 11.5l118 -68l-34 -3l23 -48v3q0 -11 -1.5 -21t-1.5 -24q-40 -3 -59.5 -5.5t-58.5 -5.5h5l-146 8z
" />
    <glyph glyph-name="Charu_Chandan" unicode="&#x2014;" horiz-adv-x="1232" 
d="M713 850h4h-172l-133 9q-44 -3 -90 -7.5t-91 -7.5q-35 12 -68 24t-68 25l117 103l35 -9l121 9q41 0 80.5 1.5t80.5 1.5l99 -37l76 19h-3l70 12l101 18q19 3 43 9t46 12l133 -73l-38 -3l25 -51v3q0 -12 -1.5 -23t-1.5 -26q-44 -3 -66.5 -6t-66.5 -6h6l-165 9z" />
    <glyph glyph-name="Charu_Chandan" unicode="&#x2018;" horiz-adv-x="747" 
d="M142 1429q3 43 7 84.5t10 72.5h-23l128 91l43 31h-3l100 77l5 6l-188 -196q0 -37 3 -71.5t3 -71.5v3l-20 -114l120 74l111 43q14 -23 21 -35.5t22 -35.5l-46 -37q-17 -32 -35.5 -57.5t-44.5 -39.5l32 -9l-134 -48l-43 9l-23 48l-68 154z" />
    <glyph glyph-name="Charu_Chandan" unicode="&#x2019;" horiz-adv-x="908" 
d="M690 1558q-3 -43 -7.5 -84.5t-9.5 -72.5h22l-128 -91l-42 -31h3l-100 -77l-6 -6l188 196q0 37 -3 71.5t-3 71.5v-3l20 114l-119 -74l-111 -43q-15 23 -22 35.5t-21 35.5l46 37q17 32 35.5 57.5t43.5 39.5l-31 9l134 48l42 -9l23 -48l69 -154z" />
    <glyph glyph-name="Charu_Chandan" unicode="&#x201c;" horiz-adv-x="1160" 
d="M162 1429q3 43 7 84.5t10 72.5h-23l128 91l43 31h-3l100 77l5 6l-188 -196q0 -37 3 -71.5t3 -71.5v3l-20 -114l120 74l111 43q14 -23 21 -35.5t22 -35.5l-46 -37q-17 -32 -35.5 -57.5t-44.5 -39.5l32 -9l-134 -48l-43 9l-23 48l-68 154zM558 1430q2 42 6.5 83.5
t10.5 72.5h-23l128 91l43 32h-3l99 76l6 6l-188 -196q0 -37 3 -71.5t3 -71.5v3l-20 -114l120 74l111 43q14 -23 21 -35.5t21 -35.5l-45 -37q-17 -31 -35.5 -57t-44.5 -40l31 -9l-133 -48l-43 9l-23 48l-68 154z" />
    <glyph glyph-name="Charu_Chandan" unicode="&#x201d;" horiz-adv-x="1425" 
d="M1134 1558q-3 -43 -7.5 -84.5t-10.5 -72.5h23l-128 -91l-43 -31h3l-99 -77l-6 -6l188 197q0 37 -3 71t-3 71v-3l20 114l-119 -74l-112 -43q-14 23 -21 36t-21 35l45 37q17 32 35.5 57.5t44.5 39.5l-31 9l134 48l42 -8l23 -49l68 -154zM738 1558q-3 -43 -7.5 -84.5
t-9.5 -72.5h22l-128 -91l-42 -31h3l-100 -77l-6 -6l188 196q0 37 -3 71.5t-3 71.5v-3l20 114l-119 -74l-111 -43q-15 23 -22 35.5t-21 35.5l46 37q17 32 35.5 57.5t43.5 39.5l-31 9l134 48l42 -9l23 -48l69 -154z" />
    <glyph glyph-name="Charu_Chandan" unicode="&#x200c;" 
d="M-69 -87l3 68q-9 18 -17.5 33.5t-14.5 34.5l9 -19l31 168l-29 91l32 86l57 190l-31 132v-5l-37 205l2 -5l-2 322l-3 168l-9 136l-17 -18l80 113q6 0 16 -4.5t16 -4.5l91 -86l-23 18l20 -304l3 9l-69 -308l32 -123v5l34 -191l-3 5l-8 -345l-29 -272l15 14l-29 -104l9 -46z
" />
    <glyph glyph-name="Charu_Chandan" unicode="&#x200d;" 
d="M398 1684l-269 -221l-98 -74l-113 -100l-104 -28l-131 4l-29 28l163 165l-4 -24l331 235l52 76l186 -39zM-388 1759l301 -52l263 -214l36 -34l146 -181l-45 5l-127 -80l-33 73l-216 222l-243 149l-96 18l14 16v78zM-41 -87l3 68q-9 18 -17.5 33.5t-14.5 34.5l9 -19
l31 168l-28 91l31 86l57 190l-31 132v-5l-37 205l3 -5l-3 322l-3 168l-9 136l-17 -18l80 113q6 0 16 -4.5t16 -4.5l91 -86l-23 18l20 -304l3 9l-68 -308l31 -123v5l34 -191l-2 5l-9 -345l-29 -272l15 14l-29 -104l9 -46z" />
    <glyph glyph-name="Charu_Chandan" unicode="&#x25cc;" horiz-adv-x="1295" 
d="M540 1230q-12 10 -15 26q-2 18 9 32q10 15 28 17q65 9 130 4q18 -1 29 -15q12 -14 11 -32q-2 -17 -16 -29q-13 -12 -31 -10q-56 5 -111 -3q-3 -1 -6 -1q-16 0 -28 11zM940 1124q-45 34 -95 57q-16 8 -23 24q-6 17 1 34q8 16 25 22q16 6 33 -1q59 -27 111 -67
q14 -11 17 -29q2 -18 -9 -32q-13 -17 -34 -17q-15 0 -26 9zM265 1110q-11 14 -10 31q1 18 15 30q49 43 107 74q16 8 33 3t25 -21q9 -16 3 -33q-5 -17 -21 -26q-49 -26 -91 -62q-12 -11 -28 -11q-20 0 -33 15zM1101 904q-19 52 -49 99q-10 15 -6 32q3 18 18 27q15 10 33 6
q17 -3 27 -18q36 -55 58 -117q6 -17 -2 -33q-7 -16 -24 -22q-7 -3 -15 -3q-30 0 -40 29zM125 847q-17 5 -26 20q-8 16 -3 33q18 63 50 120q9 16 27 21q17 4 32 -4q16 -9 21 -26q5 -18 -4 -33q-28 -49 -43 -102q-9 -31 -42 -31q-6 0 -12 2zM1149 578q-18 4 -27 19
q-10 16 -6 33q13 54 13 110v1q0 18 13 31q12 12 30 12t31 -12q12 -13 12 -31v-1q0 -66 -14 -129q-8 -34 -42 -34q-5 0 -10 1zM96 578q-18 63 -22 129q-1 18 11 31t30 14t31 -11q13 -11 14 -29q4 -56 19 -109q5 -17 -3 -33q-9 -16 -26 -21q-6 -2 -12 -2q-33 0 -42 31z
M981 331q-12 13 -12 31t13 30q40 39 70 86q10 15 27 19q18 4 33 -6t19 -27q3 -18 -6 -33q-36 -55 -83 -101q-12 -12 -30 -12t-31 13zM271 308q-50 43 -89 96q-10 14 -7 32q2 18 17 28q14 11 32 8t28 -17q33 -45 75 -82q14 -11 15 -29t-11 -32q-12 -15 -32 -15q-16 0 -28 11z
M707 214q-4 17 6 32t28 19q54 11 105 34q16 7 33 1t24 -22q8 -17 1 -33q-6 -17 -22 -25q-60 -27 -124 -40q-4 -1 -9 -1q-35 0 -42 35zM563 174q-65 10 -126 33q-16 7 -24 23q-7 17 0 33q6 17 23 24q16 7 33 1q51 -20 106 -28q18 -3 29 -17t8 -32q-2 -16 -14 -27
q-13 -10 -29 -10h-6z" />
    <glyph glyph-name="Charu_Chandan" unicode="&#x964;" horiz-adv-x="1060" 
d="M754 317l-14 -189l-5 -2l-71 16l-66 -19l-35 57l5 -8l11 52q3 38 7 79t7 79v-3l14 71l5 216l6 55l-17 243l-11 122l-16 77l71 65q3 3 11 3l93 -8h-11l24 -11l-13 -175v-128q0 -14 -3 -25t-3 -24l-11 -210l3 -47l19 -194l16 -128z" />
    <glyph glyph-name="Charu_Chandan" unicode="&#x965;" horiz-adv-x="1207" 
d="M937 408l-14 -189l-5 -2l-71 16l-66 -19l-35 57l5 -8l11 52q3 38 7 79t7 79v-3l14 71l5 216l5 55l-16 243l-11 122l-16 77l71 65q2 3 11 3l92 -8h-10l24 -11l-14 -175v-128q0 -14 -2.5 -25t-2.5 -24l-11 -210l3 -47l19 -194l16 -128zM615 203l-44 -25l-52 30l-128 44
l22 -5l-19 27l16 74q0 41 -1.5 84.5t-1.5 84.5q3 27 7 55.5t7 56.5v-3l8 74l8 139l14 303l-16 117l11 63l114 -11h29t31 -3l-68 -68l-3 -71l-5 -145l3 -62l8 -161q2 -47 6.5 -90.5t6.5 -89.5l6 -186l5 -60l22 -115z" />
    <glyph glyph-name="Charu_Chandan" unicode="&#x981;" 
d="M-330 1928q62 41 80.5 88.5t-22.5 113.5q58 -25 97 -28l1 -42l-43 -47l14 7l-206 -236l-119 -38q-17 -6 -41 -13t-45 -14l-61 62h-76l-102 106l10 -7l-82 171l116 41h28l58 -178l130 -89zM-576 2146l-10 -6l68 71l17 -3h14q20 -14 47.5 -31t20.5 -13q0 -35 15.5 -58.5
t-22.5 -75.5q11 7 -4.5 -10t-25.5 -27h-35l-34 -11l-85 93l13 -14z" />
    <glyph glyph-name="Charu_Chandan" unicode="&#x982;" horiz-adv-x="1203" 
d="M1187 159l-30 -46l-20 -77l-77 -44l-13 -13l-70 90l-271 157l-63 33h13l-83 74q-17 7 -49 23.5t-52 23.5l-143 90h3l-60 40l-227 110h13l-33 33l17 -13l-14 110q7 -3 18.5 -3h18.5l110 -17l327 -203h-3l134 -91l33 -26l184 -44l-17 4l167 -124l80 -47l87 -36zM422 1128
l64 -191l80 34l117 173l-117 214zM265 1141l44 194l204 80h-11q17 3 37 8t37 12q47 -17 83.5 -37t83.5 -37l-23 7l76 -103l-10 6q7 -47 13.5 -92t13.5 -91l13 13l-180 -207l-127 -10l-47 -44l-123 81l13 -4l-53 74l7 -7z" />
    <glyph glyph-name="Charu_Chandan" unicode="&#x983;" horiz-adv-x="877" 
d="M304 1026l74 -202l184 212l6 19l-100 183l-119 -112zM195 1264l97 16q45 13 88 27.5t88 27.5l42 -29l116 -58l-19 3q16 -25 37 -47.5t37 -48.5l-7 3l45 -113l-3 7l-13 -142l20 13l-155 -125l10 6l-148 -32l-132 35l22 -3l-170 151l16 -9l-13 42l13 103zM288 290l61 -206
l168 45l25 122l26 125l-80 81zM182 280q0 55 -1.5 103t-1.5 103l199 51h-12l25 7q23 0 45.5 1.5t44.5 1.5l145 -48l-22 6l96 -113l-13 7q7 -35 13.5 -75.5t12.5 -75.5l10 13l-100 -126l-90 -132q-36 0 -48.5 -1.5t-48.5 -1.5h7l-84 10l-48 29l-87 48l19 -7l-67 136l6 -7v71z
" />
    <glyph glyph-name="Charu_Chandan" unicode="&#x985;" horiz-adv-x="2328" 
d="M1656 765l27 -36l249 -135l6 135v45l33 228l-6 150l-9 141l-9 144l-129 3l-201 3l-126 3l-252 6h-66l-168 6l-102 3l-228 3l-90 3l-186 3l-105 3l-168 3q-51 0 -103.5 1.5t-103.5 4.5l12 24l117 33l195 -3h465l117 -3h423l231 3l147 3l99 3l96 3l90 6l45 3l24 9l63 9
l87 -69l69 15l105 -3l165 -6l153 24l-9 -78l-126 30l-159 -15l-180 -15l-75 -159v-108l9 -117l15 -135l18 -168l18 -150l-69 -72l42 -72l-6 6l-12 -129l27 -210l-12 -63q0 -18 -1.5 -45t-1.5 -45q-27 -9 -57 -16.5t-51 -13.5q-15 24 -31.5 48t-28.5 45l69 159l-39 228v-3
l-15 93l-39 30l-219 126l-33 -231q0 -21 -3 -42q0 -6 -3 -15l6 6q-3 -3 -6 -9v-24l18 12l-66 -60l-30 -30l-69 -81l12 3l-177 -108l-114 -36h9l-195 -27l-78 -21l-162 18l-90 9l-150 39h-18l-129 108l-42 51l-114 135l-129 78l21 -6l-45 102q-15 33 -33 75t-33 75l-30 96
l108 27l78 -30l12 6l90 -21l33 -222l30 -72l6 -15q9 12 24 33v-6l39 -153l198 -129l81 -51q33 -12 69 -27h-3l69 -27l153 18l84 -18l42 12l204 108l51 30l6 9l78 126q0 60 3 118.5t3 118.5l33 -21v183l-119 86l18 -6l-21 45l-84 99l-148 58l-129 21l-90 -78l-3 -213l-3 -54
l108 -60h-3l6 -3l-15 -117l-3 -30l12 6l-39 -51l21 6l-114 -39q-33 6 -61.5 10.5t-61.5 10.5l-9 18h-15l3 27l-12 27l18 87v141l18 141l-51 168l30 66q-15 15 -39 33t-42 33q15 9 22.5 12l22.5 9l141 -6l138 -6h126q24 -6 49.5 -15t49.5 -15l6 -3l15 -3q6 0 12 -3t12 -3h-18
l147 -69l-18 6l36 -36l39 -24l120 -78h-3l153 -105l-63 -96v-30z" />
    <glyph glyph-name="Charu_Chandan" unicode="&#x986;" horiz-adv-x="2849" 
d="M2464 594l6 135v45l33 228l-6 150l-9 141l-9 144l-129 3l-321 3l9 96l219 3l96 3l90 6l45 3l24 9l63 9l87 -69l69 15l105 -3l165 -6l153 24l-9 -78l-126 30l-159 -15l-180 -15l-75 -159v-108l9 -117l15 -135l18 -168l18 -150l-69 -72l42 -72l-6 6l-12 -129l27 -210
l-12 -63q0 -18 -1.5 -45t-1.5 -45q-27 -9 -57 -16.5t-51 -13.5q-15 24 -31.5 48t-28.5 45l69 159l-39 228v-3l-15 93zM1656 765l27 -36l249 -135l6 135v45l33 228l-6 150l-9 141l-9 144l-129 3l-201 3l-126 3l-252 6h-66l-168 6l-102 3l-228 3l-90 3l-186 3l-105 3l-168 3
q-51 0 -103.5 1.5t-103.5 4.5l12 24l117 33l195 -3h465l117 -3h423l231 3l147 3l99 3l96 3l90 6l45 3l24 9l63 9l87 -69l69 15l105 -3l165 -6l153 24l-9 -78l-126 30l-159 -15l-180 -15l-75 -159v-108l9 -117l15 -135l18 -168l18 -150l-69 -72l42 -72l-6 6l-12 -129l27 -210
l-12 -63q0 -18 -1.5 -45t-1.5 -45q-27 -9 -57 -16.5t-51 -13.5q-15 24 -31.5 48t-28.5 45l69 159l-39 228v-3l-15 93l-39 30l-219 126l-33 -231q0 -21 -3 -42q0 -6 -3 -15l6 6q-3 -3 -6 -9v-24l18 12l-66 -60l-30 -30l-69 -81l12 3l-177 -108l-114 -36h9l-195 -27l-78 -21
l-162 18l-90 9l-150 39h-18l-129 108l-42 51l-114 135l-129 78l21 -6l-45 102q-15 33 -33 75t-33 75l-30 96l108 27l78 -30l12 6l90 -21l33 -222l30 -72l6 -15q9 12 24 33v-6l39 -153l198 -129l81 -51q33 -12 69 -27h-3l69 -27l153 18l84 -18l42 12l204 108l51 30l6 9
l78 126q0 60 3 118.5t3 118.5l33 -21v183l-119 86l18 -6l-21 45l-84 99l-148 58l-129 21l-90 -78l-3 -213l-3 -54l108 -60h-3l6 -3l-15 -117l-3 -30l12 6l-39 -51l21 6l-114 -39q-33 6 -61.5 10.5t-61.5 10.5l-9 18h-15l3 27l-12 27l18 87v141l18 141l-51 168l30 66
q-15 15 -39 33t-42 33q15 9 22.5 12l22.5 9l141 -6l138 -6h126q24 -6 49.5 -15t49.5 -15l6 -3l15 -3q6 0 12 -3t12 -3h-18l147 -69l-18 6l36 -36l39 -24l120 -78h-3l153 -105l-63 -96v-30z" />
    <glyph glyph-name="Charu_Chandan" unicode="&#x987;" horiz-adv-x="1454" 
d="M1551 1478q-43 8 -71 19l-181 -65l-19 3h-51l-48 -3l-263 -14l139 -138l-9 6l62 -110h-2l47 -113l-2 2l8 -45q0 -19 -1.5 -49t-1.5 -49l-56 -175l8 2l-53 -59l-198 -178l-56 12q-14 -6 -37 -13t-39 -13l-111 -20l31 -87l108 -48l-3 3l149 -82l68 -25h57q50 -29 98 -57
t99 -56h-3l26 -14l104 -34l-31 -43q-48 -96 -62 -121l-116 93v-42l-25 17l-133 87l-192 119l-70 42h3l-204 133q-2 0 -10.5 -1.5t-14.5 -1.5q-37 14 -76.5 31t-72.5 31l-125 68l-65 42l43 99l-17 -6l138 -42l-11 3l101 -77l110 -5l232 70l149 119l46 73l48 178v51l-60 220
l-79 161l-28 59l-231 -5l-164 -6l-34 -85q3 -14 7 -32.5t7 -32.5v3l-3 -152l110 -105l-45 -73l20 6l-135 -65q-26 -3 -45.5 -6t-42.5 -6l-20 17l-36 23l36 195l34 200l-31 48l-274 79l-84 3q-14 0 -29.5 1.5t-29.5 1.5l-40 59l161 -40h-9l240 40q9 14 21.5 26.5t23.5 27.5h6
q23 2 44 6.5t44 7.5l127 -9l197 11l-11 -39l296 -45l31 39l82 136l-17 132l-76 119l-130 45l-183 14l-77 3l-169 -39l-276 -63l-111 -39q-14 -6 -33.5 -11.5t-36.5 -11.5l-62 -36l-54 76l76 34l249 36l14 -19l152 45l68 39l181 9l25 3l124 5l203 -3q6 0 11.5 -1t11.5 -1h-11
l124 -40l-14 3l113 -79l-9 3q31 -34 61 -69.5t61 -69.5l-43 -53l-5 -76l33 -60l48 -22l54 -20l302 20l48 -51z" />
    <glyph glyph-name="Charu_Chandan" unicode="&#x988;" horiz-adv-x="1653" 
d="M1961 1459l-13 28l-227 -15h-92l-184 3l-219 3h-113h-151l-252 3l166 -215l83 -123l243 129q15 21 26 42.5t26 46.5l120 -18l86 -44l-138 -89l-74 -64l-157 -154l-107 -175l-9 -58l-28 -169l28 -123l33 -135l56 -96l218 -150l37 -3l172 -3l67 21l59 -152l-126 51l-191 37
q-27 6 -61 12t-65 12l-73 40h6q-62 40 -123.5 84.5t-122.5 84.5l3 25l-37 120l-64 255l-194 -209l-49 -92l3 3l-129 -179l6 4l-40 -40l-203 -53l-107 22l92 98l46 37l157 160l116 153l-6 -3l145 139l80 89l123 150l-142 274l77 89l-129 70l-261 86l-114 -187l37 -34l-15 13
l3 -105q15 -6 46 -20t55 -23l-18 -43l6 3l-55 -74q-7 -12 -10 -15t-9 -15l25 6q-43 -22 -87.5 -46.5t-87.5 -48.5l-71 46q-12 0 -19 -3l40 270l7 135l-40 37l15 -12l-15 123h-320l-3 3q40 15 77 30.5t70 30.5l243 3l6 31q-6 0 -6 1.5t-6 1.5l104 28q53 -6 99 -15.5t98 -15.5
h-3l83 -19l237 -12l230 -21l200 -3v80l-62 193l-70 80l-99 61l-52 25l-107 43l-308 -28l-73 -46l-163 -21l-46 -13l-108 -3v3l-107 -52q0 3 -4 6l-6 7l-9 67l40 6l120 -3l200 40l153 58l43 53l154 -6l58 3q25 3 51 7.5t51 7.5l64 -22l172 -55h-6q34 -15 69 -35t69 -35l-21 6
l101 -166l-6 9l-3 -101q0 -31 -3 -62t-3 -61l15 -16l289 -9l307 3q3 0 7.5 -1.5t8.5 -1.5l-22 3l178 6l34 -24z" />
    <glyph glyph-name="Charu_Chandan" unicode="&#x989;" horiz-adv-x="1799" 
d="M2002 1501l-136 -51h18l-36 -3l-217 -9h3l-196 -3l-218 -10l-253 -84l-30 -33l9 -169v3l-33 -242l21 -123l18 -61l196 6l130 136l36 58q12 18 27 51t27 54q15 6 33.5 12t33.5 12l15 -12l-12 3l111 -169l-9 6l9 -57l55 -109l-3 3l39 -202v3q0 -18 3 -42t3 -42l-142 -242
l15 3l-130 -81l-99 -48h3l-121 -52h6l-118 -27l-48 -12q-33 0 -80 1.5t-77 1.5q-57 12 -114.5 25.5t-114.5 25.5l-94 46l-132 51l21 -6l-61 69l-81 94l-79 81h3q-30 43 -61.5 82t-61.5 81l6 -6l-30 97l-40 114q106 -12 118 17t51 -11q22 0 40 1.5t39 1.5l48 -87l-6 6l12 -97
l6 12l21 -75l121 -229l211 -145h-3l91 -73l181 -15l39 -3l205 49l64 54l117 109l91 99l21 169l-9 172l-130 169l-148 -127l-96 -123l-67 -18q-30 -13 -76.5 -32.5t-80.5 -31.5l-54 12q-9 0 -18 3l-30 130v-3l15 130l-18 93l21 236l-12 187l-51 139h-191h-90h-42l-109 -3
l-266 6h-138h-88q-9 15 -16.5 24t-13.5 24q51 21 90.5 34.5t90.5 34.5l401 -39h106l-57 -3h214h103l63 3l45 24l106 3q15 0 27 -3t27 -3h-15l51 -21l139 72l24 79l18 90l-48 91l-160 87l-148 43q-51 -3 -105.5 -7.5t-105.5 -7.5h3l-39 3l-260 -55l-66 -21l-223 -99
q-18 -9 -33.5 -18.5t-33.5 -21.5l3 121l160 27l85 12h-3l123 31l142 36l64 45l235 -15l208 6l115 -54l114 -40l-24 6l127 -202h-3l21 -39l-9 -48l6 3l-21 -49l27 -48l320 -30l263 -3q21 0 42 1.5t45 1.5z" />
    <glyph glyph-name="Charu_Chandan" unicode="&#x98a;" horiz-adv-x="2035" 
d="M27 586l-21 63l64 18l91 -133l75 -106l73 -82l85 -78l136 -106l209 -130l39 27l-184 66l-149 55l-45 27h3l-206 133l-157 91zM2174 1506l-136 -51h18l-36 -3l-218 -9h3l-136 -3l-218 -10l-255 -84l-30 -34l9 -169v3l-33 -242l21 -125l18 -60l197 6l130 136l36 58
q13 18 28 51.5t27 54.5q15 6 33 12t34 12l15 -12l-12 3l112 -170l-10 6l10 -57l54 -109l-3 3l39 -203v3q0 -18 3 -42.5t3 -42.5l-142 -242l15 3l-130 -82l-100 -48h3l-121 -52h6l-118 -27l-48 -12q-34 0 -81 1.5t-77 1.5q-57 12 -114.5 25.5t-115.5 26.5l-94 45l-133 51
l21 -6l-60 70l-82 94l-79 82h3q-30 42 -62 81.5t-62 81.5l6 -6l-85 200l103 -6q18 6 23 31.5t59 -7.5q21 0 39.5 1.5t39.5 1.5l48 -88l-6 6l12 -97l6 13l21 -76l122 -230l212 -146h-3l90 -72l182 -15l39 -3l206 48l64 55l118 109l91 99l21 170l-9 173l-130 169l-149 -127
l-97 -124l-66 -18q-30 -12 -77 -32t-81 -32l-54 12q-9 0 -18 3l-31 130v-3l16 131l-19 93l22 237l-13 187l-51 140h-191h-91h-284l-109 -3l-267 6h-139h-88q-9 15 -16.5 24t-13.5 24q51 21 90.5 35t91.5 35l402 -40h106l185 -3h215h103l64 3l45 25l106 3q15 0 27 -3t27 -3
h-15l52 -22l139 73l24 79l18 91l-48 90l-160 88l-149 43q-51 -3 -105.5 -8t-106.5 -8h3l-39 3l-261 -54l-66 -21l-224 -100q-18 -9 -33.5 -18t-33.5 -21l15 124l76 9l124 45l30 -18l97 21l170 46l67 45l257 -30l185 21l115 -55l115 -39l-25 6l128 -203h-3l21 -39l-9 -49l6 3
l-21 -48l27 -48l260 -31l264 -3q21 0 42 1.5t45 1.5z" />
    <glyph glyph-name="Charu_Chandan" unicode="&#x98b;" horiz-adv-x="1862" 
d="M1039 1290l-171 -267l-122 -47l-108 -108l-51 -63h3l-135 -165l162 18l209 -30l267 -209l-15 311l12 168zM1691 299v-155l15 -120l-39 -30l-21 -51l-95 18q-9 27 -21 55.5t-21 55.5l3 -6l9 122l-36 63l33 81l-78 225l-210 -6l-15 -153l-15 -54h33l-48 -162
q15 -24 33 -53.5t33 -53.5l-86 -99l-102 45l-57 -12q-9 15 -16.5 24t-13.5 24l6 -9l51 200l-72 87l-126 150l-143 87l-96 20l-72 21l-42 -32l-173 -111l-84 -66q-33 15 -54 28.5t-45 28.5l24 42h-6l84 101l221 177l54 111l-12 -6l18 18l114 119l176 177l42 93l-36 39l9 -3
l-116 176l-42 -197l9 6l-129 -165l6 3l-24 -21h9l-132 -81l-39 -18l-128 135l6 -3l-81 147l3 -3l-36 131q51 15 99 36t93 36l68 -45l-39 -59l-14 -132l176 -42l147 290l-27 81l27 42q45 -30 57 -63l182 -164l-24 12l15 -231l132 156l3 -24l21 185q0 18 1.5 36t1.5 36
l-18 -12l30 24l140 -206l-6 3l18 -39l-35 -153l20 -159v3l3 -116l57 -141l-57 -177q42 0 99 -1.5t108 -1.5h48q0 6 19.5 13.5t28.5 13.5l18 168l48 389l-18 12l3 90v155q-15 24 -31.5 52.5t-31.5 52.5l9 12l-21 -6l51 30l140 -21l12 -30l228 -6l155 -3h39l-197 -125l-105 65
l-102 3l-45 -161l30 -111v3l9 -209l15 11l-87 -86l30 -237v3l3 -476z" />
    <glyph glyph-name="Charu_Chandan" unicode="&#x98c;" horiz-adv-x="1403" 
d="M419 1357l104 11l245 -47l205 -118l78 -160l131 -240l26 -98l-21 -78l-12 -232l-124 -156l-126 -145l-68 -37l-158 -8l-253 89l-135 25l15 48l190 299l3 5l34 231l-113 -69l-33 -79l-35 -7l-77 -25l-80 -54l-145 114l3 104v-8l162 3l275 86l222 14l-63 -66l76 -164
l-78 -71l-124 -249l-53 -47l8 -88l154 9l360 243l32 61l40 249l-79 187l-2 53l-134 149l-247 164l6 -87l-30 30l-194 28l-3 77z" />
    <glyph glyph-name="Charu_Chandan" unicode="&#x98f;" horiz-adv-x="1707" 
d="M1123 1475h-149l-170 -14l-185 -114l-92 -122l9 -200l89 -208l188 -138q0 6 3 42t3 42l-3 -6l75 173l-45 -48l-27 51l-27 39l9 35q0 9 -3 21t-3 21l170 87q15 0 21 1.5t15 1.5l74 -57l-47 -179h3l-51 -158q-3 -30 -7.5 -56.5t-7.5 -56.5l24 12l-113 -60q-21 0 -33 -3
t-33 -3h3l-164 12l-188 221l6 -3l-36 74l-77 140l3 -3l-21 66l3 -3q0 39 3 76t3 76l-15 -12l173 155l83 87q12 14 37.5 38t40.5 39l89 3q39 0 76.5 -1.5t75.5 -1.5h-2l134 -9l74 -18h-9l170 -80v3l60 -36q24 -12 55 -22.5t55 -22.5l39 -18l30 -149l-30 -241l-18 -128
l-15 -90l3 -12l15 -146q6 -42 12 -82t12 -82v3l12 -215l42 -175l-39 -75l-128 42h6q-27 0 -55.5 1.5t-55.5 4.5l-104 89l-316 173q-3 -3 -7.5 -18t-10.5 -27q-42 0 -80.5 3t-74.5 3l-140 27l-176 -86h3l-66 -30h3q-24 -6 -49 -15t-49 -18l-60 45l-68 33l-51 17q3 3 3 9
l146 27l63 9l134 21l128 27h113h-3l135 -12h-3l205 -27l119 -15l239 119l6 36q0 24 3 48t3 48q6 77 12 157.5t12 158.5l9 101l6 92l6 179l-129 197l-98 99z" />
    <glyph glyph-name="Charu_Chandan" unicode="&#x990;" horiz-adv-x="2035" 
d="M1123 1475h-149l-170 -14l-185 -114l-92 -122l9 -200l89 -208l188 -138q0 6 3 42t3 42l-3 -6l75 173l-45 -48l-27 51l-27 39l9 35q0 9 -3 21t-3 21l170 87q15 0 21 1.5t15 1.5l74 -57l-47 -179h3l-51 -158q-3 -30 -7.5 -56.5t-7.5 -56.5l24 12l-113 -60q-21 0 -33 -3
t-33 -3h3l-164 12l-188 221l6 -3l-36 74l-77 140l3 -3l-21 66l3 -3q0 39 3 76t3 76l-15 -12l173 155l83 87q12 14 37.5 38t40.5 39l89 3q39 0 76.5 -1.5t75.5 -1.5h-2l134 -9l74 -18h-9l170 -80v3l60 -36q24 -12 55 -22.5t55 -22.5l39 -18l30 -149l-30 -241l-18 -128
l-15 -90l3 -12l15 -146q6 -42 12 -82t12 -82v3l12 -215l42 -175l-39 -75l-128 42h6q-27 0 -55.5 1.5t-55.5 4.5l-104 89l-316 173q-3 -3 -7.5 -18t-10.5 -27q-42 0 -80.5 3t-74.5 3l-140 27l-176 -86h3l-66 -30h3q-24 -6 -49 -15t-49 -18l-60 45l-68 33l-51 17q3 3 3 9
l146 27l63 9l134 21l128 27h113h-3l135 -12h-3l205 -27l119 -15l239 119l6 36q0 24 3 48t3 48q6 77 12 157.5t12 158.5l9 101l6 92l6 179l-129 197l-98 99zM1352 1967l196 -256l-1 52l98 -147l5 -79l-1 3q23 -57 48.5 -115.5t48.5 -115.5l51 -100l14 -89l54 -19l-42 -231
l-2 7l-44 -104l1 14q-37 -27 -71.5 -55.5t-71.5 -54.5l5 4l-69 -21l-118 -42l18 -18l-86 9l-30 116l18 29q28 9 59 16.5t60 15.5l110 64l86 93l62 68l-9 161l-37 151l-57 127l-56 124l-113 121l-72 89l-134 89q50 38 57 56t14 46z" />
    <glyph glyph-name="Charu_Chandan" unicode="&#x993;" horiz-adv-x="1659" 
d="M1316 620l-46 28q-24 -9 -58 -20t-58 -20h3l-131 -52l-89 -27l-140 -31l-40 80l101 39l21 19l-21 -3l165 42l125 43l168 80l33 201l10 83l-101 158l-113 153l-141 -12l-210 46l3 -77l64 -174l6 -27l122 -92l-18 6q9 -18 16.5 -38t16.5 -41l-82 -122q-64 21 -88.5 19.5
t-45.5 -1.5l-28 46l6 -6l-27 110l-83 189l3 -3l-15 92l-24 55l12 76l235 61l46 3q27 0 67 -3t67 -3q52 -6 105.5 -15.5t105.5 -15.5l30 -73l156 -113l79 -58l-30 -232h3l-21 -70l3 3l-89 -165l46 -113l-3 3l46 -189l30 -171l-94 -126l-58 -97l6 3l-61 -67l-113 -31l-147 3
q-12 0 -29 3t-29 3l-183 34q-34 9 -70.5 21t-70.5 22h9q-24 12 -50 25.5t-50 25.5l12 -3l-89 86l-162 165l-58 61l-149 156l12 -7l-49 226q-9 46 -21 92t-22 92l-21 88q24 -3 35 -4.5t23 -4.5l95 -73l104 -83l76 -64l-28 -73l-3 -76l58 -110l64 -126l49 -85l83 -128l79 -71
l183 -88l129 12l186 46l107 55l113 204l-6 65l-55 171z" />
    <glyph glyph-name="Charu_Chandan" unicode="&#x994;" horiz-adv-x="1977" 
d="M1316 620l-46 28q-24 -9 -58 -20t-58 -20h3l-131 -52l-89 -27l-140 -31l-40 80l101 39l21 19l-21 -3l165 42l125 43l168 80l33 201l10 83l-101 158l-113 153l-141 -12l-210 46l3 -77l64 -174l6 -27l122 -92l-18 6q9 -18 16.5 -38t16.5 -41l-82 -122q-64 21 -88.5 19.5
t-45.5 -1.5l-28 46l6 -6l-27 110l-83 189l3 -3l-15 92l-24 55l12 76l235 61l46 3q27 0 67 -3t67 -3q52 -6 105.5 -15.5t105.5 -15.5l30 -73l156 -113l79 -58l-30 -232h3l-21 -70l3 3l-89 -165l46 -113l-3 3l46 -189l30 -171l-94 -126l-58 -97l6 3l-61 -67l-113 -31l-147 3
q-12 0 -29 3t-29 3l-183 34q-34 9 -70.5 21t-70.5 22h9q-24 12 -50 25.5t-50 25.5l12 -3l-89 86l-162 165l-58 61l-149 156l12 -7l-49 226q-9 46 -21 92t-22 92l-21 88q24 -3 35 -4.5t23 -4.5l95 -73l104 -83l76 -64l-28 -73l-3 -76l58 -110l64 -126l49 -85l83 -128l79 -71
l183 -88l129 12l186 46l107 55l113 204l-6 65l-55 171zM1352 1967l196 -256l-1 52l98 -147l5 -79l-1 3q23 -57 48.5 -115.5t48.5 -115.5l51 -100l14 -89l54 -19l-42 -231l-2 7l-44 -104l1 14q-37 -27 -71.5 -55.5t-71.5 -54.5l5 4l-69 -21l-118 -42l18 -18l-86 9l-30 116
l18 29q28 9 59 16.5t60 15.5l110 64l86 93l62 68l-9 161l-37 151l-57 127l-56 124l-113 121l-72 89l-134 89q50 38 57 56t14 46z" />
    <glyph glyph-name="Charu_Chandan" unicode="&#x995;" horiz-adv-x="1847" 
d="M954 1294l-23 193l-138 -53l-64 -90h3l-44 -50q-15 -21 -34 -40t-34 -39h3l-158 -182l-82 -137l-35 -74q50 -5 255 -38l158 -61l91 -50l64 167v97l12 102v-3zM1446 1452l-155 -6l-76 -6l214 -129h-12l88 -84l114 -74l-23 9l70 -199l-38 -88l-3 -102l-24 -65l-38 9l-79 38
l-85 62l38 90l-17 -6l120 91l-6 30l-120 196q-44 50 -56 82l-90 26l-188 3l-6 -319l-3 -152l-3 -208l3 -173l3 -70l12 -47h32l-38 -82l32 -76l-3 2l12 -58v3q0 -24 3 -44.5t3 -43.5l6 9l-79 -132q-41 15 -63 22t-63 22l15 -3l-27 23l12 74l17 290l3 35l-87 193l-112 73
l-152 91l-76 26l-232 -64l-84 -91q-12 -23 -25.5 -43.5t-24.5 -41.5l-76 12l-47 117q29 35 60 70t60 71l149 175l103 129h-3l38 47l79 103l76 99l12 29l-120 30l-91 8l-158 6l-343 3q-26 0 -54 -1.5t-57 -1.5q-6 6 -6 15l76 38l190 29h156l152 -3l237 -3h100l155 39
q44 2 88 6.5t88 7.5l181 -35h138l167 -3h85h164l181 -3h123l12 -6l-193 -61l-199 -9h-232z" />
    <glyph glyph-name="Charu_Chandan" unicode="&#x996;" horiz-adv-x="1550" 
d="M1159 341l3 321l-6 172l-9 164v80l3 199l3 113q0 35 1.5 69.5t1.5 69.5q30 9 41.5 15t41.5 15h-9l71 12l75 -21q23 -3 51.5 -7.5t55.5 -7.5l163 -41l-30 -27q-41 -3 -66.5 -7.5t-66.5 -7.5h3h-110l-39 -41l-33 -173l-12 -80l9 -193l30 -169l24 -137l-30 -149l-24 -115
l39 -39l-9 6l9 -24l-6 3l27 -178v3l3 -110q6 -15 19 -30t22 -29l-107 -39q-20 0 -41 -1.5t-39 -4.5q-24 9 -50.5 18t-14.5 6v133l18 128q-15 39 -33 85t-77 67l-33 62l-229 128l-187 -45l-53 -83l6 3l-86 -80h8q-47 -27 -93 -56.5t-94 -59.5l-104 71l18 -9l-33 89l137 72
l208 166l51 51l133 163l45 74l18 60l20 104l27 136l-148 161l-66 3l-6 -199l6 6l-53 -98l6 3q-36 -42 -37.5 -89.5t-93.5 -65.5l-146 68l-62 72l-92 104l12 -9l12 160l-6 -6l44 95l45 18l59 -77l-12 6l15 -71l36 -81l140 -160l32 232l-18 124l-44 116l-9 9l196 -27h-12
q3 -3 10.5 -4.5t13.5 -1.5l154 -83h-11l151 -154l-15 12l6 -12q3 -51 7.5 -106t7.5 -105l6 6l-65 -128q-3 -15 -6 -27t-6 -26l3 3q-24 -54 -52.5 -107.5t-51.5 -106.5l-119 -45l181 -41h-6q51 -18 104.5 -39t124.5 -54z" />
    <glyph glyph-name="Charu_Chandan" unicode="&#x997;" horiz-adv-x="1485" 
d="M1794 1514l23 3l-64 -15l-161 -64q-14 0 -30.5 1.5t-27.5 1.5l-181 11l-56 -102q0 -32 -1.5 -61t-1.5 -62v3l-35 -309l-9 -138l6 -58l21 -117l8 -44v3l15 -152l55 -231l-23 -35l6 -70l15 -35l-88 -55l-23 -53l-100 67l-67 15l32 140l41 272l12 128l3 68l-3 213l-15 134
l-47 155l-43 91l-71 81l-184 147l-137 26l-82 6l-204 -152l-56 -67l-32 -91l175 15l217 -100v-143v3q-6 -26 -12 -55.5t-12 -55.5h3l-64 -240l3 3l-9 -11q-47 -6 -85 -16.5t-79 -18.5q-26 14 -46.5 28.5t-43.5 29.5l204 164l9 70q-6 29 -11.5 58t-11.5 59l-21 146l-55 35
l-383 -6l79 166l126 123h-3l35 29q8 9 21.5 16.5t24.5 16.5l234 26l47 35l111 -12h-9l94 -26h-6l172 -82l-9 3l170 -143l26 272l-26 17q41 0 71.5 1.5t71.5 1.5l12 -23l58 -18l190 -17q61 2 127 6.5t130 7.5z" />
    <glyph glyph-name="Charu_Chandan" unicode="&#x998;" horiz-adv-x="1370" 
d="M204 1427l-39 -80l86 -281l122 56h-6l86 26q11 -26 14 -41t15 -39l-77 -201q0 -12 -1.5 -21t-1.5 -20l15 11l-107 -100l175 18l276 -74h-6l163 -66l50 68l29 69l15 305l-50 210l21 181l-196 -27l-98 30l-302 2l-77 -2l-47 -6zM1575 1554l-15 -29h3q-44 -21 -79.5 -37.5
t-77.5 -34.5l-246 3l-14 -106q0 -15 1.5 -34t1.5 -34l-21 -222l53 -270q0 -24 -3 -44.5t-3 -44.5l-12 -163q0 -20 -41 -44q15 -50 31 -102t31 -102l-3 3v-110l30 -113h-3l12 -59l-98 -56l47 15l-89 -15l-8 -6h-24h3l-68 9l-3 145v62l-21 148l-65 110l-128 130l-109 80
l-133 68l-217 -15l-17 -124l14 9l-35 -36l18 3l-116 -41q-23 3 -39.5 6t-40.5 6l27 -3q-6 6 -21 19t-21 19l77 157v-3l104 172l89 190q-9 0 -43 -1.5t-43 -1.5h3q-24 3 -50.5 7t-50.5 7h15l-83 39l24 -9l-65 127q-6 9 -10.5 15t-10.5 15l47 104l-6 -3l69 92h-276l-65 -6
l116 91l174 -8l104 11l53 24l89 -6h-9l65 -24l252 -8h237h118l42 38h154l166 -30q97 -3 213 21z" />
    <glyph glyph-name="Charu_Chandan" unicode="&#x999;" horiz-adv-x="1898" 
d="M1137 1035l-129 200l-69 -149l87 -141zM1032 732l123 -6l125 93l36 48l-6 -3l207 180l63 -207q33 -33 72 -76.5t72 -79.5l-27 -147l-15 -120l9 9l-180 -242h3l-48 -60l9 3l-105 -75l15 3l-155 -39l-138 -21l39 -27l-159 15l-114 15h6q-39 9 -76.5 21t-76.5 21h6
q-21 6 -45 19.5t-45 22.5l-63 30l15 -3l-164 165l6 -3l-102 134l-54 72h3l-48 72l-48 72l3 -3l-69 186l3 -6q-6 36 -6 76.5t-6 79.5l66 -21q24 0 57 3t57 3h-3l63 -6l-6 -93q9 -15 24 -36t24 -36l-6 3l45 -180l39 -75l113 -165l123 -149l144 -156l207 27l126 45l227 -12
l51 153l-6 -3l72 104q0 33 1.5 88.5t1.5 88.5l27 168l-9 36l-108 123l-72 -6q-21 -24 -43.5 -54t-43.5 -54q-35 -27 -68 -55.5t-69 -55.5l12 3l-120 -51l-126 -63l-75 54l18 -9l-48 174l3 -6l12 48l-24 18l-117 84l-150 48l12 132l-3 71l-3 216q0 18 -1.5 49.5t-1.5 52.5
q15 9 37.5 21t37.5 18h9l96 -87l-15 12q0 -21 1.5 -54t1.5 -54l-18 -180l24 -170l138 54l6 93l-9 173l12 39l45 21q48 -6 87 -12t84 -12l105 -81h-3l72 -75l-6 3l41 -56l-140 -243l-162 -54z" />
    <glyph glyph-name="Charu_Chandan" unicode="&#x99a;" horiz-adv-x="1307" 
d="M1010 880q-46 15 -108.5 41t-107.5 41h3l-162 64l-131 52l12 -3l-46 34l-48 -19l-119 122l15 -329l9 -232v-76v-58l-15 -262l238 219q42 40 91 85.5t92 85.5l161 143h-3l82 67zM1623 1535l-61 -57l-165 3l19 3l-80 -22h-82l-146 3h-83h-170h-98l-436 -3l30 -79l43 -131
l146 -125l125 -76l71 -37l283 -85l-9 3l153 -80l-65 -70l-161 -186l-86 -97l-85 -74l-183 -158l-27 -25l-37 -36l-149 -137q-6 -25 -12.5 -46t-12.5 -46l6 3h10l-144 -15l-73 70l40 58l3 220l3 73l-12 241q0 27 -3.5 57.5t-3.5 58.5l-6 234l13 183v46l-16 110l-58 119
l-265 27l-67 -6l27 22l354 42l46 70h110l18 -55h277h126h176h162h152h55h250h98z" />
    <glyph glyph-name="Charu_Chandan" unicode="&#x99b;" horiz-adv-x="1385" 
d="M297 1147l-14 -28l-3 -131l-2 -42l2 -134l39 -305l151 201l-8 -6l142 124l77 66l105 112l-151 69l2 -3l-293 168zM1585 1534l-14 -19l28 5l-154 -44l-124 -33l-206 6l-217 3l-214 2h-112l-116 -2l-148 -6l5 -16l50 -88l68 -72l248 -162l63 -24h44q27 -6 57.5 -17
t57.5 -19l113 -60q-25 -9 -20 -17l9 -74l88 -69l57 -96l-14 6l9 -8q11 -22 27.5 -54t29.5 -56q-13 -31 -27 -58t-28 -58l14 6l-63 -50h3l-231 -164l-58 -20l204 -120h41l203 -110h-11l6 -6l-64 -159q-13 3 -16 3h-8l-58 27l-88 58l-187 126l-85 58l-140 88l-82 44h11l-6 5
l204 80l27 19h-3l225 143l66 99l22 151l-52 16l-66 80l11 -8l6 52l-151 -80l-127 -107l-13 -36l16 6l-143 -102l-99 -68l-52 -55l-71 -91q-55 -58 -55 -82h-17l-137 57q25 234 30 313l6 -8l-8 88v173v52v187l-28 198l-184 65l-30 88l162 11l88 47l132 -44l-9 3l66 -44
l193 22h-6l104 3l171 2l173 3h35l146 3l187 3l211 5h25z" />
    <glyph glyph-name="Charu_Chandan" unicode="&#x99c;" horiz-adv-x="2154" 
d="M2275 1500l-66 3l-38 -22l-43 -3l-445 -25l-135 -15l-75 -16l-87 -88l184 -112l82 -54l159 -40q22 6 47 14t50 14l141 -41l-119 -175l-100 -204q16 -28 28.5 -60.5t28.5 -64.5l-38 -94l16 -153l12 -41l-25 -78l81 -222l-103 -41q-34 16 -57.5 30t-58.5 29l22 69l-50 176
l3 -3q10 100 22.5 208t21.5 208h28l66 222l53 200l-244 -34q-34 22 -65.5 42.5t-65.5 42.5l-169 106h3l-116 75h3l-69 50l-216 97l31 -91l-106 -150l-38 -150l-3 -50l25 -197l288 12l213 157l28 56q13 -16 17.5 -20.5t9.5 -6t9.5 -8t17.5 -18.5l-10 3q13 -25 24 -58t23 -58
l69 -169l-3 6l12 -147l-6 -109v-248l22 13q-44 -31 -92.5 -62.5t-92.5 -62.5l-137 -69h9l-194 -53q-34 -4 -62.5 -8.5t-62.5 -7.5l-222 19h9q-31 6 -67 17t-68 20q-18 13 -52.5 28.5t-56.5 28.5l-129 68h7l-113 101h3l-69 65l10 -6l-60 110h3l-116 263l4 -7q0 19 3 41t3 41
l-41 153q97 -50 116 -34.5t81 3.5l50 -53l-9 3l50 -138l-37 -84l106 -144l-6 6l72 -222l72 -69l112 -75l188 -69l157 -10l100 -6l194 141l47 47l91 150l19 204l-16 119l-22 178l-172 -135l15 3l-262 -90h-135q-47 6 -95.5 18.5t-95.5 21.5l-47 44l19 -15l22 181l-7 -3
l107 191q0 19 -1.5 34.5t-1.5 34.5l-3 -3l43 141l29 109l-254 41q-53 0 -109.5 1.5t-109.5 1.5h3l-432 22l-88 22q-3 3 -6 3q0 3 -1.5 6t-1.5 6l6 4q44 3 89.5 7.5t89.5 7.5h-3l212 3l270 -3l169 -3q12 0 24.5 -1.5t28.5 -1.5l69 -9l328 40q32 10 60 16t59 16l50 -51h66
l75 -6l129 -6l122 -3h47l353 -3h116h185v-35h-31z" />
    <glyph glyph-name="Charu_Chandan" unicode="&#x99d;" horiz-adv-x="1846" 
d="M881 1415l-35 24l-165 -188l-47 -53l-158 -214l-74 -115l-8 -26l55 -38l65 -15l88 3q32 0 61.5 3t61.5 3l153 -103l-15 6l103 -97l12 176l12 162l9 132l11 191l-91 170zM1495 987l-27 299l-17 173l-9 36q32 23 54 38t52 38l35 -15l352 -41h27l-30 -32q-32 -6 -61.5 -15
t-61.5 -14h-158l-39 -185l3 -77l9 -173l15 -191l17 -255q0 -33 -1.5 -81.5t-1.5 -80.5l-32 -117l50 -130l-3 6l-9 -147q0 -14 -3 -24.5t-3 -25.5l-70 -20l-120 17l-50 80l8 -9q0 50 3 100t3 100l77 -74l-115 182l-100 165l-152 79v-182l-3 -288l53 -59l2 -26l-20 -29l15 3
l-44 -30l-103 -35q-24 6 -40 13.5t-34 12.5l3 9l-23 144q3 18 7.5 37t6.5 37h-2l38 123l-36 203l-73 44h6l-147 117l-62 35l-211 21h15l-106 44l-62 -97q-26 -47 -54 -88t-57 -88l-44 12l-86 41l15 -3l-64 67l23 35l147 188l123 168l-6 -3l174 167l11 59l-6 -3l53 103l-8 -6
l29 29l-103 39l-109 14l-305 21q-35 0 -70.5 3t-70.5 3h3l-203 14l-29 56l232 -20q18 3 35.5 7t32.5 7h47l114 3l100 3l241 9l323 15l32 14h26l6 -20l71 -56q32 12 69 28t72 31q20 -41 35 -66t35 -66l-6 5l-3 -61v-106l9 -173l21 -256v-135l323 -238l-38 276v-3q3 27 7 56.5
t7 55.5v-3z" />
    <glyph glyph-name="Charu_Chandan" unicode="&#x99e;" horiz-adv-x="2237" 
d="M1575 185v3l9 -144q-6 -15 -10.5 -32t-10.5 -36q-65 -3 -111 -7.5t-108 -7.5l-119 74l-28 61l-231 74l-36 9h3l-145 56l-141 -25l-68 -6l-258 -95h-89l-83 21h6l-80 28l43 3l240 49h-3l117 18l172 10q18 0 35 1.5t35 1.5l96 -10l190 -21l160 -18h-3l212 -40l-6 202l6 148
q0 12 1.5 30.5t1.5 30.5l9 117l10 191l12 190l6 130l-43 67l-138 135l-43 43l-231 47l-227 -47l-126 -159l-43 -83l-19 -120l111 -209l61 -71l145 -123l67 255l-86 71l108 104l-22 -3l126 34q22 -6 43.5 -12t110.5 -31l-123 -323q9 10 -28 56q-3 -46 -7.5 -92.5t-7.5 -92.5
v3l-9 -46l31 12l-166 -76q-31 3 -51 6t-48 6l-178 49h6q-15 6 -32 17t-32 17l18 -6l-120 138l9 -3l-64 163l3 -3l-9 37l-6 61q0 59 3 115.5t3 115.5l-6 -9q6 12 16.5 22.5t16.5 23.5h-3l96 120l-16 -4l212 123l-15 -3l172 28h120h-25l160 -22h-3l95 -21q34 -6 71 -17t71 -20
l107 -55q22 -13 42 -26.5t41 -26.5l-18 7l15 -25l-3 3l25 -71h-3l21 -116l86 46l228 -126h-3l141 -56l-25 10q13 -22 26.5 -42t26.5 -41l-6 6q0 -16 1.5 -32.5t1.5 -32.5l6 9l-92 -147h6l-34 -65l123 -70l-22 -93q0 -6 -1.5 -9t-1.5 -9l-27 -120l15 9q-34 -33 -74 -64
t-77 -65h-27l-105 -18l-86 6l-98 -3zM1572 367l203 -53l110 139l22 160l-154 61l-6 19q-6 3 -18.5 6t-27.5 9l40 25h-6l126 43l58 199l-178 99l-98 3l-90 -135v-148q-3 -34 -7.5 -69.5t-7.5 -68.5v3l-12 -86l-19 -105l34 -104z" />
    <glyph glyph-name="Charu_Chandan" unicode="&#x99f;" horiz-adv-x="1501" 
d="M1821 1477l-191 3l3 3l-81 -31l-101 -6l-59 3h-148h-167h-129l-142 3h-247l-191 -111l-22 -148l-12 -74q3 -68 7.5 -137.5t8.5 -136.5l6 6l-22 -37q6 -90 17 -181t17 -180q0 -56 3 -113t3 -112l6 6l-21 -37v-31l129 -65l151 -52l124 -25l136 28l194 136l80 101l-22 161
l-12 -13l46 59l-61 111l-232 123l-55 -18q21 -34 47.5 -69.5t47.5 -69.5l-9 9q3 -33 8 -67t8 -68l-108 -111l-111 -16q-6 0 -14 1.5t-14 1.5l-40 56l9 -9l15 209l7 50l-37 157l-7 -9l28 61l-15 -6l52 37q40 0 74 3t71 3l111 -40q37 -6 83.5 -15t86.5 -15l99 -118l-7 3
l56 -101l-6 3l40 -222l3 9q-12 -34 -26 -71t-26 -71h3l-16 -22l9 7l-132 -130h9q-43 -25 -92.5 -52.5t-92.5 -52.5l-46 -6l-256 22h-133h3l-148 9l-136 -28l-21 31q-6 0 -14 3t-17 6l-12 176l-3 93v123v129l6 145q0 28 1.5 57.5t1.5 57.5l21 274l4 68v154l-7 31l-58 139
l-253 -19h9l-160 -9h-25l-37 105l46 -19q50 6 124 -1.5t126 -1.5l204 3l61 56l-24 -3l114 15l117 -55l228 -7h84l129 223l-123 141l-105 53l-210 46l-71 -21h-126l-161 -28l-120 -28q-25 -6 -48 -17t-48 -17h3q-43 -9 -81.5 -32t-90.5 -14h-13q28 9 0 83l229 40h-3l246 22
l127 28l157 33l244 19l65 -19h-4l99 -30h-3q37 -16 74 -36t49 -26l65 -133l56 -92l-65 -161l49 -30l96 -10l129 -3l346 6l182 7z" />
    <glyph glyph-name="Charu_Chandan" unicode="&#x9a0;" horiz-adv-x="1559" 
d="M569 677l-71 -90l-93 -112l-102 -118l15 -46l-3 -90l121 -149q31 0 73 1.5t76 1.5l93 -37l183 34l102 71l34 25h-3l115 81l56 133l9 260v-3l18 100l-34 68l-74 149l-109 164l-90 112l-189 145l-59 -198q-3 -44 -7.5 -81t-7.5 -80v3l-9 -84l-41 -245zM1667 1445l-143 7
l-223 6l-186 3h-81l-152 -74l90 -97l174 -179q9 -13 27.5 -37.5t9.5 -15.5h-6l115 -192l-7 6l53 -199l19 -80q3 -44 7.5 -84t7.5 -84v4l-12 -47l9 6l-152 -198l10 3l-47 -40l-167 -140q-38 -6 -62.5 -10.5t-61.5 -11.5h3l-149 -12l-121 22q-37 0 -91.5 3t-94.5 3
q-34 6 -68 17t-68 17h9l-155 56l-31 15l15 -3q-127 96 -127 75l72 96l111 173h-3l84 127l68 124l59 128l-6 -4l83 128l22 89l22 134l-3 180l-59 127q-62 0 -254.5 -3t-254.5 -3h3l-223 9l-6 3l205 53l121 9h-4l345 6q-4 19 -10 47t-9 46l-22 180l-3 -6l59 201l-12 -9l86 74
l100 84h-3l120 105h-9l137 53l-56 9l248 109l56 -93l-295 -84l-62 -56l-115 -139l-68 -93l13 -462l114 19l19 -19q80 3 176.5 0t176.5 0l205 -3h236h105l115 3h105q6 0 12.5 1.5t12.5 1.5l-9 -46z" />
    <glyph glyph-name="Charu_Chandan" unicode="&#x9a1;" horiz-adv-x="1807" 
d="M1079 1543l396 -16q18 0 46 -1.5t47 -1.5l265 -9h78l90 -3h56l-22 -50l-87 34q-34 -6 -68.5 -17t-65.5 -17l-199 -13h3l-78 -6l-268 -12l-249 -10l-71 -3q-3 -34 -8 -79t-8 -83l-19 -96l7 -131l6 -215l28 -128l84 16l-16 -12l103 74l115 112l94 103l43 75
q28 -37 51.5 -67t45.5 -56.5t45 -56t51 -66.5l-6 3l38 -84q0 -53 -3.5 -106t-3.5 -106l3 6l-43 -112l-50 -137l12 7l-161 -156h12l-181 -94l-124 -3l-159 -28q-37 13 -49.5 5t-18.5 -14h-63l-165 44l-134 49l13 -3l-128 91l9 -4l-99 113h3l-65 93l3 -3q-35 71 -73.5 139.5
t-73.5 140.5h3q-6 19 -15 37.5t-16 40.5l109 100l112 -113l13 -59v3v-12l12 9l-43 -62l43 -62h-6l93 -153l28 -50l85 -155l183 -56l249 -84q32 12 78 37l78 -6l199 34l72 156h-3l78 134l6 563l-112 -162l-206 -68l-43 -78q-35 -13 -59.5 -23.5t-55.5 -20.5l-134 -31l-88 66
l22 227l-37 34l15 -9l-21 171l46 78l-6 221l-3 112l-218 -3l-159 -6l-155 -3l-181 -4l-121 -3q-35 0 -49 -1.5t-48 -1.5q34 22 43.5 31.5t40.5 27.5q41 7 70.5 11.5t66.5 10.5l302 10l252 3h16h-6l93 -10l131 35q25 0 70 1.5t70 1.5z" />
    <glyph glyph-name="Charu_Chandan" unicode="&#x9a2;" horiz-adv-x="1527" 
d="M1744 1525q-28 -6 -40 -10.5t-21.5 -7.5t-20 -6t-35.5 -10l-150 -24l-147 -6l-135 -3h-132q-96 -3 -192.5 -8t-191.5 -8l-28 -3l-190 -24l-123 -46q0 -40 -3 -94t-3 -94l-9 -171l-3 -105q6 -18 12 -38t12 -39l19 -159l15 -132l12 -98l22 -203l-40 -37l120 -70l279 -53
l178 25l129 107l95 145l9 76l-83 234l-233 138l-28 -215l4 3l-83 -246q-25 0 -51 -1.5t-54 -1.5l-67 231l73 76l19 13l-6 49l-9 116q0 13 -3.5 20.5t-3.5 19.5l92 22q34 0 58.5 -1.5t58.5 -1.5l273 -71l-18 3l58 -49l-9 3l135 -181l-9 6l52 -344l-114 -18l-21 -31h3
l-199 -230l-139 46l-165 9l-62 -6h-126l-135 22l-104 -31l-138 74l12 98l-9 215l28 172v67q0 46 3 92t3 92l21 335v153l-6 31l-61 114l-255 6h-144h-25l71 37l70 12l126 -3l138 30l92 53l132 -16h-9l28 -15l211 -6l117 -3l141 -3l166 -3l86 -3l196 -4l169 -6l151 -3l101 -3
h43z" />
    <glyph glyph-name="Charu_Chandan" unicode="&#x9a3;" horiz-adv-x="1433" 
d="M741 1506l185 -53h-6l150 -67l6 100q0 6 -3 13t-3 13l-23 -12l70 47l41 18l126 -38l-20 9l305 -15q18 0 35.5 -3t34.5 -3h-5q5 0 14 -1.5t15 -1.5l-41 -15h3l-168 -55l-52 6l-124 5l-50 -170l3 -73v-59q0 -35 1.5 -73t1.5 -74l-29 -314l-6 -228l21 -83l64 -17l12 -194
l-18 -44l18 -106l-26 -14l-94 -50q-12 0 -22.5 -3t-24.5 0l-6 6l-50 26l-21 94l27 44v91l6 258l-6 85l-9 312v41q0 32 3 67t3 68v-3l26 176l-29 44l-135 161q-15 0 -37 1.5t-39 1.5l-97 44l-244 -15l-188 -129l-79 -143l12 -232l9 -162l223 -44l64 124l-3 -3l47 64l-76 71
q24 20 40 36t39 37h-9l65 32q15 3 34 7.5t34 10.5q20 -12 46.5 -25t44.5 -25l-50 -132l-21 -44l-15 -88l-17 -188l17 12q-23 -21 -51 -46t-51 -45q-18 0 -28 1.5t-25 4.5l-208 53l14 -3l-120 82l12 -3l-83 108l-23 27l-91 129l67 194q-14 26 -33 52.5t-34 52.5l70 71l97 97
h-9l91 55l165 47l202 9z" />
    <glyph glyph-name="Charu_Chandan" unicode="&#x9a4;" horiz-adv-x="1852" 
d="M2134 1533l-19 -3l-118 -84l-103 28l-93 -3l-131 -4l-87 -3h-125l-283 3h-218l-302 4q-25 0 -54.5 1.5t-54.5 1.5l-405 12q-13 0 -28.5 1.5t-24.5 1.5l-280 -28h9l-25 38l-3 62l59 3l411 -28h97h274h115h44h302l286 -3h181h152h47h121h231h25zM661 1234l19 -9
q-7 12 -7 24l47 -3l221 -3h143q25 -6 51.5 -15.5t51.5 -15.5l240 -140l84 -91h-3l169 -99l-35 -100l-3 -221v-71q0 -31 -3.5 -62.5t-3.5 -62.5l10 9q-16 -24 -36 -46t-36 -47h3l-90 -106l12 3l-183 -112l-119 -37h10l-203 -28l-81 -22l-168 19l-93 9l-181 47l22 -3l-149 149
l-113 103l-12 12l6 -3l-112 150l-56 90l6 -6l-53 177l119 69l93 -22l53 -346q3 3 44 59v-6l117 -251l125 -60q41 -16 80 -31.5t79 -30.5h-3l181 -72l180 56l212 112l56 34l84 137q30 63 33.5 123.5t3.5 122.5l34 -21l20 190l-134 68l19 -6l-22 47l-87 102l-194 81l-132 42
l-94 -81l-4 -241l-3 -56l112 -62h-3l6 -3l-19 -153l13 6l-41 -53l22 6l-118 -40q-35 6 -64.5 11t-63.5 11l-34 75l50 242l-10 159l-25 128l22 112z" />
    <glyph glyph-name="Charu_Chandan" unicode="&#x9a5;" horiz-adv-x="1468" 
d="M805 1245l-18 12l18 -200q0 -15 1.5 -34.5t1.5 -34.5l-21 -194l6 6q-6 -15 -16.5 -27t-16.5 -27l12 6l-146 -116l29 -51q27 0 69 -3t75 -3l173 -39l65 36l93 421l-6 -33l3 96l-6 137l-12 128q-9 51 -21 103.5t-21 102.5l-12 -15l21 75l36 -21q18 0 52.5 1.5t64.5 4.5
l26 -39l308 -21q9 0 19.5 -1.5t19.5 -1.5h-6q6 0 15 -1.5t15 -1.5q-6 -6 -18 -12l-18 -9l-191 -38l-150 -141q3 -35 7.5 -71t7.5 -72l6 -224v-71v3l-32 -153v-194l2 -137l27 -352q3 -45 0 -69l-32 -15q-209 3 -207.5 10.5t4.5 10.5l29 179l-41 233l-147 89l-161 63l-188 -6
l-152 -191l15 6l-165 -81l-83 63l15 -6l-30 72l36 30l170 107l152 126l99 101l65 233l-15 -9l60 48l-12 56l-6 -9l27 51l-27 72l-230 173l-200 -188l33 -54l18 -107q3 0 24 1.5t33 1.5q15 -3 24 -7.5t-12 1.5q9 -18 16.5 -42t16.5 -42l-111 -137l-137 63l24 -9l-36 86l3 -3
l-24 155l12 42q3 24 7.5 48t7.5 48l-6 -9l63 113l-15 -3l152 108l-9 -3l72 30h-15q24 3 47.5 7.5t47.5 7.5q9 -6 19.5 -12t19.5 -9l110 -69h-2z" />
    <glyph glyph-name="Charu_Chandan" unicode="&#x9a6;" horiz-adv-x="1171" 
d="M312 1612l129 -51l105 -12l159 -9h303l227 3l240 -3l69 -39l-162 -6q-60 9 -183 -6l-131 -6h-162h-270l-117 -3l-132 -6l-66 -21l27 -210l-24 -212l21 -198l-30 -99l114 6l198 66l126 75l45 216l15 12l138 134q3 -12 3 -13.5v0t1.5 0t4.5 -13.5h-3l9 -56l6 -84v-315
l-3 -48l21 -138l-21 -168l96 -236l-45 -42q6 -42 12 -88.5t12 -88.5q-51 0 -73.5 -3t-70.5 -3l-24 9l-57 99l3 -3q0 24 1.5 52.5t1.5 52.5l15 135q-3 83 -7.5 165.5t-16.5 181.5l45 -24l-63 243l-150 -69l-39 -36h6l-258 -135l-63 -21q-15 0 -21 3t-17 3l-135 33h-27l66 207
l3 48l-21 93v-3l6 305v69l-15 132h-153l-135 21l60 30q24 3 40.5 6t37.5 6l156 9z" />
    <glyph glyph-name="Charu_Chandan" unicode="&#x9a7;" horiz-adv-x="1372" 
d="M797 1330h3l-138 -165l-105 -132l-66 -87l-45 -69l159 -67l216 6l144 -105l52 51l24 211l-3 165l-6 249l-166 42zM242 1381l12 -3l-69 87l9 -9l-3 69l-6 36l-9 36l54 120l78 15l30 63l171 -42l-156 -180l-39 -129l75 -135l174 -3l-3 3l84 48q3 15 7.5 31.5t7.5 31.5
l-6 -3l24 39l-3 -3l69 87l-21 -6l81 36q15 -3 19.5 -4.5t19.5 -4.5l96 -27l51 39h40q42 -3 105 -9t105 -9h-3l168 -27l123 -9q-12 -21 -21 -33t-21 -30l-114 12l-177 -18l9 -276l-42 -33l24 -90l-33 -244l27 -171l-24 -12l3 -144l36 -108l-3 3l27 -285q6 -9 21 -25.5
t24 -31.5l-42 -48l-105 -33q-6 0 -19.5 3t-19.5 3l-106 72l18 -6l-12 24q0 15 1.5 31.5t1.5 31.5l12 177l46 48l-31 90l-66 198l-114 36l-147 45l-108 57h-144l-72 -42l-12 -30l-12 -30l-144 -126l-3 -3q-24 15 -42 25.5t-36 19.5l-9 93l-9 -9l42 60l39 54h-6l306 319v-3
l45 48l-105 51l3 51l-96 93z" />
    <glyph glyph-name="Charu_Chandan" unicode="&#x9a8;" horiz-adv-x="1451" 
d="M1789 1525l29 -67l-211 32l3 3q-24 -9 -44.5 -20.5t-43.5 -20.5h12l-173 -23l-88 -35l-33 -206q0 -6 -2.5 -16t-2.5 -16v3l-39 -179l30 -185l20 -164v3l3 -105l38 -191l-17 -47l6 -149l29 -86l-59 -79l-9 -6q-46 -5 -87.5 -11t-87.5 -12q5 21 -9 23q-15 6 -24 15t3 3v32
v-3l47 203l18 205l-3 191l-9 208l-117 64l-232 50h-73l-200 -3l-149 -220l-85 -32l53 -252l32 -106l211 -111l70 217l-67 38l61 91l159 50l47 -9q0 -6 3 -10.5t3 -10.5v3q-6 -23 -12 -45t-12 -46l3 3l-67 -193q0 -65 2.5 -126.5t2.5 -125.5l-32 5l-211 12q-53 9 -102.5 19.5
t-102.5 21.5l-41 214l-112 88l12 -6l-67 121l6 -9l20 82v158l-6 -9l59 91l-12 -3l53 47h-3l214 147q56 0 98.5 -3t95.5 -3l331 -44l108 -6l44 41l21 68l-3 44l6 132l-3 143l-326 35l-246 -2l-217 -3h-193h-88h-182h-24q-5 0 -12.5 2.5t-13.5 2.5l15 47l193 12h-14l117 24
l261 3l313 5l132 3h129l159 6q3 3 9 21q20 -3 32 -6t26 -6l112 -26l264 -6l96 6z" />
    <glyph glyph-name="Charu_Chandan" unicode="&#x9aa;" horiz-adv-x="1485" 
d="M1032 1072l108 59v12l-102 102l-230 221h-45t-57 -1.5t-58.5 -1.5h-49.5l-104 15l-192 -164l-36 -114l258 -60q38 -6 74 -15t75 -18l51 -86l-75 -198l341 213zM1795 1514l53 -42l-98 -3l-138 -12l-110 -12l-132 -15l-72 -74v-144l-9 -164q0 -30 -3 -60t-3 -60l-9 -242
l3 -141l12 -96l6 -47q0 -6 3 -16.5t6 -16.5l33 -398l-18 -3q-42 -3 -66 -6t-65 -6l-84 6l-54 51l18 -15l51 224l21 168q0 12 3 27t3 26v-2l30 245l9 72l-30 260l-305 -207l-69 -68l-81 -96l9 3l-105 -69l-53 -33q-18 0 -24 3t-21 3l-120 45l147 156l9 35l-45 297l-165 50
q-54 6 -104.5 12t-104.5 12l-15 12l-42 45l153 135l41 42l78 71l-18 -3l207 75h-15q6 0 10.5 1.5t10.5 1.5l355 -63l-20 3l302 -224l-57 290h-6l87 24l83 -6l60 -30l251 -18l195 -3h12z" />
    <glyph glyph-name="Charu_Chandan" unicode="&#x9ab;" horiz-adv-x="1789" 
d="M1802 1456h6h-152l-286 -3l-391 -6h-96l-188 -9h3l-62 -3l-105 -12l-71 -21q41 -66 87.5 -140.5t88.5 -139.5q0 -9 3 -21t3 -21v3l-21 -84l-15 -59l3 3l-81 -227l349 -140l167 -18l-56 104l6 -6q0 27 3 66t3 65l9 164l8 185q0 24 3 46.5t3 46.5q36 6 60 9t57 9h62l188 9
l179 -69l36 -9l33 -119l-51 -230q0 -6 -3 -15t-3 -15l-128 -59v-6l-66 110l-50 51l137 53l6 54l-42 188l-33 30l-250 -122v-185l-12 -149l-6 -263v-84l3 -50l36 -236l29 -84l-3 3q0 -14 -3 -30.5t-3 -31.5l-140 -36l-53 18q-12 3 -19.5 6t-19.5 6l-3 241l6 96l-66 101
l-51 63l-167 104l-215 27l-107 -116l12 3q-42 -27 -94 -57t-97 -56l-98 41l-36 21l95 63l161 128l120 140l53 156q0 14 -1.5 29t-1.5 30l-3 -3l54 200l-140 122l-125 81l-90 39l-206 12h-128l12 92l75 -21l307 6q6 12 16.5 25.5t19.5 28.5l41 -18l96 -15l170 -15l134 -6
l197 -3l140 -3l439 6l200 3h232l117 -3q15 0 27 -1.5t27 -1.5q3 0 7 -3t10 -3h6l-107 -24l-140 -26z" />
    <glyph glyph-name="Charu_Chandan" unicode="&#x9ac;" horiz-adv-x="1394" 
d="M1056 1477l-190 -6l-105 -115l-85 -99l-30 -36l-105 -148l-88 -193l-84 -45l18 -24q27 0 83 -1.5t89 -1.5q39 -6 76.5 -12t76.5 -12h-12l196 -69l96 39l9 117l10 184q3 39 7.5 78t7.5 79l12 102l-55 45zM1182 1019v-78.5t-1.5 -99.5t-1.5 -102v-87l-36 -256l27 63l3 -72
l48 -181v3l18 -196l-39 -24q-48 -9 -90 -19.5t-90 -19.5l-25 21h-6l-18 190l-3 -3l43 147l-40 181l-117 123h3l-27 31l-223 144l-184 -6h-63l-93 -135q-15 -19 -30 -40l-30 -42q-28 0 -40 1.5t-36 1.5q-30 15 -55.5 28.5t-55.5 28.5q6 12 13.5 26t13.5 26l-6 -3l78 90
q18 24 39 45t40 45l183 214l69 81l46 130l-24 105l-196 85h-214h-66l-211 -3h-9l18 9l-3 -3l226 96l42 -30l310 6l169 3l202 9h12l228 9l91 30l93 -69q45 6 104 13.5t104 13.5h-6l153 6q18 0 39.5 1.5t39.5 1.5l-85 -78q12 0 -7.5 -4.5t-34.5 -7.5l-186 6l-85 -94l-6 -202
q6 -60 12 -117t12 -117z" />
    <glyph glyph-name="Charu_Chandan" unicode="&#x9ad;" horiz-adv-x="1920" 
d="M-126 1541h25h40l96 -3h93h134h145h165h59h177h282h149h310h217h208h177l-199 -65l-37 -3l-102 -3l-62 -3l-174 -3h-53l-217 -3l-99 -3h-223l-208 -3h-146h-146h-344h-174h-332l164 49zM1620 881q25 -38 54.5 -75t54.5 -74l-9 9l9 -143l-46 -189l6 3q-13 -21 -27 -41.5
t-26 -42.5l3 4l-71 -87h3l-134 -186q-55 -10 -77 -27t-44 -32l-40 3l-177 -22q-111 12 -216.5 26t-217.5 27l-202 59q-9 6 -18.5 12t-18.5 13h13l-100 96l-68 74h3l-115 155h3l-28 53v-3l-65 139h3l-43 97l102 93l66 -34l83 9l19 -40l-3 3l31 -180l-31 -31l53 -112l179 -211
l106 -93l133 -71l218 -16l96 -3l282 43l84 140l-16 -9l50 53l71 114l13 217l-19 100l-71 149l-121 -53l-87 -47l-90 -83h9l-121 -62l-133 -13h3q-19 0 -45 1.5t-48 1.5l-78 84l10 -3l-50 127l3 -6q0 46 3 96t3 96l-3 -3l31 99v-3l47 146l-7 -3l16 22l248 -112q3 0 -9.5 -6
t-9 -37t3.5 -66l12 10l-140 -158l-6 -143l239 25l127 46l137 264q0 6 3 6t3 6q22 -24 46.5 -46t37 -36t34.5 -36h-3l105 -148z" />
    <glyph glyph-name="Charu_Chandan" unicode="&#x9ae;" horiz-adv-x="1469" 
d="M1140 1511q21 12 40.5 25.5t43.5 28.5l86 -27l222 -21h77h21t24 3q-9 -15 -12 -22.5l-9 -22.5l-128 -6l-189 -12l-68 -176l2 -162l6 -164v-114l9 -155l6 -117l27 -266l-21 -102v-92l33 -123q-39 -12 -65.5 -18t-62.5 -15q-51 12 -73.5 28.5t-73.5 28.5l57 54l-6 56
q0 27 3 54t3 54v-3l39 275l-6 117l-3 27l-48 197l-99 75l-218 54l-120 -6l-233 -36l-84 -78l-80 -161l30 -189l9 -194l266 -96l65 186q0 9 1.5 18t1.5 18l-35 3h-9l-63 65l15 -12v33l6 21l-21 -6l90 51l140 36l72 -9q-12 -51 -25.5 -103.5t-25.5 -102.5l-21 -78l-15 -150
v-122l21 12l-42 -27l-143 21l-60 12l-60 12h12l-168 71l12 -3l-92 72l6 -3l-72 81l6 -3l-69 129l6 -3l-48 272l27 60l-15 -6l189 152l53 51h-8l110 60l15 74l-72 213l-212 161q-75 -6 -160 -13.5t-160 -13.5h-3l18 18l-18 -3q42 15 81 30t81 30h-12l275 57l113 -30
q24 0 49.5 -1.5t49.5 -1.5h-3l242 -9q18 0 37.5 -1.5t37.5 -1.5h-3l242 -9zM542 1230l3 -117l9 -77l176 -24l263 -39l129 -6l6 209q-3 18 -7.5 37.5t-7.5 37.5v-3l-12 203l-395 -3l-143 -15l-102 -29l78 -153h-3z" />
    <glyph glyph-name="Charu_Chandan" unicode="&#x9af;" horiz-adv-x="1396" 
d="M817 636l166 -142l42 261l-30 350l45 42l-42 279q-32 0 -91.5 -3t-98.5 -3l-80 15l-267 3l154 -128l-14 6l65 -142l-3 5l3 -112l47 -193q-44 -48 -82.5 -91t-83.5 -90l3 3l-47 -51l196 3q14 0 26 -1.5t27 -1.5h-3zM1657 1524l-6 -54l-166 -23q-42 0 -85 2.5t-78 2.5
l-104 24l-12 -80q0 -9 -1.5 -19.5t-1.5 -18.5l-12 -164v3l-21 -157l33 -119l-33 -184l48 -166l-3 3l-24 -202l48 -47l23 -18l-12 -175q0 -24 1.5 -65.5t1.5 -65.5l-97 -44q-30 -6 -48 -6l-59 39l-6 222h-18l-24 86l3 -3l-9 107l-391 187l-89 6l-110 -18q-15 -30 -37.5 -64
t-39.5 -63q-60 -6 -106 -10.5t-96 -10.5l50 98l-12 -6l152 133l62 92l45 63l65 77l71 127l-3 172l-104 75l9 -3l-32 41l-282 134l-69 29q-32 0 -146.5 -3t-149.5 -3l-33 33l220 53q80 -32 78.5 -14.5t-7.5 32.5q32 3 44 6t45 6h-3q24 0 46 1.5t46 1.5l172 -80q30 6 67 18
t69 18l128 -9l291 -15l142 -6q21 15 40.5 29.5t39.5 29.5l143 -29l308 -15z" />
    <glyph glyph-name="Charu_Chandan" unicode="&#x9b0;" horiz-adv-x="1386" 
d="M1049 1477l-190 -6l-105 -115l-85 -99l-30 -36l-105 -148l-88 -193l-84 -45l18 -24q27 0 83 -1.5t89 -1.5q39 -6 76.5 -12t76.5 -12h-12l196 -69l96 39l9 117l10 184q3 39 7.5 78t7.5 79l12 102l-55 45zM1175 1019v-78.5t-1.5 -99.5t-1.5 -102v-87l-36 -256l27 63l3 -72
l48 -181v3l18 -196l-39 -24q-48 -9 -90 -19.5t-90 -19.5l-25 21h-6l-18 190l-3 -3l43 147l-40 181l-117 123h3l-27 31l-223 144l-184 -6h-63l-93 -135q-15 -19 -30 -40l-30 -42q-28 0 -40 1.5t-36 1.5q-30 15 -55.5 28.5t-55.5 28.5q6 12 13.5 26t13.5 26l-6 -3l78 90
q18 24 39 45t40 45l183 214l69 81l46 130l-24 105l-196 85h-214h-66l-211 -3h-9l18 9l-3 -3l226 96l42 -30l310 6l169 3l202 9h12l228 9l91 30l93 -69q45 6 104 13.5t104 13.5h-6l153 6q18 0 39.5 1.5t39.5 1.5l-85 -78q12 0 -7.5 -4.5t-34.5 -7.5l-186 6l-85 -94l-6 -202
q6 -60 12 -117t12 -117zM543 426l18 -3l109 -149l-9 9v-73q-15 -15 -57.5 -42.5t-54.5 -45.5l-55 9l-119 128q0 30 -3 56t-3 56q33 12 57.5 21.5t55.5 18.5l48 15h13z" />
    <glyph glyph-name="Charu_Chandan" unicode="&#x9b2;" horiz-adv-x="1616" 
d="M732 1051l-207 6h-74l-199 -254l-18 -33l-6 -47l3 -128l15 -127l142 -89l113 56l12 77l-68 56l11 -6l-17 33l86 89q32 0 54.5 1.5t48.5 1.5l77 -56l39 -36q-45 -38 -77 -62h3l-42 -134l-29 -103l-24 -104q-59 -3 -108 -1.5t-99 -1.5l-184 187l9 -3l-30 59l-98 172h3
l-35 86l47 204l139 116h-3l104 74l-9 -3l134 53h-12l124 21q36 -6 68.5 -12t68.5 -11h-3l83 -21l169 -119l44 128l-30 -9l131 47h-12l62 6l107 -157l53 317l-139 137h-208l-171 2h-89h-149h-145h-222l-139 3h-54h-145q50 24 75.5 39t72.5 39l62 2h152h56l264 -2h12l257 -3
l232 -3l329 -6l26 26l27 27q80 -30 103.5 -33t38.5 -3h-3l267 -11l53 -9q-32 -21 -54.5 -31.5t-51.5 -28.5q-39 -6 -68.5 -10t-68.5 -10l-59 -9q-113 -57 -117 -102.5t-7 -72.5l-9 -65l-21 -234l-6 -66l-3 -92l9 -186l21 -148l20 -98l30 15l-3 -158v-85l30 -119
q-12 -9 -13.5 -13.5t-13.5 -13.5h3l-33 -23h3l-62 -36l-18 9l21 -3l-33 -3q-5 0 -15.5 4.5t-16.5 7.5q-9 6 -28.5 15t-13.5 3h12q-3 0 -6 3t-3 5l30 27q-9 0 -37 -1.5t-46 -1.5l-3 116v124l27 199l17 198v131l-2 62l-48 157l-222 -18q0 -53 -1.5 -109.5t-1.5 -109.5l-12 -80
q-21 3 -27 9l-97 71l-12 98z" />
    <glyph glyph-name="Charu_Chandan" unicode="&#x9b6;" horiz-adv-x="1501" 
d="M466 969l-197 -254l-21 143l-132 -15q-6 9 -10.5 18t-10.5 18q9 12 18 22.5t15 22.5l-6 -3l215 209l21 105l-6 138l-146 95l-132 39l-86 -6h-144l-9 6v21l96 9h-3q33 0 68.5 -1.5t68.5 -1.5h-3l138 -15q30 -3 55.5 -7.5t55.5 -7.5l68 -57l30 -23l117 -57l132 110l14 3
q18 9 42 24t45 27q6 0 12 3t9 3q18 -6 33 -12t33 -12l105 -51h-9l233 -191l-12 269l120 72l36 -69l83 6l114 -6l212 -6q15 0 34.5 -1.5t34.5 -1.5l-9 -42l-137 6q-24 -3 -40.5 -7.5t-37.5 -7.5l-192 -12l-68 -53v-51l-12 -180l-12 -206l-18 -266l63 -255q0 -23 2.5 -44
t2.5 -45l15 12l-41 -48l18 -99l35 -161v3q0 -18 3 -42t3 -42l-104 -33h9l-96 -18l-36 39l-18 131l-33 24l21 183l9 173l3 108l6 168l6 194v99l3 89l-6 3l-84 129l-80 108l-153 27l-147 -93l-77 -174l57 -116l167 -93l-12 3l78 -84l-171 -122l-92 170z" />
    <glyph glyph-name="Charu_Chandan" unicode="&#x9b7;" horiz-adv-x="1391" 
d="M1624 1504l-154 -15l-129 -19q-9 0 -19.5 -1.5t-17.5 -1.5h-93l9 -246l9 9l-60 -82q6 -51 12 -105t12 -105l-12 -127l-15 -159l21 -187l-33 -21l81 -106l-12 6l45 -231v-61l12 9l-54 -69l15 3q-24 -12 -42 -24t-42 -24q-24 0 -48 1.5t-21 -1.5l-54 187l3 -3l-13 129
l-36 99l-75 133l-141 93l-214 33l-145 -36l-96 -102h3q-24 -21 -48 -43.5t-48 -43.5l-73 9l-135 105l150 54l103 54l150 157l85 93l9 115l-3 -6l45 123l-6 42l-181 301l-60 -3h-105l-283 61l-91 -46q-15 0 -27 3l-24 6q42 28 72 44.5t73 40.5l123 -3l147 45l58 30l108 -84
l118 3l156 3l301 6l69 9l241 -42q15 6 41 13.5t44 13.5l120 -3q48 6 95 13.5t95 13.5zM531 1464l30 -93l120 -126l-6 -94l72 -84l139 -45h-3l169 -66l-40 159l40 160l6 123l-109 75l-220 3zM687 1040l-27 -111l9 6l-102 -157h3l-78 -84l9 -9l84 -46l78 -3q39 0 75.5 -1.5
t75.5 -1.5l247 -99l6 265l-136 154l-135 36z" />
    <glyph glyph-name="Charu_Chandan" unicode="&#x9b8;" horiz-adv-x="1488" 
d="M1159 -12q-21 20 -41.5 21.5t-44.5 7.5l24 86l17 158l18 187v-3l9 68l-15 30l-65 86l-157 149l-152 17l-107 -9l-98 -258l9 3l-148 -160l-101 -125l-149 -30q-30 -3 -58 -7.5t-58 -7.5q-3 0 -7.5 1.5t-7.5 1.5q6 36 15 74.5t15 71.5l54 -9l234 18l89 133l-3 -3l36 75
l30 231l-45 253l-41 86l-119 157l-190 149q-15 0 -39 -1.5t-44 -4.5l-45 30l-113 3l-142 -12h3q-6 0 -10.5 -1.5t-10.5 -1.5l-6 9l-12 -24q21 9 43 22t43 25l134 45l154 89l116 -33l116 -12l24 -38h294l118 3l226 9l116 12l71 23h104l89 -29l268 -30q11 -12 17 -21t15 -21
l-113 -11l-44 -3l-184 -12l26 -57l-32 15v-92l-21 -279l-3 -60l6 -210l15 -81l29 -65l-29 -145l12 -119l44 -54v-74l-12 -134l12 -80l12 12l-83 -86l-166 30zM1126 1481l-139 -3l-146 -6l-148 -2l-164 -6l-216 -3l154 -101l74 -54l63 -157l-3 3l41 -149v3l9 -92v-21l71 -65
h188l130 -68l77 127l48 505z" />
    <glyph glyph-name="Charu_Chandan" unicode="&#x9b9;" horiz-adv-x="1375" 
d="M1717 1538l-83 -31l-99 -48l-89 -3h-145l-268 -9l-142 -5l20 -52l116 -171h-2q31 -48 58 -101t58 -101l-54 -185l-8 -54l-91 -89h5l-91 -65h3l-123 -69l-48 -22l-239 -83q40 -60 54 -51l45 -46l225 -65l52 -23q17 -43 48.5 -46t56.5 -3q17 -8 41.5 -19.5t44.5 -17.5
q25 -8 55 -22.5t56 -25.5l122 -60q-31 -51 -39.5 -75.5t-8.5 -64.5l-46 -11l-91 40l-28 37l-169 83l3 -3l-173 99h2l-168 109l-8 8l-60 34h3l-274 160l-63 -14q-39 25 -76 46.5t-77 44.5q42 14 73.5 24t71.5 24h65q12 -2 22 -6.5t21 -7.5h-8l79 -40l-14 3l86 -60
q3 -14 27 -2.5t24 22.5l131 26l100 37l194 83l85 179l-11 94l11 143l-63 105l-111 179l-125 38l-143 22l-134 6l-48 -83l9 -153l88 -143l28 -40l-77 -97l20 6l-105 -43h14l-134 -5l-11 14l14 145l12 254l-12 37l9 139l-308 -11l-171 -11h3l28 11l-22 -6l230 71h57l177 32h-3
q26 6 50 15.5t50 15.5l48 -11l177 -32l160 -22l85 5l237 3l94 3l76 3l283 3l59 3z" />
    <glyph glyph-name="Charu_Chandan" unicode="&#x9bc;" 
d="M-873 -126l18 -3l109 -149l-9 9v-73q-15 -15 -57.5 -42.5t-54.5 -45.5l-55 9l-119 128q0 30 -3 56t-3 56q33 12 57.5 21.5t55.5 18.5l48 15h13z" />
    <glyph glyph-name="Charu_Chandan" unicode="&#x9bd;" horiz-adv-x="1213" 
d="M836 1447l-52 -5l20 -52l116 -171h-2q31 -48 58 -101t58 -101l-54 -185l-8 -54l-91 -89h5l-91 -65h3l-123 -69l-48 -22l-239 -83q40 -60 54 -51l45 -46l225 -65l52 -23q17 -43 48.5 -46t56.5 -3q17 -8 41.5 -19.5t44.5 -17.5q25 -8 55 -22.5t56 -25.5l122 -60
q-31 -51 -39.5 -75.5t-8.5 -64.5l-46 -11l-91 40l-28 37l-169 83l3 -3l-173 99h2l-168 109l-8 8l-60 34h3l-274 160l-63 -14q-39 25 -76 46.5t-77 44.5q42 14 73.5 24t71.5 24h65q12 -2 22 -6.5t21 -7.5h-8l79 -40l-14 3l86 -60q3 -14 27 -2.5t24 22.5l131 26l100 37l194 83
l85 179l-11 94l11 143l-63 105l-111 179l-125 38l-143 22l-134 6l-48 -83l9 -153l88 -143l28 -40l-77 -97l20 6l-105 -43h14l-134 -5l-11 14l14 145l12 254l-12 37l9 139l-308 -11l-171 -11h3l28 11l-22 -6l230 71h57l177 32h-3q26 6 50 15.5t50 15.5l48 -11l177 -32
l160 -22l85 5l147 3z" />
    <glyph glyph-name="Charu_Chandan" unicode="&#x9be;" horiz-adv-x="543" 
d="M825 1512l-20 -44q-141 20 -185 6h9l-130 -21l-152 15l6 -94l-3 -120l-6 -88l-6 -168l-3 -135l-6 -126l21 -185l26 -188l-12 -114l68 -191l-65 -123q-41 18 -60 28t-60 28l15 -3l-103 88l15 -12l11 147l71 299l-35 -44l-3 329l6 111l5 150v59l-2 88l-33 123l-170 117
q-62 3 -133.5 7.5t-133.5 7.5l3 56l288 20l158 -14l-9 38l32 32l156 -15l-26 3l5 -9l-32 -35h258h-3l168 -11l23 -9z" />
    <glyph glyph-name="Charu_Chandan" unicode="&#x9bf;" horiz-adv-x="546" 
d="M1740 2029q-29 -18 -47 -31.5t-45 -79.5l-146 105l-125 41l-176 72l-160 12l-164 12l-185 -18l-187 -51l-57 -89l-77 -122l-36 -137q0 -33 1.5 -67.5t1.5 -66.5l-27 -30l89 -24l221 -15q18 0 37 -1.5t37 -1.5h-3l107 -9l-77 -38l-83 -24l-122 -3l-152 -78q0 -3 -3 -9
t-3 -9l-33 -178l18 -241l-6 -257l3 -276l15 -27l77 -63q0 -50 3 -101t3 -101v3l-12 -75l9 6q-18 -27 -35.5 -55t-38.5 -55q-24 6 -43.5 9t-40.5 6h3l-143 15l42 190v81l12 187l-12 117q0 14 3 33.5t3 34.5l12 170v44l15 233l-18 205l-51 110l-208 57l-21 125h86l167 3
l-39 86l27 -12l9 137v78l-3 -6q18 48 39 94t39 94l-15 -6l104 83h-9l250 128l39 -48l107 18l131 -15q72 -3 147.5 -7.5t147.5 -7.5h-3l92 24l200 -47l-60 -18l358 -107z" />
    <glyph glyph-name="Charu_Chandan" unicode="&#x9c0;" horiz-adv-x="521" 
d="M65 1634l96 3l6 53l-6 81l-15 111l-87 188l-206 80l-137 15l-111 9l-89 -15h3l-99 -12l-188 -15l-15 -23l63 -24l233 -27l68 -12l192 -153q3 -3 13.5 -6t18.5 -5l78 -87l-6 3q15 -30 34.5 -58.5t34.5 -58.5l-6 3l27 -62zM923 1484l-210 12l-188 -39h6h-197l15 -113
l-15 12v-206l12 -144l3 6l-30 -68l-24 -165l12 -188l9 -122l6 -81l21 42v-191l-3 -87l24 -155l-63 -27h3l-50 -18l-153 36q0 24 -1.5 49.5t-1.5 48.5l21 -9q3 36 7.5 79.5t7.5 79.5v-3l21 173l9 66l42 313l6 135v110l-24 197l-3 6l-66 239l-215 -12h6l-140 12l-9 6l24 57
l15 87l-24 188l-48 48l-141 62l-128 60l-212 81q-24 0 -67.5 1.5t-69.5 1.5l-90 21q-15 0 51 15l179 104l81 -24l71 9l173 3l156 9l-39 21l102 -6l110 -12h-9l93 -27h-3l212 -89l-27 -9l125 -90l-9 6l45 -90l-3 3l42 -140l-36 -146l-6 -24l15 -54l132 -15h358l51 18z" />
    <glyph glyph-name="Charu_Chandan" unicode="&#x9c1;" 
d="M-499 -484l155 -17l157 152l29 85l-135 255l-292 -80l-17 -149l6 -48l3 -95zM329 -536l-75 35l-108 46l57 163l-40 -55l-3 26l-3 86l-94 140l-152 75l-89 -3l117 -129l-11 9l17 -175l3 3q-9 -29 -20.5 -56t-19.5 -56l6 6q-15 -20 -33.5 -38.5t-32.5 -38.5l20 5
q-29 -14 -62 -25.5t-61 -25.5q-40 0 -76 -3t-76 -3l109 34l-186 -14l-201 77l23 -8l-40 69l-46 83l6 -6q0 34 1.5 71.5t1.5 71.5l-9 -8l49 63l-15 -3q15 11 33.5 19.5t32.5 20.5q40 14 77.5 28.5t77.5 28.5h-9l149 20h-3q23 3 49 7.5t49 6.5l114 9l106 -26h-5l149 -66l-15 3
l186 -189h20l23 -83l49 -157z" />
    <glyph glyph-name="Charu_Chandan" unicode="&#x9c2;" 
d="M382 -546l-51 34h3l-125 34l26 -6l-213 295l-59 -62l-15 -20l17 6l-187 -88l-54 3q-34 0 -70.5 1t-70.5 4l-85 165h2q-8 25 -21 56.5t-24 56.5l65 68l-17 -3l162 60l42 -17l-59 -23l-105 -181l93 -108l-19 11l2 -36l134 -32l93 46l26 71h-3l23 39l90 37l131 -51l-14 3
q5 -6 22 -23t23 -22l148 -173l62 -60l-9 6l40 -71l-6 6z" />
    <glyph glyph-name="Charu_Chandan" unicode="&#x9c3;" 
d="M-311 -435l196 -108l103 -52q-16 -15 -32.5 -31.5t-28.5 -31.5q-30 0 -49.5 1.5t-43.5 1.5l-43 36l-181 112l-217 115l184 150l9 91l-9 -9l69 100l43 69q33 3 49.5 6t49.5 6l70 -9l-70 -66l-66 -61l-94 -99l-15 -94l-15 -75z" />
    <glyph glyph-name="Charu_Chandan" unicode="&#x9c4;" horiz-adv-x="3" 
d="M-371 -376l196 -108l103 -52l-31.5 -31.5t-29.5 -31.5q-30 0 -49.5 1.5t-43.5 1.5l-42 36l-181 112l-218 115l184 150l9 91l-9 -9l70 100l42 69q33 3 49.5 6t50.5 6l69 -9l-69 -66l-67 -61l-93 -99l-15 -94l-15 -75zM-397 -404l-34 -37l-15 -93l-16 -76l91 -51l196 -108
l103 -52l-31.5 -31.5t-29.5 -31.5q-30 0 -49.5 1.5t-43.5 1.5l-42 36l-181 112l-218 114l184 151l9 91l-9 -9l19 27z" />
    <glyph glyph-name="Charu_Chandan" unicode="&#x9c7;" horiz-adv-x="720" 
d="M465 1559l207 -14l128 -12l252 -8l-105 -14q-40 -12 -72.5 -23t-72.5 -22h3l-235 -40l-65 -159h3l-88 -181l-51 -145q0 -2 -3 -5t-3 -6v3l-45 -167q-3 -20 -7 -44t-7 -47l-17 -141q-6 -51 -11.5 -103.5t-11.5 -103.5v3l-3 -117l136 -150l88 -42l97 20l42 48
q14 -3 18.5 -3h12.5l108 -162l-34 -8l-88 40l-263 73l-20 9h11q-45 39 -92 86t-92 87q-9 8 -20 23.5t-17 24.5l26 25h-77h-42q-15 3 -15 6l-19 76l-31 -22l73 170l-6 -3l122 170q0 3 -1.5 5.5t-1.5 5.5l-2 -5l45 107l42 113l77 204l-6 119q0 34 1.5 68t1.5 68l31 23l-17 48
l12 79l104 40v3zM465 1559q-48 -68 -85 -125l-221 3l-218 -5q-34 0 -65 -1.5t-65 -1.5q2 5 -27.5 49t55.5 47q54 -31 235 -14l113 -3l173 8l105 40v3z" />
    <glyph glyph-name="Charu_Chandan" unicode="&#x9c8;" horiz-adv-x="720" 
d="M466 1559q-49 -68 -85 -125l-221 3l-219 -5q-34 0 -65 -1.5t-65 -1.5q3 5 -27 49t55 47q54 -31 236 -14l113 -3l173 8l105 40v3zM466 1559l31 122l5 133l-39 88l-142 164l-57 17l29 3l-68 51q-6 0 -21.5 -1.5t-29.5 -1.5l-68 40l-173 54l-187 -40l57 82l181 -25
q133 -32 147 -36t29 -7h-12l269 -108l-8 3q23 -14 42.5 -32.5t42.5 -32.5h-3l34 -31l-8 3l133 -201l-9 8q3 -23 7 -49.5t7 -49.5q0 -11 -1.5 -21t-1.5 -22l3 3l-20 -65l37 -62l128 -12l252 -8l-105 -14q-40 -12 -72.5 -23t-71.5 -22h2l-235 -40l-65 -159h3l-88 -181
l-51 -145q0 -2 -2.5 -5t-2.5 -6v3l-46 -167q-3 -20 -7 -44t-7 -47l-17 -141q-6 -51 -11.5 -103.5t-11.5 -103.5v3l-2 -117l136 -150l87 -42l97 20l42 48q14 -3 18.5 -3h12.5l108 -162l-34 -8l-88 40l-263 73l-20 9h11q-45 39 -92 86t-92 87q-8 8 -19.5 23.5t-17.5 24.5
l26 25h-77h-42q-14 3 -14 6l-20 76l-31 -22l73 170l-5 -3l121 170q0 3 -1 5.5t-1 5.5l-3 -5l45 107l43 113l76 204l-6 119q0 34 1.5 68t1.5 68l31 23l-17 48l12 79l105 40v3z" />
    <glyph glyph-name="Charu_Chandan" unicode="&#x9cb;" horiz-adv-x="2397" 
d="M1122 1230q-12 10 -14 26q-3 18 8 32q10 15 28 17q65 9 130 4q18 -1 30 -15q11 -14 10 -32q-2 -17 -16 -29q-13 -12 -31 -10q-56 5 -111 -3q-3 -1 -6 -1q-16 0 -28 11zM1522 1124q-45 34 -95 57q-16 8 -23 24q-6 17 1 34q8 16 25 22q16 6 33 -1q59 -27 111 -67
q14 -11 17 -29q2 -18 -9 -32q-13 -17 -34 -17q-15 0 -26 9zM847 1110q-11 14 -10 31q1 18 15 30q49 43 107 74q16 8 33 3t25 -21q9 -16 3 -33q-5 -17 -21 -26q-49 -26 -91 -62q-12 -11 -28 -11q-20 0 -33 15zM1683 904q-19 52 -49 99q-10 15 -6 32q3 18 18 27q15 10 33 6
q17 -3 27 -18q36 -55 58 -117q6 -17 -2 -33q-7 -16 -24 -22q-7 -3 -15 -3q-30 0 -40 29zM707 847q-17 5 -25 20q-9 16 -4 33q18 63 51 120q8 16 26 21q17 4 32 -4q16 -9 21 -26q5 -18 -4 -33q-28 -49 -43 -102q-9 -31 -42 -31q-6 0 -12 2zM1731 578q-18 4 -27 19
q-10 16 -6 33q13 54 13 110v1q0 18 13 31q12 12 30 12t31 -12q12 -13 12 -31v-1q0 -66 -14 -129q-8 -34 -42 -34q-5 0 -10 1zM678 578q-18 63 -22 129q-1 18 11 31t30 14t31 -11q13 -11 14 -29q4 -56 19 -109q5 -17 -3 -33q-9 -16 -26 -21q-6 -2 -12 -2q-33 0 -42 31z
M1563 331q-12 13 -12 31t13 30q40 39 70 86q10 15 27 19q18 4 33 -6t19 -27q4 -18 -6 -33q-36 -55 -83 -101q-12 -12 -30 -12t-31 13zM853 308q-50 43 -89 96q-10 14 -7 32q2 18 17 28q14 11 32 8t28 -17q33 -45 75 -82q14 -11 15 -29t-10 -32q-13 -15 -33 -15q-16 0 -28 11
zM1289 214q-4 17 6 32t28 19q54 11 105 34q16 7 33 1t24 -22q8 -17 1 -33q-6 -17 -22 -25q-60 -27 -124 -40q-4 -1 -9 -1q-35 0 -42 35zM1145 174q-65 10 -126 33q-16 7 -24 23q-7 17 0 33q6 17 23 24q16 7 33 1q51 -20 107 -28q17 -3 28 -17t8 -32q-2 -16 -14 -27
q-12 -10 -28 -10h-7zM465 1559l207 -14l128 -12l252 -8l-105 -14q-40 -12 -72.5 -23t-72.5 -22h3l-235 -40l-65 -159h3l-88 -181l-51 -145q0 -2 -3 -5t-3 -6v3l-45 -167q-3 -20 -7 -44t-7 -47l-17 -141q-6 -51 -11.5 -103.5t-11.5 -103.5v3l-3 -117l136 -150l88 -42l97 20
l42 48q14 -3 18.5 -3h12.5l108 -162l-34 -8l-88 40l-263 73l-20 9h11q-45 39 -92 86t-92 87q-9 8 -20 23.5t-17 24.5l26 25h-77h-42q-15 3 -15 6l-19 76l-31 -22l73 170l-6 -3l122 170q0 3 -1.5 5.5t-1.5 5.5l-2 -5l45 107l42 113l77 204l-6 119q0 34 1.5 68t1.5 68l31 23
l-17 48l12 79l104 40v3zM465 1559q-48 -68 -85 -125l-221 3l-218 -5q-34 0 -65 -1.5t-65 -1.5q2 5 -27.5 49t55.5 47q54 -31 235 -14l113 -3l173 8l105 40v3zM2681 1512l-20 -44q-141 20 -185 6h9l-130 -21l-152 15l6 -94l-3 -120l-6 -88l-6 -168l-3 -135l-6 -126l21 -185
l26 -188l-12 -114l68 -191l-65 -123q-41 18 -60 28t-60 28l15 -3l-103 88l15 -12l11 147l71 299l-35 -44l-3 329l6 111l5 150v59l-2 88l-33 123l-170 117q-62 3 -133.5 7.5t-133.5 7.5l3 56l288 20l158 -14l-9 38l32 32l156 -15l-26 3l5 -9l-32 -35h258h-3l168 -11l23 -9z
" />
    <glyph glyph-name="Charu_Chandan" unicode="&#x9cc;" horiz-adv-x="2423" 
d="M1122 1230q-12 10 -14 26q-3 18 8 32q10 15 28 17q65 9 130 4q18 -1 30 -15q11 -14 10 -32q-2 -17 -16 -29q-13 -12 -31 -10q-56 5 -111 -3q-3 -1 -6 -1q-16 0 -28 11zM1522 1124q-45 34 -95 57q-16 8 -23 24q-6 17 1 34q8 16 25 22q16 6 33 -1q59 -27 111 -67
q14 -11 17 -29q2 -18 -9 -32q-13 -17 -34 -17q-15 0 -26 9zM847 1110q-11 14 -10 31q1 18 15 30q49 43 107 74q16 8 33 3t25 -21q9 -16 3 -33q-5 -17 -21 -26q-49 -26 -91 -62q-12 -11 -28 -11q-20 0 -33 15zM1683 904q-19 52 -49 99q-10 15 -6 32q3 18 18 27q15 10 33 6
q17 -3 27 -18q36 -55 58 -117q6 -17 -2 -33q-7 -16 -24 -22q-7 -3 -15 -3q-30 0 -40 29zM707 847q-17 5 -25 20q-9 16 -4 33q18 63 51 120q8 16 26 21q17 4 32 -4q16 -9 21 -26q5 -18 -4 -33q-28 -49 -43 -102q-9 -31 -42 -31q-6 0 -12 2zM1731 578q-18 4 -27 19
q-10 16 -6 33q13 54 13 110v1q0 18 13 31q12 12 30 12t31 -12q12 -13 12 -31v-1q0 -66 -14 -129q-8 -34 -42 -34q-5 0 -10 1zM678 578q-18 63 -22 129q-1 18 11 31t30 14t31 -11q13 -11 14 -29q4 -56 19 -109q5 -17 -3 -33q-9 -16 -26 -21q-6 -2 -12 -2q-33 0 -42 31z
M1563 331q-12 13 -12 31t13 30q40 39 70 86q10 15 27 19q18 4 33 -6t19 -27q4 -18 -6 -33q-36 -55 -83 -101q-12 -12 -30 -12t-31 13zM853 308q-50 43 -89 96q-10 14 -7 32q2 18 17 28q14 11 32 8t28 -17q33 -45 75 -82q14 -11 15 -29t-10 -32q-13 -15 -33 -15q-16 0 -28 11
zM1289 214q-4 17 6 32t28 19q54 11 105 34q16 7 33 1t24 -22q8 -17 1 -33q-6 -17 -22 -25q-60 -27 -124 -40q-4 -1 -9 -1q-35 0 -42 35zM1145 174q-65 10 -126 33q-16 7 -24 23q-7 17 0 33q6 17 23 24q16 7 33 1q51 -20 107 -28q17 -3 28 -17t8 -32q-2 -16 -14 -27
q-12 -10 -28 -10h-7zM465 1559l207 -14l128 -12l252 -8l-105 -14q-40 -12 -72.5 -23t-72.5 -22h3l-235 -40l-65 -159h3l-88 -181l-51 -145q0 -2 -3 -5t-3 -6v3l-45 -167q-3 -20 -7 -44t-7 -47l-17 -141q-6 -51 -11.5 -103.5t-11.5 -103.5v3l-3 -117l136 -150l88 -42l97 20
l42 48q14 -3 18.5 -3h12.5l108 -162l-34 -8l-88 40l-263 73l-20 9h11q-45 39 -92 86t-92 87q-9 8 -20 23.5t-17 24.5l26 25h-77h-42q-15 3 -15 6l-19 76l-31 -22l73 170l-6 -3l122 170q0 3 -1.5 5.5t-1.5 5.5l-2 -5l45 107l42 113l77 204l-6 119q0 34 1.5 68t1.5 68l31 23
l-17 48l12 79l104 40v3zM465 1559q-48 -68 -85 -125l-221 3l-218 -5q-34 0 -65 -1.5t-65 -1.5q2 5 -27.5 49t55.5 47q54 -31 235 -14l113 -3l173 8l105 40v3zM2076 1583l-6 9l6 9h6l15 86l9 41v169l-42 59l-221 192l-125 -6l-133 -9l-201 -32q-38 2 -78 6.5t-78 7.5l-157 59
l21 -6l-83 92l9 -3l-65 160l77 38h-18l109 9q12 0 24 1.5t24 1.5q-6 -38 -15 -69t-35 -40v-127l177 -36l88 -32l172 3l18 -3l65 8l65 -17l177 23h21q14 -3 29 -6l107 -23l153 -86v-44l27 -53h-3q15 -30 29.5 -58t29.5 -58l-3 3l9 -65l-38 -159l44 -65l56 -12l47 6l290 -21
l3 -56q-62 -3 -133 -6q-30 -3 -56 -6h-3l-98 -18l-150 -103l-33 -124l-3 -89v-59l6 -151l6 -112l-3 -331l-35 44l70 -301l12 -148l15 12l-103 -89l14 3q-41 -18 -60 -28t-61 -28l-65 124l68 192l-12 115l27 190l21 186l-6 127l-3 136l-6 168l-6 89l-3 121l6 77l-24 3
l-251 -15h3l-109 -6h-28.5t-28.5 -3l54 48q-33 -3 -77 -9l-21 44l47 3l24 9l169 12h227z" />
    <glyph glyph-name="Charu_Chandan" unicode="&#x9cd;" horiz-adv-x="3" 
d="M12 -376q-16 -42 -30.5 -77.5t-30.5 -77.5l6 3q-10 -13 -13 -19.5t-13 -19.5l-45 42h-3l-126 113l-133 97l-129 104l-87 103l113 -36l-10 4l191 -117l239 -93z" />
    <glyph glyph-name="Charu_Chandan" unicode="&#x9d7;" horiz-adv-x="539" 
d="M194 1583l-6 9l6 9h6l15 86l9 41v169l-42 59l-221 192l-125 -6l-133 -9l-201 -32q-38 2 -78 6.5t-78 7.5l-157 59l21 -6l-83 92l9 -3l-65 160l77 38h-18l109 9q12 0 24 1.5t24 1.5q-6 -38 -15 -69t-35 -40v-127l177 -36l88 -32l172 3l18 -3l65 8l65 -17l177 23h21
q14 -3 29 -6l107 -23l153 -86v-44l27 -53h-3q15 -30 29.5 -58t29.5 -58l-3 3l9 -65l-38 -159l44 -65l56 -12l47 6l290 -21l3 -56q-62 -3 -133 -6q-30 -3 -56 -6h-3l-98 -18l-150 -103l-33 -124l-3 -89v-59l6 -151l6 -112l-3 -331l-35 44l70 -301l12 -148l15 12l-103 -89
l14 3q-41 -18 -60 -28t-61 -28l-65 124l68 192l-12 115l27 190l21 186l-6 127l-3 136l-6 168l-6 89l-3 121l6 77l-24 3l-251 -15h3l-109 -6h-28.5t-28.5 -3l54 48q-33 -3 -77 -9l-21 44l47 3l24 9l169 12h227z" />
    <glyph glyph-name="Charu_Chandan" unicode="&#x9dc;" horiz-adv-x="1746" 
d="M1721 1447h6l-65 -9h3l-219 -8l-217 -15l-165 -12h2l-154 -6l-11 -166v-101l9 -156q0 -42 -1.5 -88t-1.5 -87l-15 -107l103 3l172 98l104 77q9 18 20.5 41.5t17.5 41.5h-3q12 23 21 45.5t24 46.5l35 -42l57 -53l-9 6l115 -243l-6 6v-39l9 -260l9 9l-124 -193l9 3l-48 -38
h6l-74 -51l-136 -71l15 3l-222 -44l-77 14q-51 -5 -98.5 -12.5t-115.5 1.5l45 14q-60 18 -138 46t-141 49l-130 83l9 -3l-124 145l-75 86l-97 113l12 -6q-6 44 -16.5 91.5t-51.5 145.5q59 -39 72 -33t37 18q39 62 71.5 29.5t67.5 -35.5q21 -39 39 -68.5t38 -67.5l-38 -77
l9 -18l88 -101h-2l56 -68l103 -101l151 -112l125 -59l121 -12l208 3l112 98l104 168l50 143l12 154l-77 228l-193 -181h3l-71 -53h9l-216 -110l-27 -21q-32 21 -53 36t-30 24v225l-11 189l-9 65q-3 51 -7.5 99.5t-7.5 99.5q0 29 -1.5 57.5t-1.5 57.5v-3l15 65l-252 -6
l-80 -2l-186 -9h2l-136 -3l-171 -9q-30 0 -58 -1.5t-58 -1.5l9 59l148 -21l71 21l130 42l148 -12l187 -15q15 0 32.5 -1.5t32.5 -1.5h-3l196 -15l106 74l54 3q5 0 9.5 1.5t10.5 1.5l-29 3l50 -36l101 -11l192 -3l391 3l231 -6q6 0 12 -1.5t12 -1.5q12 -3 23.5 -7.5
t23.5 -7.5l-56 -36zM856 -143l18 -3l107 -145l-9 9v-71q-15 -15 -56.5 -41.5t-53.5 -44.5l-53 9l-116 124q0 30 -3 55t-3 55q33 12 56.5 20.5t53.5 17.5l47 15h12z" />
    <glyph glyph-name="Charu_Chandan" unicode="&#x9dd;" horiz-adv-x="1529" 
d="M1710 1525q-28 -6 -40 -10.5t-21.5 -7.5t-20 -6t-35.5 -10l-150 -24l-147 -6l-135 -3h-132q-96 -3 -192.5 -8t-191.5 -8l-28 -3l-190 -24l-123 -46q0 -40 -3 -94t-3 -94l-9 -171l-3 -105q6 -18 12 -38t12 -39l19 -159l15 -132l12 -98l22 -203l-40 -37l120 -70l279 -53
l178 25l129 107l95 145l9 76l-83 234l-233 138l-28 -215l4 3l-83 -246q-25 0 -51 -1.5t-54 -1.5l-67 231l73 76l19 13l-6 49l-9 116q0 13 -3.5 20.5t-3.5 19.5l92 22q34 0 58.5 -1.5t58.5 -1.5l273 -71l-18 3l58 -49l-9 3l135 -181l-9 6l52 -344l-114 -18l-21 -31h3
l-199 -230l-139 46l-165 9l-62 -6h-126l-135 22l-104 -31l-138 74l12 98l-9 215l28 172v67q0 46 3 92t3 92l21 335v153l-6 31l-61 114l-255 6h-144h-25l71 37l70 12l126 -3l138 30l92 53l132 -16h-9l28 -15l211 -6l117 -3l141 -3l166 -3l86 -3l196 -4l169 -6l151 -3l101 -3
h43zM513 -127l18 -3l109 -149l-9 9v-73q-15 -15 -57.5 -42.5t-54.5 -45.5l-55 9l-119 128q0 30 -3 56t-3 56q33 12 57.5 21.5t55.5 18.5l48 15h13z" />
    <glyph glyph-name="Charu_Chandan" unicode="&#x9df;" horiz-adv-x="1394" 
d="M826 636l166 -142l42 261l-30 350l45 42l-42 279q-32 0 -91.5 -3t-98.5 -3l-80 15l-267 3l154 -128l-14 6l65 -142l-3 5l3 -112l47 -193q-44 -48 -82.5 -91t-83.5 -90l3 3l-47 -51l196 3q14 0 26 -1.5t27 -1.5h-3zM1666 1524l-6 -54l-166 -23q-42 0 -85 2.5t-78 2.5
l-104 24l-12 -80q0 -9 -1.5 -19.5t-1.5 -18.5l-12 -164v3l-21 -157l33 -119l-33 -184l48 -166l-3 3l-24 -202l48 -47l23 -18l-12 -175q0 -24 1.5 -65.5t1.5 -65.5l-97 -44q-30 -6 -48 -6l-59 39l-6 222h-18l-24 86l3 -3l-9 107l-391 187l-89 6l-110 -18q-15 -30 -37.5 -64
t-39.5 -63q-60 -6 -106 -10.5t-96 -10.5l50 98l-12 -6l152 133l62 92l45 63l65 77l71 127l-3 172l-104 75l9 -3l-32 41l-282 134l-69 29q-32 0 -146.5 -3t-149.5 -3l-33 33l220 53q80 -32 78.5 -14.5t-7.5 32.5q32 3 44 6t45 6h-3q24 0 46 1.5t46 1.5l172 -80q30 6 67 18
t69 18l128 -9l291 -15l142 -6q21 15 40.5 29.5t39.5 29.5l143 -29l308 -15zM590 321l18 -3l109 -149l-9 9v-73q-15 -15 -57.5 -42.5t-54.5 -45.5l-55 9l-119 128q0 30 -3 56t-3 56q33 12 57.5 21.5t55.5 18.5l48 15h13z" />
    <glyph glyph-name="Charu_Chandan" unicode="&#x9e0;" horiz-adv-x="1852" 
d="M1039 1290l-171 -267l-122 -47l-108 -108l-51 -63h3l-135 -165l162 18l209 -30l267 -209l-15 311l12 168zM1691 299v-155l15 -120l-39 -30l-21 -51l-95 18q-9 27 -21 55.5t-21 55.5l3 -6l9 122l-36 63l33 81l-78 225l-210 -6l-15 -153l-15 -54h33l-48 -162
q15 -24 33 -53.5t33 -53.5l-86 -99l-102 45l-57 -12q-9 15 -16.5 24t-13.5 24l6 -9l51 200l-72 87l-126 150l-143 87l-96 20l-72 21l-42 -32l-173 -111l-84 -66q-33 15 -54 28.5t-45 28.5l24 42h-6l84 101l221 177l54 111l-12 -6l18 18l114 119l176 177l42 93l-36 39l9 -3
l-116 176l-42 -197l9 6l-129 -165l6 3l-24 -21h9l-132 -81l-39 -18l-128 135l6 -3l-81 147l3 -3l-36 131q51 15 99 36t93 36l68 -45l-39 -59l-14 -132l176 -42l147 290l-27 81l27 42q45 -30 57 -63l182 -164l-24 12l15 -231l132 156l3 -24l21 185q0 18 1.5 36t1.5 36
l-18 -12l30 24l140 -206l-6 3l18 -39l-35 -153l20 -159v3l3 -116l57 -141l-57 -177q42 0 99 -1.5t108 -1.5h48q0 6 19.5 13.5t28.5 13.5l18 168l48 389l-18 12l3 90v155q-15 24 -31.5 52.5t-31.5 52.5l9 12l-21 -6l51 30l140 -21l12 -30l228 -6l155 -3h39l-197 -125l-105 65
l-102 3l-45 -161l30 -111v3l9 -209l15 11l-87 -86l30 -237v3l3 -476zM993 -405l196 -108l103 -52q-16 -15 -32.5 -31.5t-28.5 -31.5q-30 0 -49.5 1.5t-43.5 1.5l-43 36l-181 112l-217 115l184 150l9 91l-9 -9l69 100l43 69q33 3 49.5 6t49.5 6l70 -9l-70 -66l-66 -61
l-94 -99l-15 -94l-15 -75z" />
    <glyph glyph-name="Charu_Chandan" unicode="&#x9e1;" horiz-adv-x="1398" 
d="M59 793zM949 321l142 -165l70 -160l-23 -227l-51 -122l-112 -144l-201 -68l-124 28l-160 25l-60 40l-13 4l42 125l194 360l-176 -91l24 -53l-37 -11l-115 -48l-129 136v75l224 -4l55 43l218 -5l-99 -279l-55 -170l10 -17l85 -19l302 113l19 182l-20 169l13 121l-82 97z
M829 1379h-3l146 -119l113 -95l22 -149l24 -165l55 -113l-6 6v-202l9 9q-15 -18 -27.5 -42.5t-27.5 -42.5l-104 -147l-116 -67l-168 -18l-15 -16q-43 -6 -78 -10.5t-72 -10.5l-143 52l-101 52q0 9 3 19.5t3 20.5l-9 -10l146 229l49 83l83 232l-284 -122l33 -40l-15 12
q0 -6 1.5 -10.5t1.5 -10.5l-58 -12l-67 -15l-101 177l189 52l123 27q45 0 95.5 -1.5t93.5 -4.5l24 -43l37 -67l-67 -226l6 6l-67 -104h3l-92 -113l-18 -30l128 -74l67 28h-9l180 43l205 119l43 73q-6 55 -12.5 110t-12.5 110v-3l22 116l-37 141l-82 161h3l-25 49l-235 98
l-217 15l-67 19l-31 186l242 -43q12 -3 25.5 -9t26.5 -12l134 -73h-3z" />
    <glyph glyph-name="Charu_Chandan" unicode="&#x9e2;" horiz-adv-x="461" 
d="M-228 84l159 -16l105 -33l201 -113l66 -163l34 -243l-44 -278l-134 -138l-66 -21l-149 -15l-186 42l-134 20l-7 8l77 120l106 303l-87 -57l-14 -29l-63 -141l-132 110l-12 43l247 166l223 -66l-1 -12l-5 -174l-162 -197l36 -52l147 -24l138 83l108 64l-24 224l10 222
l-253 226h-1l-137 9l-27 11l-108 131z" />
    <glyph glyph-name="Charu_Chandan" unicode="&#x9e3;" horiz-adv-x="1251" 
d="M-18 84l159 -16l105 -33l201 -113l66 -163l34 -243l-44 -278l-134 -138l-66 -21l-149 -15l-186 42l-134 20l-7 8l77 120l106 303l-87 -57l-14 -29l-63 -141l-132 110l-12 43l247 166l223 -66l-1 -12l-5 -174l-162 -197l36 -52l147 -24l138 83l108 64l-24 224l10 222
l-253 226h-1l-137 9l-27 11l-108 131zM584 770l159 -16l105 -33l201 -113l66 -163l34 -243l-44 -278l-134 -138l-66 -21l-149 -15l-186 42l-134 20l-7 8l77 120l106 303l-87 -57l-14 -29l-63 -141l-132 110l-12 43l247 166l223 -66l-1 -12l-5 -174l-162 -197l36 -52l147 -24
l138 83l108 64l-24 224l10 222l-253 226h-1l-137 9l-27 11l-108 131z" />
    <glyph glyph-name="Charu_Chandan" unicode="&#x9e6;" horiz-adv-x="1468" 
d="M1374 716l-32 -148l-50 -229l9 6l-148 -192l16 3l-72 -41q-44 -25 -82 -53.5t-82 -53.5l-123 3l-110 3q-54 0 -109 3.5t-108 3.5l-258 201l9 -3l-94 132l9 -6l-13 47q-6 38 -12 75.5t-13 75.5v-3q0 44 -3 85t-3 85v-3q6 44 12.5 85t12.5 85l-3 -3l85 233l-16 -7l104 85
l114 95h-10l57 28q28 3 50 8t50 8h-3q29 0 55.5 1.5t54.5 1.5l306 -79l19 -6h-3l107 -57h-10l63 -63l-6 4l69 -85l-3 3q22 -41 45.5 -80.5t45.5 -80.5h-3q10 -22 27 -56.5t27 -59.5zM259 464l114 -160l-4 3l51 -94l167 -98l56 -25l123 -28l183 66l85 31l97 202l22 56l25 173
l22 114l-40 129l3 -3l-19 179l-198 145l-152 97l-37 13l-214 3l-82 -123h3l-107 -122l-44 -48l-38 -267q0 -32 -1.5 -66.5t-1.5 -65.5z" />
    <glyph glyph-name="Charu_Chandan" unicode="&#x9e7;" horiz-adv-x="1423" 
d="M1190 860l-16 9q6 -35 17 -68t18 -68l44 -186v3v-88l3 3l-76 -253l13 10l-19 -19h3l-174 -133l13 3l-161 -69l-174 3l-151 6q-19 0 -50.5 2t-53.5 2l-203 41q-15 12 -35.5 32.5l-33.5 33.5l13 -9l-29 101l104 198q7 16 13 22.5t13 19.5l110 240l29 69l19 51l119 -42
l-25 7q29 -44 60.5 -88.5t59.5 -88.5l-69 -114l16 3q-13 -12 -35 -19l-101 -18l-51 -108l-47 -117l-13 -82l149 -63l413 29l54 126l-16 -13l63 63l133 133l-3 139v123l-70 177l-88 91l-174 143l-76 53h4l-45 41l-277 73h6l-218 98l9 -3l-129 85l16 -3l-16 25h6l183 -41
l190 -41l91 -29h-6q48 -25 111 -51.5t110 -52.5l67 -50h-7l127 -123l154 -139l48 -32h-13z" />
    <glyph glyph-name="Charu_Chandan" unicode="&#x9e8;" horiz-adv-x="1388" 
d="M1291 37l-67 12h6l-69 -51q-42 21 -79.5 42t-79.5 42l-189 102h9l-42 30l-216 154l-130 60l-201 96v-3l-45 24l33 69q48 -18 70.5 -30t70.5 -30l-3 3l114 -63l340 114l108 126l15 78l36 120l-87 181l-102 75l-144 72l-169 63q-48 12 -78 -1.5t-51 -19.5q-30 0 -39 -1.5
t-36 -1.5q0 66 27 123l177 -57q-6 0 -12 6q18 -3 13.5 -1.5t-1.5 1.5l250 -54h-6l84 -30l54 -21l-9 3l198 -102l-15 -15l75 -112l-6 3l48 -114l-3 6q-3 -48 -7.5 -96t-7.5 -96l12 9l-147 -159l12 3l-99 -54l-93 -27l-268 -63l82 -48h-3l249 -163q9 3 25.5 9t31.5 12l15 -12
l297 -153l46 -6z" />
    <glyph glyph-name="Charu_Chandan" unicode="&#x9e9;" horiz-adv-x="1774" 
d="M1618 502l-77 -121q-38 -34 -92 -75.5t-107 -82.5v-3l-114 -74l9 3l-118 -53h9l-102 -21l-74 12q-22 -34 -44 -20t-28 8h-56h-130l-102 52l-118 50l9 -3l-145 108l12 -3l-77 118l-75 108l3 -3l-65 140l3 -3l-37 130l84 102l40 -83l78 -112h-4l35 -53l-4 3l53 -117l50 -97
l133 -170l118 -78l90 -46l204 25l273 49l62 90l-3 -3l121 168l6 158l3 74l-86 254l-72 152l-83 100l-298 65l-22 -174q0 -19 -1.5 -51.5t-1.5 -53.5l-18 -149q31 -13 69.5 -30t72.5 -32l-62 -112l16 -37l-38 -34l-148 -31q-7 0 -13 3t-12 3l3 459h-59l-6 68q0 59 -1.5 118
t-1.5 118h-3q6 3 18.5 10.5t21.5 14.5l99 -16q59 0 118 -1.5t118 -1.5l142 -28h-3l65 -22l-15 3l164 -108l-9 3l46 -56l-9 3l71 -170l38 -47l-7 6l69 -241l-3 3l6 -124z" />
    <glyph glyph-name="Charu_Chandan" unicode="&#x9ea;" horiz-adv-x="1327" 
d="M959 698l102 -72l-12 3l75 -102l79 -93l-12 9q0 -16 1.5 -35.5t1.5 -34.5q-3 -24 -7.5 -52.5t-8.5 -52.5l7 9q-19 -30 -40 -58.5t-39 -58.5l15 3l-198 -124l-58 -45l-54 21l-126 -12l-115 21h9q-84 30 -162 60t-163 64l-24 39l6 -3l-24 147l-45 24l27 -12l9 91l-9 -10
l163 232l-24 -6l195 60l-114 70l-217 78l30 181l18 195l-18 -12l118 106l-15 -3l156 45h-9q15 3 33 7.5t33 7.5l136 57l195 -75q25 -6 62.5 -16.5t67.5 -16.5q36 -24 72 -53t72 -53l-21 12l-3 -171l30 -48l-42 -73l-48 -108l-42 -84l18 6zM402 948l114 -81l136 -84l213 54
q15 15 30.5 36t30.5 39l132 127l-54 120l3 -3l-21 117q-27 9 -71 27.5t-71 27.5l-201 33l-88 -12l-117 -48l-72 -172l24 -142zM555 81l151 -12l111 18l223 145l21 36l9 156l-39 115l-129 111l-232 39l-181 -57l-114 -262l27 -186z" />
    <glyph glyph-name="Charu_Chandan" unicode="&#x9eb;" horiz-adv-x="1405" 
d="M768 1195l117 -145l116 -19q13 9 35 21.5t38 22.5l107 44q25 -3 45.5 -3h42.5l22 -54l-271 -160l-107 -73l-98 -85l-28 -85l76 -145l-7 3l35 -120l91 -63l70 -38l208 -72l-82 -41l-155 -89l-214 -69q-28 -3 -52 -8t-52 -8h3q-19 0 -34.5 -3t-34.5 -3l-189 76l6 -3
l-123 69h3l-91 60l19 -7l-54 177l10 158l-32 145l28 217l-6 -6l76 126l60 98h-4l123 176l-6 -3l117 104h-10l70 44q12 7 29.5 18t36.5 17q28 -19 53.5 -39.5t50.5 -36.5l-35 -88zM598 1188l-123 -151l-79 -98l-47 -142l-10 -63h3l-44 -157l19 -123l101 -205l95 -51l101 -50
l205 -82l113 69l-9 -3l151 57l16 32l-300 148l-120 195l48 133l-4 -4l105 174l75 25l44 82l-208 95l13 -4l-92 67h4z" />
    <glyph glyph-name="Charu_Chandan" unicode="&#x9ec;" horiz-adv-x="1549" 
d="M1227 993l62 -84l50 -193l13 -56l31 -181v3q0 -12 -1.5 -27.5t-1.5 -28.5q-10 -40 -22.5 -80.5t-21.5 -81.5l9 6l-103 -140l7 3l-50 -46l19 3q-41 -16 -81.5 -31.5t-81.5 -31.5h4l-78 -18l-147 12l-124 -12q-35 -4 -66 -8.5t-65 -7.5l-128 122l-100 65h6l-46 44l12 -3
l-140 224v-3l-63 109l7 -6l-13 339l-6 -6q3 3 3 6.5t3 9.5l56 -3l106 9l-3 -19v-62l13 -209l12 -128l168 -280l69 -69l165 -90l296 -3l162 124l56 63l69 262l-6 162l-25 140l-225 -109l-124 -72l-106 -37q-25 -7 -50 -7t-50 -6l-65 88l12 -10l13 178v-3l49 262
q4 21 8.5 41.5t7.5 42.5l19 131q0 28 1.5 57.5t1.5 57.5q15 3 21.5 3h12.5q13 -6 28 -6q31 -6 64 -12.5t64 -12.5l-97 -184l-21 -305v-113l324 100l74 100z" />
    <glyph glyph-name="Charu_Chandan" unicode="&#x9ed;" horiz-adv-x="1229" 
d="M679 675l144 42l21 148l18 72l15 187l-18 166l-30 -25l-12 31q-12 -6 -21 -6l-108 39l-136 9l-196 12q-15 -18 -31.5 -47t-31.5 -50l-93 -126l81 -154l-6 3l30 -132l145 -94zM844 12l-24 9l15 109l-15 111l-21 181l45 214l-171 -18h3h-43h3q-51 6 -97.5 12t-97.5 12
l-160 57l-84 45l-34 118l-96 120l12 -9q3 42 7.5 81.5t7.5 81.5l-6 -9l69 111h-6q15 15 27.5 33.5t27.5 33.5l78 72q51 6 90 10.5l91 10.5h-3l51 3h120l151 -18l112 -12l81 -57q3 -18 7.5 -39.5t7.5 -39.5l-33 -265l-6 -105q0 -12 -3 -22.5t-3 -22.5l-15 -166l18 -94
l27 -150l15 -12v-58q6 -51 16.5 -103.5t16.5 -103.5v3v-109q-33 -12 -51 -15t-51 -15h-15z" />
    <glyph glyph-name="Charu_Chandan" unicode="&#x9ee;" horiz-adv-x="1537" 
d="M1393 823l-70 -52l24 3l-85 -9h-125l-164 -98l109 -185l-6 9v-116q0 -21 3 -47t3 -47l-33 -106l18 6l-103 -73q-43 -22 -98 -46t-97 -46l-140 -12q-9 -3 -16.5 -6t-14.5 -6l-152 24l-200 -3q-25 0 -51 -1.5t-50 -1.5q-3 6 -6 15.5t-3 15.5l27 67l3 115q0 43 3.5 87
t3.5 87l-7 -9l61 106l-30 119l18 127l6 104l-6 146l-42 137l21 55l-21 206l69 40l67 -21l49 -67l-9 12l-12 -88v-158l-9 -308q51 -45 138 -24t148 36l57 3h308l155 46l97 6zM376 59l253 24h-3l42 3l238 55l9 146v-3l18 88l3 55l-45 122l-92 91l-115 64h12l-37 30l-127 3
h-150l-76 -33l10 -250v-63l-10 -37l-12 -198l15 12l-36 -36z" />
    <glyph glyph-name="Charu_Chandan" unicode="&#x9ef;" horiz-adv-x="1374" 
d="M843 1192h-3l146 -119l113 -95l22 -149l24 -165l55 -113l-6 6v-202l9 9q-15 -18 -27.5 -42.5t-27.5 -42.5l-104 -147l-116 -67l-168 -18l-15 -16q-43 -6 -78 -10.5t-72 -10.5l-143 52l-101 52q0 9 3 19.5t3 20.5l-9 -10l146 229l49 83l83 232l-284 -122l33 -40l-15 12
q0 -6 1.5 -10.5t1.5 -10.5l-58 -12l-67 -15l-101 177l189 52l123 27q45 0 95.5 -1.5t93.5 -4.5l24 -43l37 -67l-67 -226l6 6l-67 -104h3l-92 -113l-18 -30l128 -74l67 28h-9l180 43l205 119l43 73q-6 55 -12.5 110t-12.5 110v-3l22 116l-37 141l-82 161h3l-25 49l-235 98
l-217 15l-67 19l-31 186l242 -43q12 -3 25.5 -9t26.5 -12l134 -73h-3z" />
    <glyph glyph-name="Charu_Chandan" unicode="&#x9f0;" horiz-adv-x="1411" 
d="M1068 1477l-190 -6l-105 -115l-85 -99l-30 -36l-105 -148l-88 -193l-84 -45l18 -24q27 0 83 -1.5t89 -1.5q39 -6 76.5 -12t76.5 -12h-12l196 -69l96 39l9 117l10 184q3 39 7.5 78t7.5 79l12 102l-55 45zM1194 1019v-78.5t-1.5 -99.5t-1.5 -102v-87l-36 -256l27 63l3 -72
l48 -181v3l18 -196l-39 -24q-48 -9 -90 -19.5t-90 -19.5l-25 21h-6l-18 190l-3 -3l43 147l-40 181l-117 123h3l-27 31l-223 144l-184 -6h-63l-93 -135q-15 -19 -30 -40l-30 -42q-28 0 -40 1.5t-36 1.5q-30 15 -55.5 28.5t-55.5 28.5q6 12 13.5 26t13.5 26l-6 -3l78 90
q18 24 39 45t40 45l183 214l69 81l46 130l-24 105l-196 85h-214h-66l-211 -3h-9l18 9l-3 -3l226 96l42 -30l310 6l169 3l202 9h12l228 9l91 30l93 -69q45 6 104 13.5t104 13.5h-6l153 6q18 0 39.5 1.5t39.5 1.5l-85 -78q12 0 -7.5 -4.5t-34.5 -7.5l-186 6l-85 -94l-6 -202
q6 -60 12 -117t12 -117zM530 1120l95 26l42 33l164 -10l73 -35l47 -37l79 -82l55 -100l-32 -83l-83 42l-31 134l-27 -10l-96 113l-151 -30l-22 13l-130 -50z" />
    <glyph glyph-name="Charu_Chandan" unicode="&#x9f1;" horiz-adv-x="1371" 
d="M1036 1477l-190 -6l-105 -115l-85 -99l-30 -36l-105 -148l-88 -193l-84 -45l18 -24q27 0 83 -1.5t89 -1.5q39 -6 76.5 -12t76.5 -12h-12l196 -69l96 39l9 117l10 184q3 39 7.5 78t7.5 79l12 102l-55 45zM1162 1019v-78.5t-1.5 -99.5t-1.5 -102v-87l-36 -256l27 63l3 -72
l48 -181v3l18 -196l-39 -24q-48 -9 -90 -19.5t-90 -19.5l-25 21h-6l-18 190l-3 -3l43 147l-40 181l-117 123h3l-27 31l-223 144l-184 -6h-63l-93 -135q-15 -19 -30 -40l-30 -42q-28 0 -40 1.5t-36 1.5q-30 15 -55.5 28.5t-55.5 28.5q6 12 13.5 26t13.5 26l-6 -3l78 90
q18 24 39 45t40 45l183 214l69 81l46 130l-24 105l-196 85h-214h-66l-211 -3h-9l18 9l-3 -3l226 96l42 -30l310 6l169 3l202 9h12l228 9l91 30l93 -69q45 6 104 13.5t104 13.5h-6l153 6q18 0 39.5 1.5t39.5 1.5l-85 -78q12 0 -7.5 -4.5t-34.5 -7.5l-186 6l-85 -94l-6 -202
q6 -60 12 -117t12 -117zM371 616l109 -25l60 11l161 -98l54 -74l28 -63l36 -125l1 -130l-76 -66l-62 86l41 152l-32 4l-37 166l-168 50l-15 25l-158 19z" />
    <glyph glyph-name="Charu_Chandan" unicode="&#x9f2;" horiz-adv-x="1472" 
d="M1142 444l-46 179l51 320l-63 13l-102 307l-244 200l-24 55l-371 6l-40 14l-247 4l-31 48l71 71l306 34l41 -44l218 -76l122 10l304 -232l92 -159l43 -132l45 -258l-25 -261z" />
    <glyph glyph-name="Charu_Chandan" unicode="&#x9f3;" horiz-adv-x="1643" 
d="M643 217q0 11 -1 21t-1 22q2 31 6.5 62.5t7.5 62.5l23 192l11 200l6 69q-6 51 -11.5 104t-11.5 105l6 128h-42t-57 -1.5t-58.5 -1.5h-48.5l-74 9l17 6l8 5l112 32l120 -14l-60 228l-243 32l-135 -26l-128 -106q-15 0 -17.5 -1.5t-11.5 1.5l-17 72l54 3l126 71l-17 -3
l295 83l51 9l146 -66q23 -12 44.5 -22t46.5 -21l-5 -209l177 -5h52.5t53.5 -3q-23 -9 -34.5 -14.5t-23 -10t-23 -10t-34.5 -14.5h6l-83 -23l-57 -54v-140l6 -103l11 -180q3 -49 7 -106t7 -106l-17 -117q-6 -37 -11.5 -75.5t-11.5 -76.5l6 3l-20 -43l51 -128q15 0 39 1t47 4
l97 -11q29 -6 63.5 0t57.5 20l123 57l48 103l17 129l12 57l-120 143l-75 -12l55 -243l-40 -17h-266l71 132l12 71q-6 52 -12 107.5t-11 107.5l103 23l123 -12l80 -28l-15 2l232 -174l-17 11l-6 -62q3 -38 7.5 -78t6.5 -77l-25 -123l3 3q-20 -51 -41.5 -101.5t-41.5 -101.5
l-115 31l-86 -8l-203 6l-71 -15l-149 66l9 -3l-66 43l14 -3l-63 103l6 -8z" />
    <glyph glyph-name="Charu_Chandan" unicode="&#x9f4;" horiz-adv-x="1481" 
d="M-13 373v0v0zM996 1376l266 258l-52 -254l29 -194l-101 -279l-20 -33l-132 -246l-134 -161l-194 -89l-281 7l-306 10l-73 -8l-2 13l44 78l211 10l119 -37l155 11l254 140l165 166l99 271l23 141l-60 191z" />
    <glyph glyph-name="Charu_Chandan" unicode="&#x9f5;" horiz-adv-x="1759" 
d="M1284 906l32 -120l-193 -165l-84 -184l-82 -41l-387 -206l-132 27l-172 93l-111 25l-148 199l151 26l68 49l242 145l-200 81l-94 24l23 118l198 31l128 -109l99 -54h34l32 -19l-95 -84l-69 -100l-274 -106l52 -24l193 -147l148 -45l46 -7l142 104l123 49l28 78l24 51
l167 178l71 214l108 211v207l66 196l38 49l33 -4l120 -97l-130 -282l57 64l3 -158l-131 -208l-45 -64z" />
    <glyph glyph-name="Charu_Chandan" unicode="&#x9f6;" horiz-adv-x="1776" 
d="M984 425l-13 -118l-269 -114l-38 -20l-151 8l-291 -10l-175 289l-11 32l37 26l272 138l88 116l-173 70l-218 -2l34 114l225 -10l239 -37l92 -70l-18 -77l-262 -220l-20 37l-54 -51l137 -280l54 39l132 -1l199 87l-19 -12l213 184l-17 20l99 188l82 83l87 210l102 199
l8 116l140 411l23 -22l65 -185l-74 -256l-64 -214l-113 -197l-29 -90l-103 -144l-186 -233z" />
    <glyph glyph-name="Charu_Chandan" unicode="&#x9f7;" horiz-adv-x="647" 
d="M122 1410l151 22l12 -11l35 21l72 -37l-25 -65l73 -144v-143l-60 -226l-16 -320l-2 -218l106 -60l6 72l41 -59l-66 -127l-209 -9l-41 247l-4 26l38 83l-26 251l48 315l10 66l-35 112l-2 -1v5l-15 49l-90 50l-7 -73l-54 90z" />
    <glyph glyph-name="Charu_Chandan" unicode="&#x9f8;" horiz-adv-x="1097" 
d="M119 1118l2 171l-27 133l143 25l125 12l3 -318l-43 54l22 -410l-9 -313l159 351l193 169l87 120l95 -30l-41 -107l48 -341v-164l32 -131l-92 -282l-42 21l-17 152l-38 237l-2 231l-10 120l-24 10l-166 -274l-73 -82l-145 -95l-46 3l-64 322l11 109l-18 180z" />
    <glyph glyph-name="Charu_Chandan" unicode="&#x9f9;" horiz-adv-x="1042" 
d="M567 398l131 117l47 91l29 231l-99 145l-189 148l-50 -56l-154 -66l-48 -310l58 -183l47 -61l231 -55zM796 922l57 -175l-19 -239l-181 -155l-300 6l-33 69l-71 -61l-196 334l37 41l-10 151l106 165l152 22l31 71l245 -6l90 -134l121 -48z" />
    <glyph glyph-name="Charu_Chandan" unicode="&#x9fa;" horiz-adv-x="1216" 
d="M731 1339l99 138l52 59l276 337l-11 -24l16 61l-144 -290l-59 -107l-18 10l-145 -206l-33 -51l-20 13l-117 -49l-210 -21l-97 146l-41 84l-28 -1l14 80l123 123l37 -86l28 -70l104 -118l4 -51h114zM633 1433l-99 87l44 161l134 -24l51 -102l-34 -93z" />
    <glyph glyph-name="Charu_Chandan" horiz-adv-x="744" 
d="M466 1559l169 48l37 -62l128 -12l252 -8l-105 -14q-40 -12 -72.5 -23t-71.5 -22h2l-235 -40l-65 -159h3l-88 -181l-51 -145q0 -2 -2.5 -5t-2.5 -6v3l-46 -167q-3 -20 -7 -44t-7 -47l-17 -141q-6 -51 -11.5 -103.5t-11.5 -103.5v3l-2 -117l136 -150l87 -42l97 20l42 48
q14 -3 18.5 -3h12.5l108 -162l-34 -8l-88 40l-263 73l-20 9h11q-45 39 -92 86t-92 87q-8 8 -19.5 23.5t-17.5 24.5l26 25h-77h-42q-14 3 -14 6l-20 76l-31 -22l73 170l-5 -3l121 170q0 3 -1 5.5t-1 5.5l-3 -5l45 107l43 113l76 204l-6 119q0 34 1.5 68t1.5 68l31 23l-17 48
l12 79l105 40v3z" />
    <glyph glyph-name="Charu_Chandan" horiz-adv-x="752" 
d="M466 1559l31 122l5 133l-39 88l-142 164l-57 17l29 3l-68 51q-6 0 -21.5 -1.5t-29.5 -1.5l-68 40l-173 54l-187 -40l57 82l181 -25q133 -32 147 -36t29 -7h-12l269 -108l-8 3q23 -14 42.5 -32.5t42.5 -32.5h-3l34 -31l-8 3l133 -201l-9 8q3 -23 7 -49.5t7 -49.5
q0 -11 -1.5 -21t-1.5 -22l3 3l-20 -65l37 -62l128 -12l252 -8l-105 -14q-40 -12 -72.5 -23t-71.5 -22h2l-235 -40l-65 -159h3l-88 -181l-51 -145q0 -2 -2.5 -5t-2.5 -6v3l-46 -167q-3 -20 -7 -44t-7 -47l-17 -141q-6 -51 -11.5 -103.5t-11.5 -103.5v3l-2 -117l136 -150
l87 -42l97 20l42 48q14 -3 18.5 -3h12.5l108 -162l-34 -8l-88 40l-263 73l-20 9h11q-45 39 -92 86t-92 87q-8 8 -19.5 23.5t-17.5 24.5l26 25h-77h-42q-14 3 -14 6l-20 76l-31 -22l73 170l-5 -3l121 170q0 3 -1 5.5t-1 5.5l-3 -5l45 107l43 113l76 204l-6 119q0 34 1.5 68
t1.5 68l31 23l-17 48l12 79l105 40v3z" />
    <glyph glyph-name="Charu_Chandan" horiz-adv-x="3" 
d="M40 2030l-68 -16l-205 -183l-46 -74h3l-85 -82q-19 3 -31.5 5.5t-17.5 5.5l-71 57l52 44l136 112l104 82h-3q22 13 44 33.5t44 34.5q38 19 73.5 32.5t73.5 33.5q6 -3 6 -1.5t2 -1.5l14 -33z" />
    <glyph glyph-name="Charu_Chandan" horiz-adv-x="1881" 
d="M984 1294l-23 193l-138 -53l-64 -90h3l-44 -50q-15 -21 -34 -40t-34 -39h3l-158 -182l-82 -137l-35 -74q50 -5 255 -38l158 -61l91 -50l64 167v97l12 102v-3zM1476 1452l-155 -6l-76 -6l214 -129h-12l88 -84l114 -74l-23 9l70 -199l-38 -88l-3 -102l-24 -65l-38 9l-79 38
l-85 62l38 90l-17 -6l120 91l-6 30l-120 196q-44 50 -56 82l-90 26l-188 3l-6 -319l-3 -152l-3 -208l3 -173l3 -70l12 -47h32l-38 -82l32 -76l-3 2l12 -58v3q0 -24 3 -44.5t3 -43.5l6 9l-79 -132q-41 15 -63 22t-63 22l15 -3l-27 23l12 74l17 290l3 35l-87 193l-112 73
l-152 91l-76 26l-232 -64l-84 -91q-12 -23 -25.5 -43.5t-24.5 -41.5l-76 12l-47 117q29 35 60 70t60 71l149 175l103 129h-3l38 47l79 103l76 99l12 29l-120 30l-91 8l-158 6l-343 3q-26 0 -54 -1.5t-57 -1.5q-6 6 -6 15l76 38l190 29h156l152 -3l237 -3h100l155 39
q44 2 88 6.5t88 7.5l181 -35h138l167 -3h85h164l181 -3h123l12 -6l-193 -61l-199 -9h-232z" />
    <glyph glyph-name="Charu_Chandan" horiz-adv-x="4" 
d="M-76 -36l-19 -22l-131 -25q-18 6 -46 15.5t-47 15.5q-12 35 -21.5 69t-22.5 68l4 100l-25 165l-75 112l-196 156l-69 -22l4 -3l-69 12l-124 -40l-113 -243l141 -315l56 218q0 44 -2 90.5t5 87.5l25 -22l46 -12q47 -38 90.5 -77t90.5 -76l-94 -28l-34 -53l-75 -209
l-62 -43l-155 75v-3l-41 24l-118 228q-16 21 -25 44.5t-25 48.5q6 34 17 65.5t17 65.5l-6 -3l12 18l63 78l-13 6l206 112q43 4 83.5 8.5t84.5 7.5l292 -56h-9l178 -75q-13 47 -31.5 118.5t-31.5 124.5l13 143l28 41l71 6q22 -34 44 -60.5t34 -51.5q3 -25 8 -53t8 -53
l-10 -103l13 -252l15 -140q10 -62 22.5 -121t21.5 -122v3z" />
    <glyph glyph-name="Charu_Chandan" horiz-adv-x="3" 
d="M-56 259l-20 -127l-154 -121q-14 -14 -32 -25t-32 -25l-35 -2l-172 -11l-27 -22q-22 0 -32 -3t-32 -3h3q-38 3 -71.5 7t-71.5 7l-69 41q-14 0 -29 3t-32 3l-69 47h3l-111 85l-82 28l33 3l-133 179l9 -6l-11 47l-6 -8l66 113l39 -14l55 36l44 -22l-14 3q14 -14 30.5 -23.5
t30.5 -23.5l-33 -33v-44l-69 -53l44 -22h3l77 -96l124 -152l100 -69l52 11l-30 22l163 -44h52l201 127l61 60l28 158l25 157l-75 130l-149 105l-61 27l-135 -3l17 -71v2l5 -168l116 -102l-119 -113q-5 3 -27 -8h-77h2q-33 2 -69 22l25 201l8 80l-8 97l-19 138q30 11 51 16.5
t48 13.5q39 -3 70.5 -7t70.5 -7q55 -14 111.5 -31.5t111.5 -31.5h-2l13 -11l119 -119l-11 8l36 -116q25 -16 58 -41t63 -44z" />
    <glyph glyph-name="Charu_Chandan" horiz-adv-x="1411" 
d="M765 1245l-18 12l18 -200q0 -15 1.5 -34.5t1.5 -34.5l-21 -194l6 6q-6 -15 -16.5 -27t-16.5 -27l12 6l-146 -116l29 -51q27 0 69 -3t75 -3l173 -39l65 36l93 421l-6 -33l3 96l-6 137l-12 128q-9 51 -21 103.5t-21 102.5l-12 -15l21 75l36 -21q18 0 52.5 1.5t64.5 4.5
l26 -39l308 -21q9 0 19.5 -1.5t19.5 -1.5h-6q6 0 15 -1.5t15 -1.5q-6 -6 -18 -12l-18 -9l-191 -38l-150 -141q3 -35 7.5 -71t7.5 -72l6 -224v-71v3l-32 -153v-194l2 -137l27 -352q3 -45 0 -69l-32 -15q-209 3 -207.5 10.5t4.5 10.5l29 179l-41 233l-147 89l-161 63l-188 -6
l-152 -191l15 6l-165 -81l-83 63l15 -6l-30 72l36 30l170 107l152 126l99 101l65 233l-15 -9l60 48l-12 56l-6 -9l27 51l-27 72l-230 173l-200 -188l33 -54l18 -107q3 0 24 1.5t33 1.5q15 -3 24 -7.5t-12 1.5q9 -18 16.5 -42t16.5 -42l-111 -137l-137 63l24 -9l-36 86l3 -3
l-24 155l12 42q3 24 7.5 48t7.5 48l-6 -9l63 113l-15 -3l152 108l-9 -3l72 30h-15q24 3 47.5 7.5t47.5 7.5q9 -6 19.5 -12t19.5 -9l110 -69h-2z" />
    <glyph glyph-name="Charu_Chandan" horiz-adv-x="1411" 
d="M765 1245l-18 12l18 -200q0 -15 1.5 -34.5t1.5 -34.5l-21 -194l6 6q-6 -15 -16.5 -27t-16.5 -27l12 6l-146 -116l29 -51q27 0 69 -3t75 -3l173 -39l65 36l93 421l-6 -33l3 96l-6 137l-12 128q-9 51 -21 103.5t-21 102.5l-12 -15l21 75l36 -21q18 0 52.5 1.5t64.5 4.5
l26 -39l308 -21q9 0 19.5 -1.5t19.5 -1.5h-6q6 0 15 -1.5t15 -1.5q-6 -6 -18 -12l-18 -9l-191 -38l-150 -141q3 -35 7.5 -71t7.5 -72l6 -224v-71v3l-32 -153v-194l2 -137l27 -352q3 -45 0 -69l-32 -15q-209 3 -207.5 10.5t4.5 10.5l29 179l-41 233l-147 89l-161 63l-188 -6
l-152 -191l15 6l-165 -81l-83 63l15 -6l-30 72l36 30l170 107l152 126l99 101l65 233l-15 -9l60 48l-12 56l-6 -9l27 51l-27 72l-230 173l-200 -188l33 -54l18 -107q3 0 24 1.5t33 1.5q15 -3 24 -7.5t-12 1.5q9 -18 16.5 -42t16.5 -42l-111 -137l-137 63l24 -9l-36 86l3 -3
l-24 155l12 42q3 24 7.5 48t7.5 48l-6 -9l63 113l-15 -3l152 108l-9 -3l72 30h-15q24 3 47.5 7.5t47.5 7.5q9 -6 19.5 -12t19.5 -9l110 -69h-2z" />
    <glyph glyph-name="Charu_Chandan" horiz-adv-x="1370" 
d="M797 1330h3l-138 -165l-105 -132l-66 -87l-45 -69l159 -67l216 6l144 -105l52 51l24 211l-3 165l-6 249l-166 42zM242 1381l12 -3l-69 87l9 -9l-3 69l-6 36l-9 36l54 120l78 15l30 63l171 -42l-156 -180l-39 -129l75 -135l174 -3l-3 3l84 48q3 15 7.5 31.5t7.5 31.5
l-6 -3l24 39l-3 -3l69 87l-21 -6l81 36q15 -3 19.5 -4.5t19.5 -4.5l96 -27l51 39h40q42 -3 105 -9t105 -9h-3l168 -27l123 -9q-12 -21 -21 -33t-21 -30l-114 12l-177 -18l9 -276l-42 -33l24 -90l-33 -244l27 -171l-24 -12l3 -144l36 -108l-3 3l27 -285q6 -9 21 -25.5
t24 -31.5l-42 -48l-105 -33q-6 0 -19.5 3t-19.5 3l-106 72l18 -6l-12 24q0 15 1.5 31.5t1.5 31.5l12 177l46 48l-31 90l-66 198l-114 36l-147 45l-108 57h-144l-72 -42l-12 -30l-12 -30l-144 -126l-3 -3q-24 15 -42 25.5t-36 19.5l-9 93l-9 -9l42 60l39 54h-6l306 319v-3
l45 48l-105 51l3 51l-96 93z" />
    <glyph glyph-name="Charu_Chandan" horiz-adv-x="1062" 
d="M1265 -76l-15 -17l-103 -20q-14 5 -36.5 12.5t-36.5 11.5q-10 27 -17.5 54t-17.5 54l3 79l-20 130l-59 88l-154 123l-54 -17l2 -3l-54 10l-98 -32l-88 -191l110 -248l44 172q0 34 -1 71t4 69l19 -18l37 -9q37 -30 71.5 -60.5t71.5 -60.5l-74 -22l-27 -41l-59 -165
l-49 -34l-123 59v-3l-32 20l-93 179q-12 17 -19.5 35.5t-19.5 38.5q5 27 13.5 51.5t13.5 51.5l-5 -3l10 15l49 61l-10 5l162 89q34 2 66 5.5t67 6.5l230 -44h-7l140 -59q-10 37 -49 128l154 -40l10 -199l12 -110q8 -49 17.5 -95.5t17.5 -95.5v2z" />
    <glyph glyph-name="Charu_Chandan" 
d="M-90 -129l9 -113l9 9l-53 -81q-44 -6 -73.5 -11t-73.5 -11l-47 19l9 -3l-31 22l22 -13l-6 163l-191 144l-97 53l-213 57l-54 -154h-90q-25 3 -48.5 6.5t-48.5 9.5v87l-13 -9l103 113l113 135l63 72l103 119l-6 -4l219 188l19 10h-10l110 59l201 -25l40 -59l-9 9l-16 -94
l-6 -172l63 -213l34 -129zM-626 118l226 -56l-19 3l166 -125l-28 256l-13 213l-3 -6l13 38l-73 141l-272 -248l-63 -78l-6 -135z" />
    <glyph glyph-name="Charu_Chandan" 
d="M-540 -86h-39q-30 0 -73 -3t-74 -3q-52 9 -99 20t-97 19l-103 58l-127 78l-50 67l5 -3l-102 219l2 -3l-19 133l150 -19q8 0 24.5 2.5t25.5 2.5v-8q2 -28 6.5 -57t6.5 -57v3l-16 -83l-8 -14l188 -177l67 -50l102 -53l125 -33q22 5 47 -14l197 58l72 122h-3l50 69l19 83
l23 109l-50 152l-139 -127l-202 -48l-131 36l-13 67l-28 125l-28 241q6 3 7 5.5t4 5.5l75 -11q31 -3 71 -7t73 -7l42 -39l-36 -136l-34 56l-5 -78v-16l8 -70l175 -100l191 189l-14 58l92 -75l3 -22l77 -97l-11 -158q0 -16 3 -33t3 -33l2 5l-72 -152l-105 -117q-8 -8 -17 -11
l-152 -33z" />
    <glyph glyph-name="Charu_Chandan" 
d="M-133 -482l-24 3l-146 -19l-100 146l-88 -3l-74 45q-37 0 -83.5 -1.5t-85.5 -1.5l-69 35l-156 -29l-178 -37l-24 -24q-45 -6 -76.5 -11t-71.5 -10q0 13 1.5 23.5t1.5 21.5l8 39q31 8 47 14.5t48 14.5h-3l180 32l90 -13q37 0 73 -2.5t73 -2.5h-3q53 -6 103.5 -11
t103.5 -11h-3l72 -7h169l24 143q3 23 7 49.5t6 50.5l-10 -8l21 220l93 -11l18 -26l-8 8q0 -16 2.5 -38.5t2.5 -38.5l-31 -172l61 -156l-3 5l3 -162z" />
    <glyph glyph-name="Charu_Chandan" horiz-adv-x="3" 
d="M-542 524l24 6l75 -3l-6 102l-8 148l-9 139l11 -29q198 157 198 131l-9 34v-197v-87q0 -41 1.5 -84.5t1.5 -83.5l-15 -206h15l6 -73q5 -60 11 -122.5t12 -123.5l-142 -151q0 -3 -17.5 -8.5t-37.5 -11.5l-38 49l12 67l29 232l-29 78l2 -3l-20 163l-127 -134
q0 -32 -1.5 -61t-1.5 -61q-6 -2 -18 -2l-58 5l-127 73h3l-186 136l-185 -139q8 -12 24 -26.5t13 -17.5l21 -217q8 12 27 36.5t42 53.5t45 56.5t33 44.5h29h58l6 -72l-23 -104l-14 -58l-70 -73l-209 102l12 -3l-110 107l14 49l-23 76l52 194q41 23 80 44.5t80 45.5h69l73 8
h113l87 -63v-56z" />
    <glyph glyph-name="Charu_Chandan" horiz-adv-x="1876" 
d="M994 1294l-23 193l-138 -53l-64 -90h3l-44 -50q-15 -21 -34 -40t-34 -39h3l-158 -182l-82 -137l-35 -74q50 -5 255 -38l158 -61l91 -50l64 167v97l12 102v-3zM1486 1452l-155 -6l-76 -6l214 -129h-12l88 -84l114 -74l-23 9l70 -199l-38 -88l-3 -102l-24 -65l-38 9l-79 38
l-85 62l38 90l-17 -6l120 91l-6 30l-120 196q-44 50 -56 82l-90 26l-188 3l-6 -319l-3 -152l-3 -208l3 -173l3 -70l12 -47h32l-38 -82l32 -76l-3 2l12 -58v3q0 -24 3 -44.5t3 -43.5l6 9l-79 -132q-41 15 -63 22t-63 22l15 -3l-27 23l12 74l17 290l3 35l-87 193l-112 73
l-152 91l-76 26l-232 -64l-84 -91q-12 -23 -25.5 -43.5t-24.5 -41.5l-76 12l-47 117q29 35 60 70t60 71l149 175l103 129h-3l38 47l79 103l76 99l12 29l-120 30l-91 8l-158 6l-343 3q-26 0 -54 -1.5t-57 -1.5q-6 6 -6 15l76 38l190 29h156l152 -3l237 -3h100l155 39
q44 2 88 6.5t88 7.5l181 -35h138l167 -3h85h164l181 -3h123l12 -6l-193 -61l-199 -9h-232z" />
    <glyph glyph-name="Charu_Chandan" horiz-adv-x="1559" 
d="M1159 341l3 321l-6 172l-9 164v80l3 199l3 113q0 35 1.5 69.5t1.5 69.5q30 9 41.5 15t41.5 15h-9l71 12l75 -21q23 -3 51.5 -7.5t55.5 -7.5l163 -41l-30 -27q-41 -3 -66.5 -7.5t-66.5 -7.5h3h-110l-39 -41l-33 -173l-12 -80l9 -193l30 -169l24 -137l-30 -149l-24 -115
l39 -39l-9 6l9 -24l-6 3l27 -178v3l3 -110q6 -15 19 -30t22 -29l-107 -39q-20 0 -41 -1.5t-39 -4.5q-24 9 -50.5 18t-14.5 6v133l18 128q-15 39 -33 85t-77 67l-33 62l-229 128l-187 -45l-53 -83l6 3l-86 -80h8q-47 -27 -93 -56.5t-94 -59.5l-104 71l18 -9l-33 89l137 72
l208 166l51 51l133 163l45 74l18 60l20 104l27 136l-148 161l-66 3l-6 -199l6 6l-53 -98l6 3q-36 -42 -37.5 -89.5t-93.5 -65.5l-146 68l-62 72l-92 104l12 -9l12 160l-6 -6l44 95l45 18l59 -77l-12 6l15 -71l36 -81l140 -160l32 232l-18 124l-44 116l-9 9l196 -27h-12
q3 -3 10.5 -4.5t13.5 -1.5l154 -83h-11l151 -154l-15 12l6 -12q3 -51 7.5 -106t7.5 -105l6 6l-65 -128q-3 -15 -6 -27t-6 -26l3 3q-24 -54 -52.5 -107.5t-51.5 -106.5l-119 -45l181 -41h-6q51 -18 104.5 -39t124.5 -54z" />
    <glyph glyph-name="Charu_Chandan" horiz-adv-x="732" 
d="M977 1139l129 -59l11 -111l-123 -17h-3l-32 23l6 -3l-111 135h3l-52 73l-228 87l-155 -85l-76 -70l-111 -102h102l144 -44l55 33q15 0 28 -1.5t25 -1.5q20 -3 39 -6t39 -9q6 -12 13.5 -33.5t1.5 -13.5l-3 9q-3 -20 -7.5 -40.5t-7.5 -41.5l3 3l-49 -119l3 2
q-24 -40 -103 -157l-20 -9l-146 20l-47 9l18 32l-12 -3l117 94l96 201l-84 12l-18 29l-181 12l-163 -12l-15 21l146 157l-12 -3l111 73l94 91q32 6 52.5 10t49.5 10l231 -38l-18 -14l158 -94q32 0 102 -49z" />
    <glyph glyph-name="Charu_Chandan" horiz-adv-x="1371" 
d="M204 1427l-39 -80l86 -281l122 56h-6l86 26q11 -26 14 -41t15 -39l-77 -201q0 -12 -1.5 -21t-1.5 -20l15 11l-107 -100l175 18l276 -74h-6l163 -66l50 68l29 69l15 305l-50 210l21 181l-196 -27l-98 30l-302 2l-77 -2l-47 -6zM1575 1554l-15 -29h3q-44 -21 -79.5 -37.5
t-77.5 -34.5l-246 3l-14 -106q0 -15 1.5 -34t1.5 -34l-21 -222l53 -270q0 -24 -3 -44.5t-3 -44.5l-12 -163q0 -20 -41 -44q15 -50 31 -102t31 -102l-3 3v-110l30 -113h-3l12 -59l-98 -56l47 15l-89 -15l-8 -6h-24h3l-68 9l-3 145v62l-21 148l-65 110l-128 130l-109 80
l-133 68l-217 -15l-17 -124l14 9l-35 -36l18 3l-116 -41q-23 3 -39.5 6t-40.5 6l27 -3q-6 6 -21 19t-21 19l77 157v-3l104 172l89 190q-9 0 -43 -1.5t-43 -1.5h3q-24 3 -50.5 7t-50.5 7h15l-83 39l24 -9l-65 127q-6 9 -10.5 15t-10.5 15l47 104l-6 -3l69 92h-276l-65 -6
l116 91l174 -8l104 11l53 24l89 -6h-9l65 -24l252 -8h237h118l42 38h154l166 -30q97 -3 213 21z" />
    <glyph glyph-name="Charu_Chandan" horiz-adv-x="1114" 
d="M540 1094l81 -6l39 112q0 39 2.5 81t2.5 81l84 44h3q53 -11 103 -23.5t103 -26.5l81 -162l-6 3l8 -44l9 11l-61 -84l11 3l-98 -73l-111 -128l273 56l64 131q14 31 28 57.5t30 56.5l65 -89l78 -84h-3q25 -39 53 -75t53 -75l-9 8q0 -39 -2.5 -79.5t-2.5 -79.5v3
q-3 -19 -7 -37.5t-7 -37.5l8 5l-178 -270l-78 -11q-20 -6 -35 -14t-35 -14h3l-173 -47q-14 -3 -28 -4.5t-25 -1.5h3l-131 11l-268 56l-14 8q-22 9 -48.5 21.5t-51.5 23.5l-73 136l-22 45l-42 61l3 -2l-78 139h3l-120 268l39 41l67 20l92 -11h19l20 -98v3l-3 -72l59 -143
l72 -125l89 -112l70 -69l159 -134l170 17q0 5 61 -12l154 20l67 81l-6 -3l131 178q-3 26 -7 49.5t-7 48.5l-3 61l-83 162l-251 -178h-11q-34 -17 -70 -31t-70 -31l-122 62l-14 39l30 184l-145 -14q-22 14 -43 26.5t-21 15.5l9 203l-84 234q0 11 3 19.5t3 19.5q36 11 65 22.5
t60 19.5v-14l42 -203l-25 -87v-142zM749 1083l120 30l61 179l-100 36l-92 -36l16 -156z" />
    <glyph glyph-name="Charu_Chandan" horiz-adv-x="1232" 
d="M1000 880q-46 15 -108.5 41t-107.5 41h3l-162 64l-131 52l12 -3l-46 34l-48 -19l-119 122l15 -329l9 -232v-76v-58l-15 -262l238 219q42 40 91 85.5t92 85.5l161 143h-3l82 67zM1613 1535l-61 -57l-165 3l19 3l-80 -22h-82l-146 3h-83h-170h-98l-436 -3l30 -79l43 -131
l146 -125l125 -76l71 -37l283 -85l-9 3l153 -80l-65 -70l-161 -186l-86 -97l-85 -74l-183 -158l-27 -25l-37 -36l-149 -137q-6 -25 -12.5 -46t-12.5 -46l6 3h10l-144 -15l-73 70l40 58l3 220l3 73l-12 241q0 27 -3.5 57.5t-3.5 58.5l-6 234l13 183v46l-16 110l-58 119
l-265 27l-67 -6l27 22l354 42l46 70h110l18 -55h277h126h176h162h152h55h250h98z" />
    <glyph glyph-name="Charu_Chandan" horiz-adv-x="741" 
d="M1000 880q-46 15 -108.5 41t-107.5 41h3l-162 64l-131 52l12 -3l-46 34l-48 -19l-119 122l15 -329l9 -232v-76v-58l-15 -262l238 219q42 40 91 85.5t92 85.5l161 143h-3l82 67zM1613 1535l-61 -57l-165 3l19 3l-80 -22h-82l-146 3h-83h-170h-98l-436 -3l30 -79l43 -131
l146 -125l125 -76l71 -37l283 -85l-9 3l153 -80l-65 -70l-161 -186l-86 -97l-85 -74l-183 -158l-27 -25l-37 -36l-149 -137q-6 -25 -12.5 -46t-12.5 -46l6 3h10l-144 -15l-73 70l40 58l3 220l3 73l-12 241q0 27 -3.5 57.5t-3.5 58.5l-6 234l13 183v46l-16 110l-58 119
l-265 27l-67 -6l27 22l354 42l46 70h110l18 -55h277h126h176h162h152h55h250h98z" />
    <glyph glyph-name="Charu_Chandan" horiz-adv-x="1302" 
d="M297 1147l-14 -28l-3 -131l-2 -42l2 -134l39 -305l151 201l-8 -6l142 124l77 66l105 112l-151 69l2 -3l-293 168zM1585 1534l-14 -19l28 5l-154 -44l-124 -33l-206 6l-217 3l-214 2h-112l-116 -2l-148 -6l5 -16l50 -88l68 -72l248 -162l63 -24h44q27 -6 57.5 -17
t57.5 -19l113 -60q-25 -9 -20 -17l9 -74l88 -69l57 -96l-14 6l9 -8q11 -22 27.5 -54t29.5 -56q-13 -31 -27 -58t-28 -58l14 6l-63 -50h3l-231 -164l-58 -20l204 -120h41l203 -110h-11l6 -6l-64 -159q-13 3 -16 3h-8l-58 27l-88 58l-187 126l-85 58l-140 88l-82 44h11l-6 5
l204 80l27 19h-3l225 143l66 99l22 151l-52 16l-66 80l11 -8l6 52l-151 -80l-127 -107l-13 -36l16 6l-143 -102l-99 -68l-52 -55l-71 -91q-55 -58 -55 -82h-17l-137 57q25 234 30 313l6 -8l-8 88v173v52v187l-28 198l-184 65l-30 88l162 11l88 47l132 -44l-9 3l66 -44
l193 22h-6l104 3l171 2l173 3h35l146 3l187 3l211 5h25z" />
    <glyph glyph-name="Charu_Chandan" horiz-adv-x="816" 
d="M680 1407l-134 -178v-119v-134h147l175 147l-3 69q-34 18 -185 215zM1457 1012q-47 6 -196 60t-196 60l-122 47l-44 -28l100 -75l-18 9l28 -144l9 -68q-6 -41 -17 -80t-17 -80l9 7l-87 -138l12 3l-103 -69l-219 -31q-34 6 -60.5 11t-61.5 11q-15 3 -34 7.5t-35 11.5
l-193 119l15 -4l-65 107h3l-57 97l3 -4l-62 235q16 6 37.5 12.5t37.5 12.5l125 -28l-31 6l25 -34l-10 9v-122l4 -162l187 -147l69 -47l162 -38l169 66l69 119l13 140l-19 91q-53 -16 -136 -37.5t-139 -37.5q-16 -3 -34.5 -8t-34.5 -8q-19 7 -44 14.5t-44 13.5l-172 107
l125 137l57 210l15 103l-140 6l-194 3l-97 3l-200 7h-47q41 18 52 26t51 27h-12l62 15h-9l325 10h144h159l31 6l116 13l9 -10l413 -31l125 -19l56 -12h-9l19 -10l-16 -22q-34 -9 -75 -15l-225 -6l-178 -4h-41l75 -131l153 -91l91 -43l352 -110z" />
    <glyph glyph-name="Charu_Chandan" horiz-adv-x="1815" 
d="M861 1415l-35 24l-165 -188l-47 -53l-158 -214l-74 -115l-8 -26l55 -38l65 -15l88 3q32 0 61.5 3t61.5 3l153 -103l-15 6l103 -97l12 176l12 162l9 132l11 191l-91 170zM1475 987l-27 299l-17 173l-9 36q32 23 54 38t52 38l35 -15l352 -41h27l-30 -32q-32 -6 -61.5 -15
t-61.5 -14h-158l-39 -185l3 -77l9 -173l15 -191l17 -255q0 -33 -1.5 -81.5t-1.5 -80.5l-32 -117l50 -130l-3 6l-9 -147q0 -14 -3 -24.5t-3 -25.5l-70 -20l-120 17l-50 80l8 -9q0 50 3 100t3 100l77 -74l-115 182l-100 165l-152 79v-182l-3 -288l53 -59l2 -26l-20 -29l15 3
l-44 -30l-103 -35q-24 6 -40 13.5t-34 12.5l3 9l-23 144q3 18 7.5 37t6.5 37h-2l38 123l-36 203l-73 44h6l-147 117l-62 35l-211 21h15l-106 44l-62 -97q-26 -47 -54 -88t-57 -88l-44 12l-86 41l15 -3l-64 67l23 35l147 188l123 168l-6 -3l174 167l11 59l-6 -3l53 103l-8 -6
l29 29l-103 39l-109 14l-305 21q-35 0 -70.5 3t-70.5 3h3l-203 14l-29 56l232 -20q18 3 35.5 7t32.5 7h47l114 3l100 3l241 9l323 15l32 14h26l6 -20l71 -56q32 12 69 28t72 31q20 -41 35 -66t35 -66l-6 5l-3 -61v-106l9 -173l21 -256v-135l323 -238l-38 276v-3q3 27 7 56.5
t7 55.5v-3z" />
    <glyph glyph-name="Charu_Chandan" horiz-adv-x="2176" 
d="M1575 185v3l9 -144q-6 -15 -10.5 -32t-10.5 -36q-65 -3 -111 -7.5t-108 -7.5l-119 74l-28 61l-231 74l-36 9h3l-145 56l-141 -25l-68 -6l-258 -95h-89l-83 21h6l-80 28l43 3l240 49h-3l117 18l172 10q18 0 35 1.5t35 1.5l96 -10l190 -21l160 -18h-3l212 -40l-6 202l6 148
q0 12 1.5 30.5t1.5 30.5l9 117l10 191l12 190l6 130l-43 67l-138 135l-43 43l-231 47l-227 -47l-126 -159l-43 -83l-19 -120l111 -209l61 -71l145 -123l67 255l-86 71l108 104l-22 -3l126 34q22 -6 43.5 -12t110.5 -31l-123 -323q9 10 -28 56q-3 -46 -7.5 -92.5t-7.5 -92.5
v3l-9 -46l31 12l-166 -76q-31 3 -51 6t-48 6l-178 49h6q-15 6 -32 17t-32 17l18 -6l-120 138l9 -3l-64 163l3 -3l-9 37l-6 61q0 59 3 115.5t3 115.5l-6 -9q6 12 16.5 22.5t16.5 23.5h-3l96 120l-16 -4l212 123l-15 -3l172 28h120h-25l160 -22h-3l95 -21q34 -6 71 -17t71 -20
l107 -55q22 -13 42 -26.5t41 -26.5l-18 7l15 -25l-3 3l25 -71h-3l21 -116l86 46l228 -126h-3l141 -56l-25 10q13 -22 26.5 -42t26.5 -41l-6 6q0 -16 1.5 -32.5t1.5 -32.5l6 9l-92 -147h6l-34 -65l123 -70l-22 -93q0 -6 -1.5 -9t-1.5 -9l-27 -120l15 9q-34 -33 -74 -64
t-77 -65h-27l-105 -18l-86 6l-98 -3zM1572 367l203 -53l110 139l22 160l-154 61l-6 19q-6 3 -18.5 6t-27.5 9l40 25h-6l126 43l58 199l-178 99l-98 3l-90 -135v-148q-3 -34 -7.5 -69.5t-7.5 -68.5v3l-12 -86l-19 -105l34 -104z" />
    <glyph glyph-name="Charu_Chandan" horiz-adv-x="1459" 
d="M1821 1477l-191 3l3 3l-81 -31l-101 -6l-59 3h-148h-167h-129l-142 3h-247l-191 -111l-22 -148l-12 -74q3 -68 7.5 -137.5t8.5 -136.5l6 6l-22 -37q6 -90 17 -181t17 -180q0 -56 3 -113t3 -112l6 6l-21 -37v-31l129 -65l151 -52l124 -25l136 28l194 136l80 101l-22 161
l-12 -13l46 59l-61 111l-232 123l-55 -18q21 -34 47.5 -69.5t47.5 -69.5l-9 9q3 -33 8 -67t8 -68l-108 -111l-111 -16q-6 0 -14 1.5t-14 1.5l-40 56l9 -9l15 209l7 50l-37 157l-7 -9l28 61l-15 -6l52 37q40 0 74 3t71 3l111 -40q37 -6 83.5 -15t86.5 -15l99 -118l-7 3
l56 -101l-6 3l40 -222l3 9q-12 -34 -26 -71t-26 -71h3l-16 -22l9 7l-132 -130h9q-43 -25 -92.5 -52.5t-92.5 -52.5l-46 -6l-256 22h-133h3l-148 9l-136 -28l-21 31q-6 0 -14 3t-17 6l-12 176l-3 93v123v129l6 145q0 28 1.5 57.5t1.5 57.5l21 274l4 68v154l-7 31l-58 139
l-253 -19h9l-160 -9h-25l-37 105l46 -19q50 6 124 -1.5t126 -1.5l204 3l61 56l-24 -3l114 15l117 -55l228 -7h84l129 223l-123 141l-105 53l-210 46l-71 -21h-126l-161 -28l-120 -28q-25 -6 -48 -17t-48 -17h3q-43 -9 -81.5 -32t-90.5 -14h-13q28 9 0 83l229 40h-3l246 22
l127 28l157 33l244 19l65 -19h-4l99 -30h-3q37 -16 74 -36t49 -26l65 -133l56 -92l-65 -161l49 -30l96 -10l129 -3l346 6l182 7z" />
    <glyph glyph-name="Charu_Chandan" horiz-adv-x="1503" 
d="M569 677l-71 -90l-93 -112l-102 -118l15 -46l-3 -90l121 -149q31 0 73 1.5t76 1.5l93 -37l183 34l102 71l34 25h-3l115 81l56 133l9 260v-3l18 100l-34 68l-74 149l-109 164l-90 112l-189 145l-59 -198q-3 -44 -7.5 -81t-7.5 -80v3l-9 -84l-41 -245zM1667 1445l-143 7
l-223 6l-186 3h-81l-152 -74l90 -97l174 -179q9 -13 27.5 -37.5t9.5 -15.5h-6l115 -192l-7 6l53 -199l19 -80q3 -44 7.5 -84t7.5 -84v4l-12 -47l9 6l-152 -198l10 3l-47 -40l-167 -140q-38 -6 -62.5 -10.5t-61.5 -11.5h3l-149 -12l-121 22q-37 0 -91.5 3t-94.5 3
q-34 6 -68 17t-68 17h9l-155 56l-31 15l15 -3q-127 96 -127 75l72 96l111 173h-3l84 127l68 124l59 128l-6 -4l83 128l22 89l22 134l-3 180l-59 127q-62 0 -254.5 -3t-254.5 -3h3l-223 9l-6 3l205 53l121 9h-4l345 6q-4 19 -10 47t-9 46l-22 180l-3 -6l59 201l-12 -9l86 74
l100 84h-3l120 105h-9l137 53l-56 9l248 109l56 -93l-295 -84l-62 -56l-115 -139l-68 -93l13 -462l114 19l19 -19q80 3 176.5 0t176.5 0l205 -3h236h105l115 3h105q6 0 12.5 1.5t12.5 1.5l-9 -46z" />
    <glyph glyph-name="Charu_Chandan" horiz-adv-x="1768" 
d="M1079 1543l396 -16q18 0 46 -1.5t47 -1.5l265 -9h78l90 -3h56l-22 -50l-87 34q-34 -6 -68.5 -17t-65.5 -17l-199 -13h3l-78 -6l-268 -12l-249 -10l-71 -3q-3 -34 -8 -79t-8 -83l-19 -96l7 -131l6 -215l28 -128l84 16l-16 -12l103 74l115 112l94 103l43 75
q28 -37 51.5 -67t45.5 -56.5t45 -56t51 -66.5l-6 3l38 -84q0 -53 -3.5 -106t-3.5 -106l3 6l-43 -112l-50 -137l12 7l-161 -156h12l-181 -94l-124 -3l-159 -28q-37 13 -49.5 5t-18.5 -14h-63l-165 44l-134 49l13 -3l-128 91l9 -4l-99 113h3l-65 93l3 -3q-35 71 -73.5 139.5
t-73.5 140.5h3q-6 19 -15 37.5t-16 40.5l109 100l112 -113l13 -59v3v-12l12 9l-43 -62l43 -62h-6l93 -153l28 -50l85 -155l183 -56l249 -84q32 12 78 37l78 -6l199 34l72 156h-3l78 134l6 563l-112 -162l-206 -68l-43 -78q-35 -13 -59.5 -23.5t-55.5 -20.5l-134 -31l-88 66
l22 227l-37 34l15 -9l-21 171l46 78l-6 221l-3 112l-218 -3l-159 -6l-155 -3l-181 -4l-121 -3q-35 0 -49 -1.5t-48 -1.5q34 22 43.5 31.5t40.5 27.5q41 7 70.5 11.5t66.5 10.5l302 10l252 3h16h-6l93 -10l131 35q25 0 70 1.5t70 1.5z" />
    <glyph glyph-name="Charu_Chandan" horiz-adv-x="1438" 
d="M1744 1525q-28 -6 -40 -10.5t-21.5 -7.5t-20 -6t-35.5 -10l-150 -24l-147 -6l-135 -3h-132q-96 -3 -192.5 -8t-191.5 -8l-28 -3l-190 -24l-123 -46q0 -40 -3 -94t-3 -94l-9 -171l-3 -105q6 -18 12 -38t12 -39l19 -159l15 -132l12 -98l22 -203l-40 -37l120 -70l279 -53
l178 25l129 107l95 145l9 76l-83 234l-233 138l-28 -215l4 3l-83 -246q-25 0 -51 -1.5t-54 -1.5l-67 231l73 76l19 13l-6 49l-9 116q0 13 -3.5 20.5t-3.5 19.5l92 22q34 0 58.5 -1.5t58.5 -1.5l273 -71l-18 3l58 -49l-9 3l135 -181l-9 6l52 -344l-114 -18l-21 -31h3
l-199 -230l-139 46l-165 9l-62 -6h-126l-135 22l-104 -31l-138 74l12 98l-9 215l28 172v67q0 46 3 92t3 92l21 335v153l-6 31l-61 114l-255 6h-144h-25l71 37l70 12l126 -3l138 30l92 53l132 -16h-9l28 -15l211 -6l117 -3l141 -3l166 -3l86 -3l196 -4l169 -6l151 -3l101 -3
h43z" />
    <glyph glyph-name="Charu_Chandan" horiz-adv-x="824" 
d="M725 1506l185 -53h-6l150 -67l91 -65l3 -73v-59q0 -35 -59 27l-29 44l-135 161q-15 0 -37 1.5t-39 1.5l-97 44l-244 -15l-188 -129l-79 -143l12 -232l9 -162l223 -44l64 124l-3 -3l47 64l-76 71q24 20 40 36t39 37h-9l65 32q15 3 34 7.5t34 10.5q20 -12 46.5 -25
t44.5 -25l-50 -132l-21 -44l-15 -88l-17 -188l17 12q-23 -21 -51 -46t-51 -45q-18 0 -28 1.5t-25 4.5l-208 53l14 -3l-120 82l12 -3l-83 108l-23 27l-91 129l67 194q-14 26 -33 52.5t-34 52.5l70 71l97 97h-9l91 55l165 47l202 9z" />
    <glyph glyph-name="Charu_Chandan" unicode="&#x9ce;" horiz-adv-x="1191" 
d="M714 362h3l-62 148l-136 76q-8 0 -25 3t-26 3h17l-122 42l-87 57l8 -3l-116 130h3l-51 76l8 -8q0 25 -2.5 62t-2.5 62l88 150l-12 -2q23 17 43 36.5t42 36.5l71 51h-3l190 119l121 14q9 0 15 3l141 -91h-8l93 -90l-11 6l70 -156l-2 3l36 -187v3q0 -17 1.5 -35.5
t1.5 -35.5l-195 -110h-11l22 -3q-20 11 -38 24t-18 18l-63 156l63 14l45 34l6 156l-142 189l-144 -34l-77 -36l-90 -167l-54 -128l11 -184l80 -110l232 -85l45 -14q31 -45 54 -57l-3 3l73 -45l-11 3l178 -224l-11 8l3 -39q0 -17 -3 -39.5t-3 -39.5l-31 -57q-48 6 -83.5 13
t-80.5 12v0l-6 199l-28 65z" />
    <glyph glyph-name="Charu_Chandan" horiz-adv-x="1455" 
d="M805 1245l-18 12l18 -200q0 -15 1.5 -34.5t1.5 -34.5l-21 -194l6 6q-6 -15 -16.5 -27t-16.5 -27l12 6l-146 -116l29 -51q27 0 69 -3t75 -3l173 -39l65 36l93 421l-6 -33l3 96l-6 137l-12 128q-9 51 -21 103.5t-21 102.5l-12 -15l21 75l36 -21q18 0 52.5 1.5t64.5 4.5
l26 -39l308 -21q9 0 19.5 -1.5t19.5 -1.5h-6q6 0 15 -1.5t15 -1.5q-6 -6 -18 -12l-18 -9l-191 -38l-150 -141q3 -35 7.5 -71t7.5 -72l6 -224v-71v3l-32 -153v-194l2 -137l27 -352q3 -45 0 -69l-32 -15q-209 3 -207.5 10.5t4.5 10.5l29 179l-41 233l-147 89l-161 63l-188 -6
l-152 -191l15 6l-165 -81l-83 63l15 -6l-30 72l36 30l170 107l152 126l99 101l65 233l-15 -9l60 48l-12 56l-6 -9l27 51l-27 72l-230 173l-200 -188l33 -54l18 -107q3 0 24 1.5t33 1.5q15 -3 24 -7.5t-12 1.5q9 -18 16.5 -42t16.5 -42l-111 -137l-137 63l24 -9l-36 86l3 -3
l-24 155l12 42q3 24 7.5 48t7.5 48l-6 -9l63 113l-15 -3l152 108l-9 -3l72 30h-15q24 3 47.5 7.5t47.5 7.5q9 -6 19.5 -12t19.5 -9l110 -69h-2z" />
    <glyph glyph-name="Charu_Chandan" horiz-adv-x="842" 
d="M258 1612l129 -51l105 -12l159 -9h303l227 3l240 -3l69 -39l-162 -6q-60 9 -183 -6l-131 -6h-162h-270l-117 -3l-132 -6l-66 -21l27 -210l-24 -212l21 -198l-30 -99l114 6l198 66l126 124l45 216l15 12l138 134q3 -12 3 -13.5v0t1.5 0t4.5 -13.5h-3l9 -56l6 -84v-315
l-3 -48l21 -98l-129 39l-63 203l-150 -118l-39 -36h6l-258 -135l-63 -21q-15 0 -21 3t-17 3l-135 33h-27l66 207l3 48l-21 93v-3l6 305v69l-15 132h-153l-135 21l60 30q24 3 40.5 6t37.5 6l156 9z" />
    <glyph glyph-name="Charu_Chandan" horiz-adv-x="1359" 
d="M797 1330h3l-138 -165l-105 -132l-66 -87l-45 -69l159 -67l216 6l144 -105l52 51l24 211l-3 165l-6 249l-166 42zM242 1381l12 -3l-69 87l9 -9l-3 69l-6 36l-9 36l54 120l78 15l30 63l171 -42l-156 -180l-39 -129l75 -135l174 -3l-3 3l84 48q3 15 7.5 31.5t7.5 31.5
l-6 -3l24 39l-3 -3l69 87l-21 -6l81 36q15 -3 19.5 -4.5t19.5 -4.5l96 -27l51 39h40q42 -3 105 -9t105 -9h-3l168 -27l123 -9q-12 -21 -21 -33t-21 -30l-114 12l-177 -18l9 -276l-42 -33l24 -90l-33 -244l27 -171l-24 -12l3 -144l36 -108l-3 3l27 -285q6 -9 21 -25.5
t24 -31.5l-42 -48l-105 -33q-6 0 -19.5 3t-19.5 3l-106 72l18 -6l-12 24q0 15 1.5 31.5t1.5 31.5l12 177l46 48l-31 90l-66 198l-114 36l-147 45l-108 57h-144l-72 -42l-12 -30l-12 -30l-144 -126l-3 -3q-24 15 -42 25.5t-36 19.5l-9 93l-9 -9l42 60l39 54h-6l306 319v-3
l45 48l-105 51l3 51l-96 93z" />
    <glyph glyph-name="Charu_Chandan" horiz-adv-x="658" 
d="M833 951l-58 90l-93 94l-204 83l-122 -29l-194 -51l-3 -100l-7 -142l149 -49l-13 154q32 -17 93 12q39 -52 74.5 -59t80.5 -13q-6 -19 -11 -33.5t-11 -34.5l-23 -14q0 -9 -1.5 -16t-1.5 -16l13 9l-100 -94l-116 -105q-7 0 -16.5 -3t-16.5 -3q-51 31 -98 65.5t-99 65.5
l13 -3q-16 20 -32 38.5t-32 38.5l9 -9q0 40 -1.5 77t-1.5 77l-6 -5l35 51l16 68l-16 -8l123 105h-3q22 17 48 34.5t52 34.5q42 0 74 2.5t68 2.5l22 -14q26 0 60 -3t63 -3l194 -59l-10 2q26 -14 54 -28q27 -14 53 -29zM948 1416l-137 -10l-184 -43l-91 17h4l-246 37l-219 17
l-207 9q-42 0 -82 1.5t-82 1.5l132 54h-19l129 11h-4l68 6h297l449 -3l245 29h1z" />
    <glyph glyph-name="Charu_Chandan" horiz-adv-x="921" 
d="M840 1317h9l-71 59l-160 110l-95 18l-143 -161l3 -89l252 -86l30 -18l-27 15l-74 -276l74 -12l199 214l125 157l-80 42h3zM1004 1124l-137 -113l-83 -77l-80 -98l-101 -116l-9 -3l-166 151l95 217l-6 95q-15 0 -58 -1.5t-70 -1.5l-157 33l-83 -6l-48 24l89 136l-18 -3
l119 68l42 45l80 71q15 0 28 -1.5t25 -1.5l184 -9l146 -6l74 -71l151 -104h-6l72 -59l-113 -187zM1201 342l1 1v3zM1012 696l-23 158v-3q0 11 -1.5 27.5t-1.5 28.5l9 119l-6 219q0 27 -3 62.5t-3 62.5l18 157l-24 -8l68 47h51l103 -27l372 -18h74q15 0 26.5 -1t26.5 -1
l-27 -75l-172 6l-127 -6l-101 -3l-119 -32v-33q0 -15 -1.5 -35.5t-1.5 -35.5l-9 -158l6 -184l27 -172l-7 -95h-154z" />
    <glyph glyph-name="Charu_Chandan" horiz-adv-x="1789" 
d="M1802 1456h6h-152l-286 -3l-391 -6h-96l-188 -9h3l-62 -3l-105 -12l-71 -21q41 -66 87.5 -140.5t88.5 -139.5q0 -9 3 -21t3 -21v3l-21 -84l-15 -59l3 3l-81 -227l349 -140l167 -18l-56 104l6 -6q0 27 3 66t3 65l9 164l8 185q0 24 3 46.5t3 46.5q36 6 60 9t57 9h62l188 9
l179 -69l36 -9l33 -119l-51 -230q0 -6 -3 -15t-3 -15l-128 -59v-6l-66 110l-50 51l137 53l6 54l-42 188l-33 30l-250 -122v-185l-12 -149l-6 -263v-84l3 -50l36 -236l29 -84l-3 3q0 -14 -3 -30.5t-3 -31.5l-140 -36l-53 18q-12 3 -19.5 6t-19.5 6l-3 241l6 96l-66 101
l-51 63l-167 104l-215 27l-107 -116l12 3q-42 -27 -94 -57t-97 -56l-98 41l-36 21l95 63l161 128l120 140l53 156q0 14 -1.5 29t-1.5 30l-3 -3l54 200l-140 122l-125 81l-90 39l-206 12h-128l12 92l75 -21l307 6q6 12 16.5 25.5t19.5 28.5l41 -18l96 -15l170 -15l134 -6
l197 -3l140 -3l439 6l200 3h232l117 -3q15 0 27 -1.5t27 -1.5q3 0 7 -3t10 -3h6l-107 -24l-140 -26z" />
    <glyph glyph-name="Charu_Chandan" horiz-adv-x="1368" 
d="M1036 1477l-190 -6l-105 -115l-85 -99l-30 -36l-105 -148l-88 -193l-84 -45l18 -24q27 0 83 -1.5t89 -1.5q39 -6 76.5 -12t76.5 -12h-12l196 -69l96 39l9 117l10 184q3 39 7.5 78t7.5 79l12 102l-55 45zM1162 1019v-78.5t-1.5 -99.5t-1.5 -102v-87l-36 -256l27 63l3 -72
l48 -181v3l18 -196l-39 -24q-48 -9 -90 -19.5t-90 -19.5l-25 21h-6l-18 190l-3 -3l43 147l-40 181l-117 123h3l-27 31l-223 144l-184 -6h-63l-93 -135q-15 -19 -30 -40l-30 -42q-28 0 -40 1.5t-36 1.5q-30 15 -55.5 28.5t-55.5 28.5q6 12 13.5 26t13.5 26l-6 -3l78 90
q18 24 39 45t40 45l183 214l69 81l46 130l-24 105l-196 85h-214h-66l-211 -3h-9l18 9l-3 -3l226 96l42 -30l310 6l169 3l202 9h12l228 9l91 30l93 -69q45 6 104 13.5t104 13.5h-6l153 6q18 0 39.5 1.5t39.5 1.5l-85 -78q12 0 -7.5 -4.5t-34.5 -7.5l-186 6l-85 -94l-6 -202
q6 -60 12 -117t12 -117z" />
    <glyph glyph-name="Charu_Chandan" horiz-adv-x="1833" 
d="M-126 1541h25h40l96 -3h93h134h145h165h59h177h282h149h310h217h208h177l-199 -65l-37 -3l-102 -3l-62 -3l-174 -3h-53l-217 -3l-99 -3h-223l-208 -3h-146h-146h-344h-174h-332l164 49zM1620 881q25 -38 54.5 -75t54.5 -74l-9 9l9 -143l-46 -189l6 3q-13 -21 -27 -41.5
t-26 -42.5l3 4l-71 -87h3l-134 -186q-55 -10 -77 -27t-44 -32l-40 3l-177 -22q-111 12 -216.5 26t-217.5 27l-202 59q-9 6 -18.5 12t-18.5 13h13l-100 96l-68 74h3l-115 155h3l-28 53v-3l-65 139h3l-43 97l102 93l66 -34l83 9l19 -40l-3 3l31 -180l-31 -31l53 -112l179 -211
l106 -93l133 -71l218 -16l96 -3l282 43l84 140l-16 -9l50 53l71 114l13 217l-19 100l-71 149l-121 -53l-87 -47l-90 -83h9l-121 -62l-133 -13h3q-19 0 -45 1.5t-48 1.5l-78 84l10 -3l-50 127l3 -6q0 46 3 96t3 96l-3 -3l31 99v-3l47 146l-7 -3l16 22l248 -112q3 0 -9.5 -6
t-9 -37t3.5 -66l12 10l-140 -158l-6 -143l239 25l127 46l137 264q0 6 3 6t3 6q22 -24 46.5 -46t37 -36t34.5 -36h-3l105 -148z" />
    <glyph glyph-name="Charu_Chandan" horiz-adv-x="1134" 
d="M1113 881l34 105l6 60q-6 40 -16 77t-16 77v-3l-11 79l-100 151l-48 -2h-40l-103 -3l-168 -3l-307 -3l-69 -40l57 -105l154 -37h-8l162 -72l-9 3l92 -65l-9 3l71 -83l63 -54l31 -31l34 -77l163 23h37zM1768 1527l-125 -57q-15 -6 -36 -16t-36 -15l-168 23l-242 2
l106 -125l17 -74l40 -228l-9 -80l3 3l-17 -57l8 3l-131 -134l-14 3q-34 0 -75.5 -1.5t-78.5 -1.5l-108 32h6l-43 22l-88 137l-92 71l12 -5l-46 54q-17 20 -22 17l-3 3l-134 65l-188 -11l-111 -183l3 -79h62l17 -3l37 3l-28 17l88 31q23 6 46 11.5t45 11.5q40 -31 75.5 -58
t75.5 -59l-145 -117l-17 -28h3l-111 -154l5 3l-20 -20l-2 3l-131 88h5l-85 86l11 -9q-17 63 -37 124t-37 124l3 -6l9 34l-3 -3l40 92l-12 -6l137 122l-51 168l-120 63l-134 14l-148 12q28 17 41 27t39 24q28 6 49.5 14.5t49.5 14.5h-2l133 22l248 -48l-51 23l128 -17l314 -9
l190 -3q35 12 70.5 24.5t69.5 24.5h-9l114 20l63 -29l-3 3l23 -17l65 -12l143 -2h122h288v28h-91z" />
    <glyph glyph-name="Charu_Chandan" horiz-adv-x="1375" 
d="M807 636l166 -142l42 261l-30 350l45 42l-42 279q-32 0 -91.5 -3t-98.5 -3l-80 15l-267 3l154 -128l-14 6l65 -142l-3 5l3 -112l47 -193q-44 -48 -82.5 -91t-83.5 -90l3 3l-47 -51l196 3q14 0 26 -1.5t27 -1.5h-3zM1647 1524l-6 -54l-166 -23q-42 0 -85 2.5t-78 2.5
l-104 24l-12 -80q0 -9 -1.5 -19.5t-1.5 -18.5l-12 -164v3l-21 -157l33 -119l-33 -184l48 -166l-3 3l-24 -202l48 -47l23 -18l-12 -175q0 -24 1.5 -65.5t1.5 -65.5l-97 -44q-30 -6 -48 -6l-59 39l-6 222h-18l-24 86l3 -3l-9 107l-391 187l-89 6l-110 -18q-15 -30 -37.5 -64
t-39.5 -63q-60 -6 -106 -10.5t-96 -10.5l50 98l-12 -6l152 133l62 92l45 63l65 77l71 127l-3 172l-104 75l9 -3l-32 41l-282 134l-69 29q-32 0 -146.5 -3t-149.5 -3l-33 33l220 53q80 -32 78.5 -14.5t-7.5 32.5q32 3 44 6t45 6h-3q24 0 46 1.5t46 1.5l172 -80q30 6 67 18
t69 18l128 -9l291 -15l142 -6q21 15 40.5 29.5t39.5 29.5l143 -29l308 -15z" />
    <glyph glyph-name="Charu_Chandan" horiz-adv-x="3" 
d="M58 2031l-68 -16l-203 -182l-46 -73h3l-84 -81q-19 3 -31 5.5t-18 5.5l-70 57l51 43l136 111l103 81h-3q22 14 43.5 34t43.5 34q38 19 73 32.5t73 32.5q5 -3 5 -1.5t3 -1.5l13 -32z" />
    <glyph glyph-name="Charu_Chandan" horiz-adv-x="1603" 
d="M732 1051l-207 6h-74l-199 -254l-18 -33l-6 -47l3 -128l15 -127l142 -89l113 56l12 77l-68 56l11 -6l-17 33l86 89q32 0 54.5 1.5t48.5 1.5l77 -56l39 -36q-45 -38 -77 -62h3l-42 -134l-29 -103l-24 -104q-59 -3 -108 -1.5t-99 -1.5l-184 187l9 -3l-30 59l-98 172h3
l-35 86l47 204l139 116h-3l104 74l-9 -3l134 53h-12l124 21q36 -6 68.5 -12t68.5 -11h-3l83 -21l169 -119l44 128l-30 -9l131 47h-12l62 6l107 -157l53 317l-139 137h-208l-171 2h-89h-149h-145h-222l-139 3h-54h-145q50 24 75.5 39t72.5 39l62 2h152h56l264 -2h12l257 -3
l232 -3l329 -6l26 26l27 27q80 -30 103.5 -33t38.5 -3h-3l267 -11l53 -9q-32 -21 -54.5 -31.5t-51.5 -28.5q-39 -6 -68.5 -10t-68.5 -10l-59 -9q-113 -57 -117 -102.5t-7 -72.5l-9 -65l-21 -234l-6 -66l-3 -92l9 -186l21 -148l20 -98l30 15l-3 -158v-85l30 -119
q-12 -9 -13.5 -13.5t-13.5 -13.5h3l-33 -23h3l-62 -36l-18 9l21 -3l-33 -3q-5 0 -15.5 4.5t-16.5 7.5q-9 6 -28.5 15t-13.5 3h12q-3 0 -6 3t-3 5l30 27q-9 0 -37 -1.5t-46 -1.5l-3 116v124l27 199l17 198v131l-2 62l-48 157l-222 -18q0 -53 -1.5 -109.5t-1.5 -109.5l-12 -80
q-21 3 -27 9l-97 71l-12 98z" />
    <glyph glyph-name="Charu_Chandan" horiz-adv-x="1020" 
d="M475 969l-197 -254l-21 143l-132 -15q-6 9 -10.5 18t-10.5 18q9 12 18 22.5t15 22.5l-6 -3l215 209l21 105l-6 138l-146 95l-132 39l-86 -6h-144l-9 6v21l96 9h-3q33 0 68.5 -1.5t68.5 -1.5h-3l138 -15q30 -3 55.5 -7.5t55.5 -7.5l68 -57l30 -23l117 -57l132 110l14 3
q18 9 42 24t45 27q6 0 12 3t9 3q18 -6 33 -12t33 -12l105 -51h-9l233 -191l-12 269l120 72l36 -69l83 6l114 -6l212 -6q15 0 34.5 -1.5t34.5 -1.5l-9 -42l-137 6q-24 -3 -40.5 -7.5t-37.5 -7.5l-192 -12l-68 -53v-51l-12 -180l-12 -206l-18 -320l-144 43l6 65l6 194v99l3 89
l-6 3l-84 129l-80 108l-153 27l-147 -93l-77 -174l57 -116l167 -93l-12 3l78 -84l-171 -122l-92 170z" />
    <glyph glyph-name="Charu_Chandan" horiz-adv-x="877" 
d="M400 958l31 -25l112 9q47 -6 90.5 -12.5t89.5 -12.5l140 -40l13 133l-13 56l-161 112h-162q-15 -46 -37 -97.5t-37 -98.5l3 -15zM723 1225l150 -56l-3 230l-125 21l-183 13l-168 -28l221 -118h-3l115 -65zM901 681l-87 112l-134 109l-68 18l-199 -40h3l-230 -41l-19 -74
l-121 9l31 50l-15 -6l108 71l159 124l93 181v3l-106 115l-99 68l-158 62l-218 -3h-180q-9 0 -21.5 1.5t-22.5 1.5l-12 72l165 15l192 -15h56l137 43l189 -34l190 6l155 3l202 13l34 12l134 16h3l41 -44l348 -15l83 15q19 -22 28.5 -25t18.5 -3l-43 22l-13 -19l-233 -77
l-59 37l-202 -196l-3 -15l19 -295q0 -35 3 -70.5t3 -69.5l15 12l-84 -84h7z" />
    <glyph glyph-name="Charu_Chandan" horiz-adv-x="1148" 
d="M1223 898l-18 -151q-3 -9 -21 -31t-32 -40q-21 6 -35.5 12t-29.5 12l-18 153l-68 86l-168 94l-97 39l-160 -74l-12 -77h3q-5 -15 -6.5 -31t-7.5 -31l-101 -159l9 3l-59 -53h9l-115 -74l-286 -68h-6l-36 174l172 -41l-18 -21l180 95l147 67l15 157v139l-106 123l-71 86
l-133 168l-103 -44l-201 21l-150 3q-3 0 -10.5 -4.5t-10.5 -7.5l-47 6h6h-3l159 88l83 -6h150l18 30l100 6h33l44 20l109 -38l101 -15l310 -6l129 9l166 44l106 -11l82 -6l9 -18l59 -29q42 5 96.5 17t98.5 21l89 -41q23 0 51 -1.5t55 -1.5l50 -48l-307 -14l-139 -62
l-44 -107v-301l6 6l-21 -38zM1084 1402l-227 12l-254 -12l-112 -29l-36 -45l86 -135l224 -83q33 0 80 -3t79 -3l68 -21l71 86z" />
    <glyph glyph-name="Charu_Chandan" horiz-adv-x="871" 
d="M1497 1544l-71 -26l-84 -61l-75 -2h-123l-228 -8l-120 -4l17 -44l98 -125h-2q27 -41 50 -86t49 -86l-46 -157l-7 -46l-77 -75h4l-77 -55h3l-105 -59l-41 -19l-202 -70q34 -51 45 -43l39 -39l191 -56l44 -19q14 -37 41 -39.5t48 -2.5q14 -7 35 -16.5t38 -14.5
q21 -7 46.5 -19.5t47.5 -21.5l104 -51q-27 -43 -34 -64t-7 -55l-39 -9l-77 34l-24 31l-144 71l3 -3l-147 84h2l-143 93l-7 7l-51 28h3l-233 136l-53 -12q-33 22 -64.5 40t-65.5 38q36 12 62.5 20.5t60.5 19.5h55q10 -1 18.5 -5t18.5 -6h-7l67 -34l-12 2l73 -51q3 -12 23 -2
t20 19l112 22l85 32l164 70l72 152l-9 80l9 121l-53 89l-94 152l-106 33l-122 18l-114 5l-40 -70l7 -130l75 -121l24 -34l-66 -83l17 5l-89 -36h12l-114 -4l-9 12l12 123l10 215l-10 32l8 98l-262 -10l-145 -9h3l23 9l-18 -5l195 81h48l151 27h-3q22 5 42.5 13t42.5 13
l41 -9l150 -28l136 -18l72 4l201 3l80 2l64 3l241 2l50 3z" />
    <glyph glyph-name="Charu_Chandan" horiz-adv-x="1771" 
d="M1721 1447h6l-65 -9h3l-219 -8l-217 -15l-165 -12h2l-154 -6l-11 -166v-101l9 -156q0 -42 -1.5 -88t-1.5 -87l-15 -107l103 3l172 98l104 77q9 18 20.5 41.5t17.5 41.5h-3q12 23 21 45.5t24 46.5l35 -42l57 -53l-9 6l115 -243l-6 6v-39l9 -260l9 9l-124 -193l9 3l-48 -38
h6l-74 -51l-136 -71l15 3l-222 -44l-77 14q-51 -5 -98.5 -12.5t-115.5 1.5l45 14q-60 18 -138 46t-141 49l-130 83l9 -3l-124 145l-75 86l-97 113l12 -6q-6 44 -16.5 91.5t-51.5 145.5q59 -39 72 -33t37 18q39 62 71.5 29.5t67.5 -35.5q21 -39 39 -68.5t38 -67.5l-38 -77
l9 -18l88 -101h-2l56 -68l103 -101l151 -112l125 -59l121 -12l208 3l112 98l104 168l50 143l12 154l-77 228l-193 -181h3l-71 -53h9l-216 -110l-27 -21q-32 21 -53 36t-30 24v225l-11 189l-9 65q-3 51 -7.5 99.5t-7.5 99.5q0 29 -1.5 57.5t-1.5 57.5v-3l15 65l-252 -6
l-80 -2l-186 -9h2l-136 -3l-171 -9q-30 0 -58 -1.5t-58 -1.5l9 59l148 -21l71 21l130 42l148 -12l187 -15q15 0 32.5 -1.5t32.5 -1.5h-3l196 -15l106 74l54 3q5 0 9.5 1.5t10.5 1.5l-29 3l50 -36l101 -11l192 -3l391 3l231 -6q6 0 12 -1.5t12 -1.5q12 -3 23.5 -7.5
t23.5 -7.5l-56 -36zM856 -143l18 -3l107 -145l-9 9v-71q-15 -15 -56.5 -41.5t-53.5 -44.5l-53 9l-116 124q0 30 -3 55t-3 55q33 12 56.5 20.5t53.5 17.5l47 15h12z" />
    <glyph glyph-name="Charu_Chandan" horiz-adv-x="1425" 
d="M1744 1525q-28 -6 -40 -10.5t-21.5 -7.5t-20 -6t-35.5 -10l-150 -24l-147 -6l-135 -3h-132q-96 -3 -192.5 -8t-191.5 -8l-28 -3l-190 -24l-123 -46q0 -40 -3 -94t-3 -94l-9 -171l-3 -105q6 -18 12 -38t12 -39l19 -159l15 -132l12 -98l22 -203l-40 -37l120 -70l279 -53
l178 25l129 107l95 145l9 76l-83 234l-233 138l-28 -215l4 3l-83 -246q-25 0 -51 -1.5t-54 -1.5l-67 231l73 76l19 13l-6 49l-9 116q0 13 -3.5 20.5t-3.5 19.5l92 22q34 0 58.5 -1.5t58.5 -1.5l273 -71l-18 3l58 -49l-9 3l135 -181l-9 6l52 -344l-114 -18l-21 -31h3
l-199 -230l-139 46l-165 9l-62 -6h-126l-135 22l-104 -31l-138 74l12 98l-9 215l28 172v67q0 46 3 92t3 92l21 335v153l-6 31l-61 114l-255 6h-144h-25l71 37l70 12l126 -3l138 30l92 53l132 -16h-9l28 -15l211 -6l117 -3l141 -3l166 -3l86 -3l196 -4l169 -6l151 -3l101 -3
h43zM693 -143l18 -3l107 -145l-9 9v-71q-15 -15 -56.5 -41.5t-53.5 -44.5l-53 9l-116 124q0 30 -3 55t-3 55q33 12 56.5 20.5t53.5 17.5l47 15h12z" />
    <glyph glyph-name="Charu_Chandan" horiz-adv-x="1387" 
d="M615 299l18 -3l109 -149l-9 9v-73q-15 -15 -57.5 -42.5t-54.5 -45.5l-55 9l-119 128q0 30 -3 56t-3 56q33 12 57.5 21.5t55.5 18.5l48 15h13zM817 636l166 -142l42 261l-30 350l45 42l-42 279q-32 0 -91.5 -3t-98.5 -3l-80 15l-267 3l154 -128l-14 6l65 -142l-3 5l3 -112
l47 -193q-44 -48 -82.5 -91t-83.5 -90l3 3l-47 -51l196 3q14 0 26 -1.5t27 -1.5h-3zM1657 1524l-6 -54l-166 -23q-42 0 -85 2.5t-78 2.5l-104 24l-12 -80q0 -9 -1.5 -19.5t-1.5 -18.5l-12 -164v3l-21 -157l33 -119l-33 -184l48 -166l-3 3l-24 -202l48 -47l23 -18l-12 -175
q0 -24 1.5 -65.5t1.5 -65.5l-97 -44q-30 -6 -48 -6l-59 39l-6 222h-18l-24 86l3 -3l-9 107l-391 187l-89 6l-110 -18q-15 -30 -37.5 -64t-39.5 -63q-60 -6 -106 -10.5t-96 -10.5l50 98l-12 -6l152 133l62 92l45 63l65 77l71 127l-3 172l-104 75l9 -3l-32 41l-282 134l-69 29
q-32 0 -146.5 -3t-149.5 -3l-33 33l220 53q80 -32 78.5 -14.5t-7.5 32.5q32 3 44 6t45 6h-3q24 0 46 1.5t46 1.5l172 -80q30 6 67 18t69 18l128 -9l291 -15l142 -6q21 15 40.5 29.5t39.5 29.5l143 -29l308 -15z" />
    <glyph glyph-name="Charu_Chandan" horiz-adv-x="3" 
d="M40 2030l-68 -16l-205 -183l-46 -74h3l-85 -82q-19 3 -31.5 5.5t-17.5 5.5l-71 57l52 44l136 112l104 82h-3q22 13 44 33.5t44 34.5q38 19 73.5 32.5t73.5 33.5q6 -3 6 -1.5t2 -1.5l14 -33z" />
    <glyph glyph-name="Charu_Chandan" horiz-adv-x="1372" 
d="M1036 1477l-190 -6l-105 -115l-85 -99l-30 -36l-105 -148l-88 -193l-84 -45l18 -24q27 0 83 -1.5t89 -1.5q39 -6 76.5 -12t76.5 -12h-12l196 -69l96 39l9 117l10 184q3 39 7.5 78t7.5 79l12 102l-55 45zM1162 1019v-78.5t-1.5 -99.5t-1.5 -102v-87l-36 -256l27 63l3 -72
l48 -181v3l18 -196l-39 -24q-48 -9 -90 -19.5t-90 -19.5l-25 21h-6l-18 190l-3 -3l43 147l-40 181l-117 123h3l-27 31l-223 144l-184 -6h-63l-93 -135q-15 -19 -30 -40l-30 -42q-28 0 -40 1.5t-36 1.5q-30 15 -55.5 28.5t-55.5 28.5q6 12 13.5 26t13.5 26l-6 -3l78 90
q18 24 39 45t40 45l183 214l69 81l46 130l-24 105l-196 85h-214h-66l-211 -3h-9l18 9l-3 -3l226 96l42 -30l310 6l169 3l202 9h12l228 9l91 30l93 -69q45 6 104 13.5t104 13.5h-6l153 6q18 0 39.5 1.5t39.5 1.5l-85 -78q12 0 -7.5 -4.5t-34.5 -7.5l-186 6l-85 -94l-6 -202
q6 -60 12 -117t12 -117zM371 616l109 -25l60 11l161 -98l54 -74l28 -63l36 -125l1 -130l-76 -66l-62 86l41 152l-32 4l-37 166l-168 50l-15 25l-158 19z" />
    <glyph glyph-name="Charu_Chandan" horiz-adv-x="1523" 
d="M1159 341l3 321l-6 172l-9 164v80l3 199l3 113q0 35 1.5 69.5t1.5 69.5q30 9 41.5 15t41.5 15h-9l71 12l75 -21q23 -3 51.5 -7.5t55.5 -7.5l163 -41l-30 -27q-41 -3 -66.5 -7.5t-66.5 -7.5h3h-110l-39 -41l-33 -173l-12 -80l9 -193l30 -169l24 -137l-30 -149l-24 -115
l39 -39l-9 6l9 -24l-6 3l27 -178v3l3 -110q6 -15 19 -30t22 -29l-107 -39q-20 0 -41 -1.5t-39 -4.5q-24 9 -50.5 18t-14.5 6v133l18 128q-15 39 -33 85t-77 67l-33 62l-229 128l-187 -45l-53 -83l6 3l-86 -80h8q-47 -27 -93 -56.5t-94 -59.5l-104 71l18 -9l-33 89l137 72
l208 166l51 51l133 163l45 74l18 60l20 104l27 136l-148 161l-66 3l-6 -199l6 6l-53 -98l6 3q-36 -42 -37.5 -89.5t-93.5 -65.5l-146 68l-62 72l-92 104l12 -9l12 160l-6 -6l44 95l45 18l59 -77l-12 6l15 -71l36 -81l140 -160l32 232l-18 124l-44 116l-9 9l196 -27h-12
q3 -3 10.5 -4.5t13.5 -1.5l154 -83h-11l151 -154l-15 12l6 -12q3 -51 7.5 -106t7.5 -105l6 6l-65 -128q-3 -15 -6 -27t-6 -26l3 3q-24 -54 -52.5 -107.5t-51.5 -106.5l-119 -45l181 -41h-6q51 -18 104.5 -39t124.5 -54z" />
    <glyph glyph-name="Charu_Chandan" horiz-adv-x="1781" 
d="M1802 1456h6h-152l-286 -3l-391 -6h-96l-188 -9h3l-62 -3l-105 -12l-71 -21q41 -66 87.5 -140.5t88.5 -139.5q0 -9 3 -21t3 -21v3l-21 -84l-15 -59l3 3l-81 -227l349 -140l167 -18l-56 104l6 -6q0 27 3 66t3 65l9 164l8 185q0 24 3 46.5t3 46.5q36 6 60 9t57 9h62l188 9
l179 -69l36 -9l33 -119l-51 -230q0 -6 -3 -15t-3 -15l-128 -59v-6l-66 110l-50 51l137 53l6 54l-42 188l-33 30l-250 -122v-185l-12 -149l-6 -263v-84l3 -50l36 -236l29 -84l-3 3q0 -14 -3 -30.5t-3 -31.5l-140 -36l-53 18q-12 3 -19.5 6t-19.5 6l-3 241l6 96l-66 101
l-51 63l-167 104l-215 27l-107 -116l12 3q-42 -27 -94 -57t-97 -56l-98 41l-36 21l95 63l161 128l120 140l53 156q0 14 -1.5 29t-1.5 30l-3 -3l54 200l-140 122l-125 81l-90 39l-206 12h-128l12 92l75 -21l307 6q6 12 16.5 25.5t19.5 28.5l41 -18l96 -15l170 -15l134 -6
l197 -3l140 -3l439 6l200 3h232l117 -3q15 0 27 -1.5t27 -1.5q3 0 7 -3t10 -3h6l-107 -24l-140 -26z" />
    <glyph glyph-name="Charu_Chandan" horiz-adv-x="876" 
d="M1036 1477l-190 -6l-105 -115l-85 -99l-30 -36l-105 -148l-88 -193l-84 -45l18 -24q27 0 83 -1.5t89 -1.5q39 -6 76.5 -12t76.5 -12h-12l196 -69l96 39l9 117l10 184q3 39 7.5 78t7.5 79l12 102l-55 45zM1162 1019v-78.5t-1.5 -99.5t-1.5 -102v-87l-36 -256l27 63l3 -72
l48 -181v3l18 -196l-39 -24q-48 -9 -90 -19.5t-90 -19.5l-25 21h-6l-18 190l-3 -3l43 147l-40 181l-117 123h3l-27 31l-223 144l-184 -6h-63l-93 -135q-15 -19 -30 -40l-30 -42q-28 0 -40 1.5t-36 1.5q-30 15 -55.5 28.5t-55.5 28.5q6 12 13.5 26t13.5 26l-6 -3l78 90
q18 24 39 45t40 45l183 214l69 81l46 130l-24 105l-196 85h-214h-66l-211 -3h-9l18 9l-3 -3l226 96l42 -30l310 6l169 3l202 9h12l228 9l91 30l93 -69q45 6 104 13.5t104 13.5h-6l153 6q18 0 39.5 1.5t39.5 1.5l-85 -78q12 0 -7.5 -4.5t-34.5 -7.5l-186 6l-85 -94l-6 -202
q6 -60 12 -117t12 -117z" />
    <glyph glyph-name="Charu_Chandan" horiz-adv-x="869" 
d="M-297 1522l99 1l313 5l132 3h129l159 6q3 3 9 21q20 -3 32 -6t26 -6l112 -26l264 -6l96 6l156 5l29 -67l-211 32l3 3q-24 -9 -44.5 -20.5t-43.5 -20.5h12l-173 -23l-88 -35l-33 -206q0 -6 -2.5 -16t-2.5 -16v3l-39 -179l30 -185l20 -164v3l3 -105l38 -191l-17 -47l6 -149
l29 -86l-59 -79l-9 -6q-46 -5 -87.5 -11t-87.5 -12q5 21 -9 23q-15 6 -24 15t3 3v29l47 203l18 205l-3 191l-9 208l-117 64l-232 50h-73l-200 -3l-149 -220l-85 -32l53 -252l32 -106l211 -111l70 217l-67 38l61 91l159 50l47 -9q0 -6 3 -10q2 -4 3 -8q-6 -23 -12 -45
t-12 -46l3 3l-67 -193q0 -65 2.5 -126.5t2.5 -125.5l-32 5l-211 12q-53 9 -102.5 19.5t-102.5 21.5l-41 214l-112 88l12 -6l-67 121l6 -9l20 82v158l-6 -9l59 91l-12 -3l53 47h-3l214 147q56 0 98.5 -3t95.5 -3l331 -44l108 -6l44 41l21 68l-3 44l6 132l-3 143l-326 35
l-246 -2l-217 -3h-40v90z" />
    <glyph glyph-name="Charu_Chandan" horiz-adv-x="1011" 
d="M689 1511q21 12 40.5 25.5t43.5 28.5l86 -27l222 -21h77h21t24 3q-9 -15 -12 -22.5l-9 -22.5l-128 -6l-189 -12l-68 -176l2 -162l6 -164v-114l9 -155l6 -117l27 -266l-21 -102v-92l33 -123q-39 -12 -65.5 -18t-62.5 -15q-51 12 -73.5 28.5t-73.5 28.5l57 54l-6 56
q0 27 3 54t3 54v-3l39 275l-6 117l-3 27l-48 197l-99 75l-218 54l-120 -6l-233 -36l-84 -78l-80 -161l30 -189l9 -194l266 -96l65 186q0 9 1.5 18t1.5 18l-35 3h-9l-63 65l15 -12v33l6 21l-21 -6l90 51l140 36l72 -9q-12 -51 -25.5 -103.5t-25.5 -102.5l-21 -78l-15 -150
v-122l21 12l-42 -27l-143 21l-60 12l-60 12h12l-168 71l12 -3l-92 72l6 -3l-72 81l6 -3l-69 129l6 -3l-48 272l27 60l-15 -6l189 152l53 51h-8l110 60l15 74l-72 213l-212 161q-75 -6 -160 -13.5t-160 -13.5h-3l18 18l-18 -3q42 15 81 30t81 30h-12l275 57l113 -30
q24 0 49.5 -1.5t49.5 -1.5h-3l242 -9q18 0 37.5 -1.5t37.5 -1.5h-3l242 -9zM91 1230l3 -117l9 -77l176 -24l263 -39l129 -6l6 209q-3 18 -7.5 37.5t-7.5 37.5v-3l-12 203l-395 -3l-143 -15l-102 -29l78 -153h-3z" />
    <glyph glyph-name="Charu_Chandan" horiz-adv-x="786" 
d="M1051 1515l9 -35l-140 -29l-164 -6h-163l-158 -105q-14 -32 -27 -61.5t-28 -61.5l12 6l-88 -76l-58 -125l6 -239l90 -70l190 -146l-24 3l70 -85l-8 6q11 -32 20 -70t21 -70l-24 -146v-158q-41 -17 -77.5 -34.5t-76.5 -35.5h-91l-70 -32q-12 0 -12 -1.5t-8 1.5l87 105
l67 76l73 73q0 18 1.5 47t1.5 46l26 152l-113 131l-59 62l-58 52l-47 44l6 -3q-50 73 -99.5 144.5t-78.5 164.5l50 -67l-24 117l97 128q5 6 8 13.5t9 13.5l114 154l-403 47l-81 -23l-15 75l184 12l49 -6l76 -6h70l199 -2l-3 49l49 29q3 0 13.5 -3t16.5 -3l221 -75l129 5
l201 12z" />
    <glyph glyph-name="Charu_Chandan" horiz-adv-x="1894" 
d="M381 846l76 -44h77q32 0 61.5 -3t62.5 -3l229 -85l68 82l9 124v-3l18 132l29 198l-24 179l-223 -82l-18 -24l-124 -174l-109 -161zM287 222q32 0 71.5 3t72.5 3l53 -9l109 -18l362 -71l53 198l-15 17l-29 157l-18 100l-94 44h3l-121 59v-3l-153 73l-100 -3l-127 -14
l-59 -39l-50 -61q-6 -12 -10 -18t-10 -18h3l-47 -85l-115 35l29 106l-12 -6l118 133l41 47l106 124l127 170l65 95l97 156l50 14l-12 30h-144l-221 3h-82l-215 3l-136 3h-41l3 3l224 53q6 3 17.5 7t20.5 7l203 -3l150 -2l65 -3l183 -3l200 41l221 -56l73 56l109 -12l121 -9
l130 -6l182 -6l142 -5l173 -3h33l44 -15l-203 -18h9l-68 -20h6l-65 -9l-130 -3h-223h-248l156 -91q42 -24 80 -52t79 -52h-3l27 -17l-9 3l171 -177l-12 9l-9 -174v-94q-59 6 -107.5 7.5t-98.5 4.5l-41 50l12 44l-3 -3l14 32l-14 -5l35 32l85 -9l6 118l-100 165l-138 97
l-192 38l-50 -100v-118l6 -212l3 -123l9 -83l-9 -103v-144l36 -100l23 -30l-21 -94l18 -183l6 -47l29 -82l-17 -3l-18 -6l-41 12q-32 6 -66 13t-67 13l-111 133l-313 62h9l-73 14l-59 -29l-89 -3q-35 -6 -72 -16.5t-72 -15.5l-138 -9l-62 -15q-33 12 -65 23.5t-65 26.5
l100 38h-8l44 12h-3l120 24z" />
    <glyph glyph-name="Charu_Chandan" horiz-adv-x="1885" 
d="M381 846l76 -44h77q32 0 61.5 -3t62.5 -3l229 -85l68 82l9 124v-3l18 132l29 198l-24 179l-223 -82l-18 -24l-124 -174l-109 -161zM287 222q32 0 71.5 3t72.5 3l53 -9l109 -18l362 -71l53 198l-15 17l-29 157l-18 100l-94 44h3l-121 59v-3l-153 73l-100 -3l-127 -14
l-59 -39l-50 -61q-6 -12 -10 -18t-10 -18h3l-47 -85l-115 35l29 106l-12 -6l118 133l41 47l106 124l127 170l65 95l97 156l50 14l-12 30h-144l-221 3h-82l-215 3l-136 3h-41l3 3l224 53q6 3 17.5 7t20.5 7l203 -3l150 -2l65 -3l183 -3l200 41l221 -56l73 56l109 -12l121 -9
l130 -6l182 -6l142 -5l173 -3h33l44 -15l-203 -18h9l-68 -20h6l-65 -9l-130 -3h-223h-248l156 -91q42 -24 80 -52t79 -52h-3l27 -17l-9 3l171 -177l-12 9l-9 -174v-94q-59 6 -107.5 7.5t-98.5 4.5l-41 50l12 44l-3 -3l14 32l-14 -5l35 32l85 -9l6 118l-100 165l-138 97
l-192 38l-50 -100v-118l6 -212l3 -123l9 -83l-9 -103v-144l36 -100l23 -30l-21 -94l18 -183l6 -47l29 -82l-17 -3l-18 -6l-41 12q-32 6 -66 13t-67 13l-111 133l-313 62h9l-73 14l-59 -29l-89 -3q-35 -6 -72 -16.5t-72 -15.5l-138 -9l-62 -15q-33 12 -65 23.5t-65 26.5
l100 38h-8l44 12h-3l120 24z" />
    <glyph glyph-name="Charu_Chandan" horiz-adv-x="1533" 
d="M1152 341l3 321l-6 172l-9 164v80l3 199l3 113q0 35 1.5 69.5t1.5 69.5q30 9 41.5 15t41.5 15h-9l71 12l75 -21q23 -3 51.5 -7.5t55.5 -7.5l163 -41l-30 -27q-41 -3 -66.5 -7.5t-66.5 -7.5h3h-110l-39 -41l-33 -173l-12 -80l9 -193l30 -169l24 -137l-30 -149l-24 -115
l39 -39l-9 6l9 -24l-6 3l27 -178v3l3 -110q6 -15 19 -30t22 -29l-107 -39q-20 0 -41 -1.5t-39 -4.5q-24 9 -50.5 18t-14.5 6v133l18 128q-15 39 -33 85t-77 67l-33 62l-229 128l-187 -45l-53 -83l6 3l-86 -80h8q-47 -27 -93 -56.5t-94 -59.5l-104 71l18 -9l-33 89l137 72
l208 166l51 51l133 163l45 74l18 60l20 104l27 136l-148 161l-66 3l-6 -199l6 6l-53 -98l6 3q-36 -42 -37.5 -89.5t-93.5 -65.5l-146 68l-62 72l-92 104l12 -9l12 160l-6 -6l44 95l45 18l59 -77l-12 6l15 -71l36 -81l140 -160l32 232l-18 124l-44 116l-9 9l196 -27h-12
q3 -3 10.5 -4.5t13.5 -1.5l154 -83h-11l151 -154l-15 12l6 -12q3 -51 7.5 -106t7.5 -105l6 6l-65 -128q-3 -15 -6 -27t-6 -26l3 3q-24 -54 -52.5 -107.5t-51.5 -106.5l-119 -45l181 -41h-6q51 -18 104.5 -39t124.5 -54zM1336 372l9 -24l23 -30l-21 -94l18 -183l6 -47l29 -82
l-17 -3l-18 -6l-41 12q-32 6 -66 13t-67 13l-111 133l-313 62h9l-73 14l-59 -29l-89 -3q-35 -6 -72 -16.5t-72 -15.5l-138 -9l-62 -15q-33 12 -65 23.5t-65 26.5l100 38h-8l44 12h-3l120 24l157 -3q32 0 71.5 3t72.5 3l53 -9l109 -18l362 -71l53 198l-15 17l-20 109z" />
    <glyph glyph-name="Charu_Chandan" horiz-adv-x="1506" 
d="M1815 1514l23 3l-64 -15l-161 -64q-14 0 -30.5 1.5t-27.5 1.5l-181 11l-56 -102q0 -32 -1.5 -61t-1.5 -62v3l-35 -309l-9 -138l6 -58l21 -117l8 -44v3l15 -152l55 -231l-23 -35l6 -70l15 -35l-88 -55l-23 -53l-100 67l-67 15l32 140l41 272l12 128l3 68l-3 213l-15 134
l-47 155l-43 91l-71 81l-184 147l-137 26l-82 6l-204 -152l-56 -67l-32 -91l175 15l217 -100v-143v3q-6 -26 -12 -55.5t-12 -55.5h3l-64 -240l3 3l-9 -11q-47 -6 -85 -16.5t-79 -18.5q-26 14 -46.5 28.5t-43.5 29.5l204 164l9 70q-6 29 -11.5 58t-11.5 59l-21 146l-55 35
l-383 -6l79 166l126 123h-3l35 29q8 9 21.5 16.5t24.5 16.5l234 26l47 35l111 -12h-9l94 -26h-6l172 -82l-9 3l170 -143l26 272l-26 17q41 0 71.5 1.5t71.5 1.5l12 -23l58 -18l190 -17q61 2 127 6.5t130 7.5zM1318 372l9 -24l23 -30l-21 -94l18 -183l6 -47l29 -82l-17 -3
l-18 -6l-41 12q-32 6 -66 13t-67 13l-111 133l-313 62h9l-73 14l-59 -29l-89 -3q-35 -6 -72 -16.5t-72 -15.5l-138 -9l-62 -15q-33 12 -65 23.5t-65 26.5l100 38h-8l44 12h-3l120 24l157 -3q32 0 71.5 3t72.5 3l53 -9l109 -18l362 -71l53 198l-15 17l-20 109z" />
    <glyph glyph-name="Charu_Chandan" horiz-adv-x="1377" 
d="M203 1427l-39 -80l86 -281l122 56h-6l86 26q11 -26 14 -41t15 -39l-77 -201q0 -12 -1.5 -21t-1.5 -20l15 11l-107 -100l175 18l276 -74h-6l163 -66l50 68l29 69l15 305l-50 210l21 181l-196 -27l-98 30l-302 2l-77 -2l-47 -6zM1574 1554l-15 -29h3q-44 -21 -79.5 -37.5
t-77.5 -34.5l-246 3l-14 -106q0 -15 1.5 -34t1.5 -34l-21 -222l53 -270q0 -24 -3 -44.5t-3 -44.5l-12 -163q0 -20 -41 -44q15 -50 31 -102t31 -102l-3 3v-110l30 -113h-3l12 -59l-98 -56l47 15l-89 -15l-8 -6h-24h3l-68 9l-3 145v62l-21 148l-65 110l-128 130l-109 80
l-133 68l-217 -15l-17 -124l14 9l-35 -36l18 3l-116 -41q-23 3 -39.5 6t-40.5 6l27 -3q-6 6 -21 19t-21 19l77 157v-3l104 172l89 190q-9 0 -43 -1.5t-43 -1.5h3q-24 3 -50.5 7t-50.5 7h15l-83 39l24 -9l-65 127q-6 9 -10.5 15t-10.5 15l47 104l-6 -3l69 92h-276l-65 -6
l116 91l174 -8l104 11l53 24l89 -6h-9l65 -24l252 -8h237h118l42 38h154l166 -30q97 -3 213 21zM1157 372l9 -24l23 -30l-21 -94l18 -183l6 -47l29 -82l-17 -3l-18 -6l-41 12q-32 6 -66 13t-67 13l-111 133l-313 62h9l-73 14l-59 -29l-89 -3q-35 -6 -72 -16.5t-72 -15.5
l-138 -9l-62 -15q-33 12 -65 23.5t-65 26.5l100 38h-8l44 12h-3l120 24l157 -3q32 0 71.5 3t72.5 3l53 -9l109 -18l362 -71l53 198l-15 17l-20 109z" />
    <glyph glyph-name="Charu_Chandan" horiz-adv-x="1186" 
d="M307 1147l-14 -28l-3 -131l-2 -42l2 -134l39 -305l151 201l-8 -6l142 124l77 66l105 112l-151 69l2 -3l-293 168zM1595 1534l-14 -19l28 5l-154 -44l-124 -33l-206 6l-217 3l-214 2h-112l-116 -2l-148 -6l5 -16l50 -88l68 -72l248 -162l63 -24h44q27 -6 57.5 -17
t57.5 -19l113 -60q-25 -9 -20 -17l-24 -49l-151 -80l-127 -107l-13 -36l16 6l-143 -102l-99 -68l-52 -55l-71 -91q-55 -58 -55 -82h-17l-137 57q25 234 30 313l6 -8l-8 88v173v52v187l-28 198l-184 65l-30 88l162 11l88 47l132 -44l-9 3l66 -44l193 22h-6l104 3l171 2l173 3
h35l146 3l187 3l211 5h25zM971 936l9 -24l23 -594l-21 -94l18 -183l6 -47l29 -82l-17 -3l-18 -6l-41 12q-32 6 -66 13t-67 13l-111 133l-313 62h9l-73 14l-59 -29l-89 -3q-35 -6 -72 -16.5t-72 -15.5l-138 -9l-62 -15q-33 12 -65 23.5t-65 26.5l100 38h-8l44 12h-3l120 24
l157 -3q32 0 71.5 3t72.5 3l53 -9l109 -18l362 -71l53 198l-15 17l-20 673z" />
    <glyph glyph-name="Charu_Chandan" horiz-adv-x="1383" 
d="M312 1147l-14 -28l-3 -131l-2 -42l2 -134l39 -305l151 201l-8 -6l142 124l77 66l105 112l-151 69l2 -3l-293 168zM1600 1534l-14 -19l28 5l-154 -44l-124 -33l-206 6l-217 3l-214 2h-112l-116 -2l-148 -6l5 -16l50 -88l68 -72l248 -162l63 -24h44q27 -6 57.5 -17
t57.5 -19l113 -60q-25 -9 -20 -17l9 -74l88 -69l57 -96l-14 6l9 -8q11 -22 27.5 -54t29.5 -56q-13 -31 -27 -58t-28 -58l14 6l-63 -50h3l-231 -164l-58 -20l204 -120h41l203 -110h-11l6 -6l-64 -159q-13 3 -16 3h-8l-58 27l-88 58l-187 126l-85 58l-140 88l-82 44h11l-6 5
l204 80l27 19h-3l225 143l66 99l22 151l-52 16l-66 80l11 -8l6 52l-151 -80l-127 -107l-13 -36l16 6l-143 -102l-99 -68l-52 -55l-71 -91q-55 -58 -55 -82h-17l-137 57q25 234 30 313l6 -8l-8 88v173v52v187l-28 198l-184 65l-30 88l162 11l88 47l132 -44l-9 3l66 -44
l193 22h-6l104 3l171 2l173 3h35l146 3l187 3l211 5h25zM1058 161l9 -24l23 -30l-21 -94l18 -183l6 -47l29 -82l-17 -3l-18 -6l-41 12q-32 6 -66 13t-67 13l-111 133l-313 62h9l-73 14l-59 -29l-89 -3q-35 -6 -72 -16.5t-72 -15.5l-138 -9l-62 -15q-33 12 -65 23.5t-65 26.5
l100 38h-8l44 12h-3l120 24l157 -3q32 0 71.5 3t72.5 3l53 -9l109 -18l362 -71l53 198l-15 17l-20 109z" />
    <glyph glyph-name="Charu_Chandan" horiz-adv-x="2149" 
d="M2287 1500l-66 3l-38 -22l-43 -3l-445 -25l-135 -15l-75 -16l-87 -88l184 -112l82 -54l159 -40q22 6 47 14t50 14l141 -41v32h3l-122 -207l-100 -204q16 -28 28.5 -60.5t28.5 -64.5l-38 -94l16 -153l12 -41l-25 -78l81 -222l-103 -41q-34 16 -57.5 30t-58.5 29l22 69
l-50 176l3 -3q10 100 22.5 208t21.5 208h28l66 222l53 200l-244 -34q-34 22 -65.5 42.5t-65.5 42.5l-169 106h3l-116 75h3l-69 50l-216 97l31 -91l-106 -150l-38 -150l-3 -50l25 -197l288 12l213 157l28 56q13 -16 17.5 -20.5t9.5 -6t9.5 -8t17.5 -18.5l-10 3q13 -25 24 -58
t23 -58l69 -169l-3 6l12 -147l-6 -109v-248l22 13q-44 -31 -92.5 -62.5t-92.5 -62.5l-137 -69h9l-194 -53q-34 -4 -62.5 -8.5t-62.5 -7.5l-222 19h9q-31 6 -67 17t-68 20q-18 13 -52.5 28.5t-56.5 28.5l-129 68h7l-113 101h3l-69 65l10 -6l-60 110h3l-116 263l4 -7
q0 19 3 41t3 41l-41 153q97 -50 116 -34.5t81 3.5l50 -53l-9 3l50 -138l-37 -84l106 -144l-6 6l72 -222l72 -69l112 -75l188 -69l157 -10l100 -6l194 141l47 47l91 150l19 204l-16 119l-22 178l-172 -135l15 3l-262 -90h-135q-47 6 -95.5 18.5t-95.5 21.5l-47 44l19 -15
l22 181l-7 -3l107 191q0 19 -1.5 34.5t-1.5 34.5l-3 -3l43 141l29 109l-254 41q-53 0 -109.5 1.5t-109.5 1.5h3l-432 22l-88 22q-3 3 -6 3q0 3 -1.5 6t-1.5 6l6 4q44 3 89.5 7.5t89.5 7.5h-3l212 3l270 -3l169 -3q12 0 24.5 -1.5t28.5 -1.5l69 -9l328 40q32 10 60 16t59 16
l50 -51h66l75 -6l129 -6l122 -3h47l353 -3h116h185v-35h-31zM1891 144l9 -24l23 -30l-21 -94l18 -183l6 -47l29 -82l-17 -3l-18 -6l-41 12q-32 6 -66 13t-67 13l-111 133l-313 62h9l-73 14l-59 -29l-89 -3q-35 -6 -72 -16.5t-72 -15.5l-138 -9l-62 -15q-33 12 -65 23.5
t-65 26.5l100 38h-8l44 12h-3l120 24l157 -3q32 0 71.5 3t72.5 3l53 -9l109 -18l362 -71l53 198l-15 17l-20 109z" />
    <glyph glyph-name="Charu_Chandan" horiz-adv-x="1454" 
d="M1822 1477l-191 3l3 3l-81 -31l-101 -6l-59 3h-148h-167h-129l-142 3h-247l-191 -111l-22 -148l-12 -74q3 -68 7.5 -137.5t8.5 -136.5l6 6l-22 -37q6 -90 17 -181t17 -180q0 -56 3 -113t3 -112l6 6l-21 -37v-31l129 -65l151 -52l124 -25l136 28l194 136l80 101l-22 161
l-12 -13l46 59l-61 111l-232 123l-55 -18q21 -34 47.5 -69.5t47.5 -69.5l-9 9q3 -33 8 -67t8 -68l-108 -111l-111 -16q-6 0 -14 1.5t-14 1.5l-40 56l9 -9l15 209l7 50l-37 157l-7 -9l28 61l-15 -6l52 37q40 0 74 3t71 3l111 -40q37 -6 83.5 -15t86.5 -15l99 -118l-7 3
l56 -101l-6 3l40 -222l3 9q-12 -34 -26 -71t-26 -71h3l-16 -22l9 7l-132 -130h9q-43 -25 -92.5 -52.5t-92.5 -52.5l-46 -6l-256 22h-133h3l-148 9l-136 -28l-21 31q-6 0 -14 3t-17 6l-12 176l-3 93v123v129l6 145q0 28 1.5 57.5t1.5 57.5l21 274l4 68v154l-7 31l-58 139
l-253 -19h9l-160 -9h-25l-37 105l46 -19q50 6 124 -1.5t126 -1.5l204 3l61 56l-24 -3l114 15l117 -55l228 -7h84l129 223l-123 141l-105 53l-210 46l-71 -21h-126l-161 -28l-120 -28q-25 -6 -48 -17t-48 -17h3q-43 -9 -81.5 -32t-90.5 -14h-13q28 9 0 83l229 40h-3l246 22
l127 28l157 33l244 19l65 -19h-4l99 -30h-3q37 -16 74 -36t49 -26l65 -133l56 -92l-65 -161l49 -30l96 -10l129 -3l346 6l182 7zM1222 253l9 -176l23 -30l-21 -94l18 -183l6 -47l29 -82l-17 -3l-18 -6l-41 12q-32 6 -66 13t-67 13l-111 133l-313 62h9l-73 14l-59 -29l-89 -3
q-35 -6 -72 -16.5t-72 -15.5l-138 -9l-62 -15q-33 12 -65 23.5t-65 26.5l100 38h-8l44 12h-3l120 24l157 -3q32 0 71.5 3t72.5 3l53 -9l109 -18l362 -71l53 198l-15 17l-20 109z" />
    <glyph glyph-name="Charu_Chandan" horiz-adv-x="1528" 
d="M563 677l-71 -90l-93 -112l-102 -118l15 -46l-3 -90l121 -149q31 0 73 1.5t76 1.5l93 -37l183 34l102 71l34 25h-3l115 81l56 133l9 260v-3l18 100l-34 68l-74 149l-109 164l-90 112l-189 145l-59 -198q-3 -44 -7.5 -81t-7.5 -80v3l-9 -84l-41 -245zM1661 1445l-143 7
l-223 6l-186 3h-81l-152 -74l90 -97l174 -179q9 -13 27.5 -37.5t9.5 -15.5h-6l115 -192l-7 6l53 -199l19 -80q3 -44 7.5 -84t7.5 -84v4l-12 -47l9 6l-152 -198l10 3l-47 -40l-167 -140q-38 -6 -62.5 -10.5t-61.5 -11.5h3l-149 -12l-121 22q-37 0 -91.5 3t-94.5 3
q-34 6 -68 17t-68 17h9l-155 56l-31 15l15 -3q-127 96 -127 75l72 96l111 173h-3l84 127l68 124l59 128l-6 -4l83 128l22 89l22 134l-3 180l-59 127q-62 0 -254.5 -3t-254.5 -3h3l-223 9l-6 3l205 53l121 9h-4l345 6q-4 19 -10 47t-9 46l-22 180l-3 -6l59 201l-12 -9l86 74
l100 84h-3l120 105h-9l137 53l-56 9l248 109l56 -93l-295 -84l-62 -56l-115 -139l-68 -93l13 -462l114 19l19 -19q80 3 176.5 0t176.5 0l205 -3h236h105l115 3h105q6 0 12.5 1.5t12.5 1.5l-9 -46zM1234 329l15 -279l23 -30l-21 -94l18 -183l6 -47l29 -82l-17 -3l-18 -6
l-41 12q-32 6 -66 13t-67 13l-111 133l-313 62h9l-73 14l-59 -29l-89 -3q-35 -6 -72 -16.5t-72 -15.5l-138 -9l-62 -15q-33 12 -65 23.5t-65 26.5l100 38h-8l44 12h-3l120 24l157 -3q32 0 71.5 3t72.5 3l53 -9l109 -18l362 -71l53 198l-15 17l-20 109z" />
    <glyph glyph-name="Charu_Chandan" horiz-adv-x="1800" 
d="M1073 1543l396 -16q18 0 46 -1.5t47 -1.5l265 -9h78l90 -3h56l-22 -50l-87 34q-34 -6 -68.5 -17t-65.5 -17l-199 -13h3l-78 -6l-268 -12l-249 -10l-71 -3q-3 -34 -8 -79t-8 -83l-19 -96l7 -131l6 -215l28 -128l84 16l-16 -12l103 74l115 112l94 103l43 75
q28 -37 51.5 -67t45.5 -56.5t45 -56t51 -66.5l-6 3l38 -84q0 -53 -3.5 -106t-3.5 -106l3 6l-43 -112l-50 -137l12 7l-161 -156h12l-181 -94l-124 -3l-159 -28q-37 13 -49.5 5t-18.5 -14h-63l-165 44l-134 49l13 -3l-128 91l9 -4l-99 113h3l-65 93l3 -3q-35 71 -73.5 139.5
t-73.5 140.5h3q-6 19 -15 37.5t-16 40.5l109 100l112 -113l13 -59v3v-12l12 9l-43 -62l43 -62h-6l93 -153l28 -50l85 -155l183 -56l249 -84q32 12 78 37l78 -6l199 34l72 156h-3l78 134l-15 488l-91 -87l-206 -68l-43 -78q-35 -13 -59.5 -23.5t-55.5 -20.5l-134 -31l-88 66
l22 227l-37 34l15 -9l-21 171l46 78l-6 221l-3 112l-218 -3l-159 -6l-155 -3l-181 -4l-121 -3q-35 0 -49 -1.5t-48 -1.5q34 22 43.5 31.5t40.5 27.5q41 7 70.5 11.5t66.5 10.5l302 10l252 3h16h-6l93 -10l131 35q25 0 70 1.5t70 1.5zM1482 329l15 -279l23 -30l-21 -94
l18 -183l6 -47l29 -82l-17 -3l-18 -6l-41 12q-32 6 -66 13t-67 13l-111 133l-313 62h9l-73 14l-59 -29l-89 -3q-35 -6 -72 -16.5t-72 -15.5l-138 -9l-62 -15q-33 12 -65 23.5t-65 26.5l100 38h-8l44 12h-3l120 24l157 -3q32 0 71.5 3t72.5 3l53 -9l109 -18l362 -71l53 198
l-15 17l-20 109z" />
    <glyph glyph-name="Charu_Chandan" horiz-adv-x="1485" 
d="M1753 1525q-28 -6 -40 -10.5t-21.5 -7.5t-20 -6t-35.5 -10l-150 -24l-147 -6l-135 -3h-132q-96 -3 -192.5 -8t-191.5 -8l-28 -3l-190 -24l-123 -46q0 -40 -3 -94t-3 -94l-9 -171l-3 -105q6 -18 12 -38t12 -39l19 -159l15 -132l12 -98l22 -203l-40 -37l120 -70l279 -53
l178 25l129 107l95 145l9 76l-83 234l-233 138l-28 -215l4 3l-83 -246q-25 0 -51 -1.5t-54 -1.5l-67 231l73 76l19 13l-6 49l-9 116q0 13 -3.5 20.5t-3.5 19.5l92 22q34 0 58.5 -1.5t58.5 -1.5l273 -71l-18 3l58 -49l-9 3l135 -181l-9 6l52 -344l-114 -18l-21 -31h3
l-199 -230l-139 46l-165 9l-62 -6h-126l-135 22l-104 -31l-138 74l12 98l-9 215l28 172v67q0 46 3 92t3 92l21 335v153l-6 31l-61 114l-255 6h-144h-25l71 37l70 12l126 -3l138 30l92 53l132 -16h-9l28 -15l211 -6l117 -3l141 -3l166 -3l86 -3l196 -4l169 -6l151 -3l101 -3
h43zM1230 329l15 -279l23 -30l-21 -94l18 -183l6 -47l29 -82l-17 -3l-18 -6l-41 12q-32 6 -66 13t-67 13l-111 133l-313 62h9l-73 14l-59 -29l-89 -3q-35 -6 -72 -16.5t-72 -15.5l-138 -9l-62 -15q-33 12 -65 23.5t-65 26.5l100 38h-8l44 12h-3l120 24l157 -3q32 0 71.5 3
t72.5 3l53 -9l109 -18l362 -71l53 198l-15 17l-20 109z" />
    <glyph glyph-name="Charu_Chandan" horiz-adv-x="1681" 
d="M649 1227l-45 -68l-14 -189l62 -180l47 -77l142 6l112 153l-103 107q8 3 17 9q6 3 13.5 5.5t13.5 5.5q29 9 51.5 19.5t51.5 19.5q15 -3 28.5 -7.5t27.5 -7.5q15 -6 33 -12t35 -12l-88 -183l20 -47l-56 -201l21 -136l-201 39h3l-148 15l-127 159l6 -3l-56 160l-94 144
l8 -9q3 54 7.5 110t7.5 109l-17 -12l65 59l53 47l130 127l224 12l44 -9l89 -11h-3l124 -30h-9l281 -94h-59l136 -57l-12 3q6 -6 11.5 -7t11.5 -7q0 -15 -3 -31.5t-3 -30.5l-11 -184l-24 -14l-12 -127l30 -121l-3 -367l32 -138l15 -59v2q0 -23 1.5 -49.5t1.5 -50.5l21 12
l-59 -47q-30 -6 -50.5 -12t-47.5 -12l-35 24l-148 68v-3l-59 32q-15 6 -32.5 18t-32.5 18l12 -3l-83 68l-177 29h9l-74 33l-100 -3l-145 -9l-183 -104l-24 6l-18 -6l-17 6h-74l-44 15q-18 6 -41.5 13.5t-41.5 13.5l-12 14q53 15 94.5 30t91.5 29l186 21h-6l47 3l204 18h-3
q42 0 81.5 3t81.5 3l79 -21l216 -41l225 -42q-6 51 -13.5 114.5t-13.5 113.5v-3l21 174l14 183l-3 160l-17 109l-30 77l-18 23l-162 98l-124 50l-115 27zM1910 1531l-89 -89l-189 6l-174 3h-145h-127l-97 3h-148l-127 3h-148l-194 3h-54l-239 3h-29q23 12 44 21t44 17h-9
l86 24h195l112 3h92h171h180h145h106h169l248 3h44h133z" />
    <glyph glyph-name="Charu_Chandan" horiz-adv-x="1846" 
d="M2118 1533l-19 -3l-118 -84l-103 28l-93 -3l-131 -4l-87 -3h-125l-283 3h-218l-302 4q-25 0 -54.5 1.5t-54.5 1.5l-405 12q-13 0 -28.5 1.5t-24.5 1.5l-280 -28h9l-25 38l-3 62l59 3l411 -28h97h274h115h44h302l286 -3h181h152h47h121h231h25zM645 1234l19 -9
q-7 12 -7 24l47 -3l221 -3h143q25 -6 51.5 -15.5t51.5 -15.5l230 -140l134 -81h-3l159 -109l-65 -100l-3 -221v-71q0 -31 -3.5 -62.5t-3.5 -62.5l10 9q-16 -24 -36 -46t-36 -47h3l-90 -106l12 3l-183 -112l-119 -37h10l-203 -28l-81 -22l-168 19l-93 9l-181 47l22 -3
l-149 149l-113 103l-12 12l6 -3l-112 150l-56 90l6 -6l-53 177l119 69l93 -22l53 -346q3 3 44 59v-6l77 -311h165q41 -16 80 -31.5t79 -30.5h-3l181 -72l180 56l212 112l56 34l84 137q0 63 3.5 123.5t3.5 122.5l34 -21l20 190l-114 68l19 -6l-22 47l-87 102l-184 91l-102 12
l-105 -5l-23 -297l-3 -56l112 -62h-3l6 -3l-19 -153l13 6l-41 -53l22 6l-118 -40q-35 6 -64.5 11t-63.5 11l-34 75l50 242l-10 159l-25 128l22 112zM1511 329l15 -279l23 -30l-21 -94l18 -183l6 -47l29 -82l-17 -3l-18 -6l-41 12q-32 6 -66 13t-67 13l-111 133l-313 62h9
l-73 14l-59 -29l-89 -3q-35 -6 -72 -16.5t-72 -15.5l-138 -9l-62 -15q-33 12 -65 23.5t-65 26.5l100 38h-8l44 12h-3l120 24l157 -3q32 0 71.5 3t72.5 3l53 -9l109 -18l362 -71l53 198l-15 17l-20 109z" />
    <glyph glyph-name="Charu_Chandan" horiz-adv-x="1493" 
d="M829 1245l-18 12l18 -200q0 -15 1.5 -34.5t1.5 -34.5l-21 -194l6 6q-6 -15 -16.5 -27t-16.5 -27l12 6l-146 -116l29 -51q27 0 69 -3t75 -3l173 -39l65 36l93 421l-6 -33l3 96l-6 137l-12 128q-9 51 -21 103.5t-21 102.5l-12 -15l21 75l36 -21q18 0 52.5 1.5t64.5 4.5
l26 -39l308 -21q9 0 19.5 -1.5t19.5 -1.5h-6q6 0 15 -1.5t15 -1.5q-6 -6 -18 -12l-18 -9l-191 -38l-150 -141q3 -35 7.5 -71t7.5 -72l6 -224v-71v3l-32 -153v-194l2 -137l27 -352q3 -45 0 -69l-32 -15q-209 3 -207.5 10.5t4.5 10.5l29 179l-41 233l-147 89l-161 63l-188 -6
l-152 -191l15 6l-165 -81l-83 63l15 -6l-30 72l36 30l170 107l152 126l99 101l65 233l-15 -9l60 48l-12 56l-6 -9l27 51l-27 72l-230 173l-200 -188l33 -54l18 -107q3 0 24 1.5t33 1.5q15 -3 24 -7.5t-12 1.5q9 -18 16.5 -42t16.5 -42l-111 -137l-137 63l24 -9l-36 86l3 -3
l-24 155l12 42q3 24 7.5 48t7.5 48l-6 -9l63 113l-15 -3l152 108l-9 -3l72 30h-15q24 3 47.5 7.5t47.5 7.5q9 -6 19.5 -12t19.5 -9l110 -69h-2zM1241 372l9 -24l23 -30l-21 -94l18 -183l6 -47l29 -82l-17 -3l-18 -6l-41 12q-32 6 -66 13t-67 13l-111 133l-313 62h9l-73 14
l-59 -29l-89 -3q-35 -6 -72 -16.5t-72 -15.5l-138 -9l-62 -15q-33 12 -65 23.5t-65 26.5l100 38h-8l44 12h-3l120 24l157 -3q32 0 71.5 3t72.5 3l53 -9l109 -18l362 -71l53 198l-15 17l-20 109z" />
    <glyph glyph-name="Charu_Chandan" horiz-adv-x="1186" 
d="M322 1612l129 -51l105 -12l159 -9h303l227 3l240 -3l69 -39l-162 -6q-60 9 -183 -6l-131 -6h-162h-270l-117 -3l-132 -6l-66 -21l27 -210l-24 -212l21 -198l-30 -99l114 6l198 66l126 75l45 216l15 12l138 134q3 -12 3 -13.5v0t1.5 0t4.5 -13.5h-3l9 -56l6 -84v-315
l-3 -48l21 -138l-21 -168l96 -236l-45 -42q6 -42 12 -88.5t12 -88.5q-51 0 -73.5 -3t-70.5 -3l-24 9l-57 99l3 -3q0 24 1.5 52.5t1.5 52.5l15 135q-3 83 -7.5 165.5t-16.5 181.5l45 -24l-63 243l-150 -69l-39 -36h6l-258 -135l-63 -21q-15 0 -21 3t-17 3l-135 33h-27l66 207
l3 48l-21 93v-3l6 305v69l-15 132h-153l-135 21l60 30q24 3 40.5 6t37.5 6l156 9zM1009 372l9 -24l23 -30l-21 -94l18 -183l6 -47l29 -82l-17 -3l-18 -6l-41 12q-32 6 -66 13t-67 13l-111 133l-313 62h9l-73 14l-59 -29l-89 -3q-35 -6 -72 -16.5t-72 -15.5l-138 -9l-62 -15
q-33 12 -65 23.5t-65 26.5l100 38h-8l44 12h-3l120 24l157 -3q32 0 71.5 3t72.5 3l53 -9l109 -18l362 -71l53 198l-15 17l-20 109z" />
    <glyph glyph-name="Charu_Chandan" horiz-adv-x="1351" 
d="M760 1330h3l-138 -165l-105 -132l-66 -87l-45 -69l159 -67l216 6l144 -105l52 51l24 211l-3 165l-6 249l-166 42zM205 1381l12 -3l-69 87l9 -9l-3 69l-6 36l-9 36l54 120l78 15l30 63l171 -42l-156 -180l-39 -129l75 -135l174 -3l-3 3l84 48q3 15 7.5 31.5t7.5 31.5
l-6 -3l24 39l-3 -3l69 87l-21 -6l81 36q15 -3 19.5 -4.5t19.5 -4.5l96 -27l51 39h40q42 -3 105 -9t105 -9h-3l168 -27l123 -9q-12 -21 -21 -33t-21 -30l-114 12l-177 -18l9 -276l-42 -33l24 -90l-33 -244l27 -171l-24 -12l3 -144l36 -108l-3 3l27 -285q6 -9 21 -25.5
t24 -31.5l-42 -48l-105 -33q-6 0 -19.5 3t-19.5 3l-106 72l18 -6l-12 24q0 15 1.5 31.5t1.5 31.5l12 177l46 48l-31 90l-66 198l-114 36l-147 45l-108 57h-144l-72 -42l-12 -30l-12 -30l-144 -126l-3 -3q-24 15 -42 25.5t-36 19.5l-9 93l-9 -9l42 60l39 54h-6l306 319v-3
l45 48l-105 51l3 51l-96 93zM1133 372l9 -24l23 -30l-21 -94l18 -183l6 -47l29 -82l-17 -3l-18 -6l-41 12q-32 6 -66 13t-67 13l-111 133l-313 62h9l-73 14l-59 -29l-89 -3q-35 -6 -72 -16.5t-72 -15.5l-138 -9l-62 -15q-33 12 -65 23.5t-65 26.5l100 38h-8l44 12h-3l120 24
l157 -3q32 0 71.5 3t72.5 3l53 -9l109 -18l362 -71l53 198l-15 17l-20 109z" />
    <glyph glyph-name="Charu_Chandan" horiz-adv-x="1407" 
d="M1747 1525l29 -67l-211 32l3 3q-24 -9 -44.5 -20.5t-43.5 -20.5h12l-173 -23l-88 -35l-33 -206q0 -6 -2.5 -16t-2.5 -16v3l-39 -179l30 -185l20 -164v3l3 -105l38 -191l-17 -47l6 -149l29 -86l-59 -79l-9 -6q-46 -5 -87.5 -11t-87.5 -12q5 21 -9 23q-15 6 -24 15t3 3v32
v-3l47 203l18 205l-3 191l-9 446l-117 64l-232 50h-73l-200 -3l-149 -220l-85 -32l53 -252l32 -106l211 -111l70 217l-67 38l61 91l159 50l47 -9q0 -6 3 -10.5t3 -10.5v3q-6 -23 -12 -45t-12 -46l3 3l-67 -193q0 -65 2.5 -126.5t2.5 -125.5l-32 5l-211 12q-53 9 -102.5 19.5
t-102.5 21.5l-41 214l-112 88l12 -6l-67 121l6 -9l20 82v158l-6 -9l59 91l-12 -3l53 47h-3l214 147q56 0 98.5 -3t95.5 -3l331 -44l108 -6l44 41l21 68l-3 44l3 37l-326 35l-246 -2l-217 -3h-193h-88h-182h-24q-5 0 -12.5 2.5t-13.5 2.5l15 47l193 12h-14l117 24l261 3
l313 5l132 3h129l159 6q3 3 9 21q20 -3 32 -6t26 -6l112 -26l264 -6l96 6zM1205 372l9 -24l23 -30l-21 -94l18 -183l6 -47l29 -82l-17 -3l-18 -6l-41 12q-32 6 -66 13t-67 13l-111 133l-313 62h9l-73 14l-59 -29l-89 -3q-35 -6 -72 -16.5t-72 -15.5l-138 -9l-62 -15
q-33 12 -65 23.5t-65 26.5l100 38h-8l44 12h-3l120 24l157 -3q32 0 71.5 3t72.5 3l53 -9l109 -18l362 -71l53 198l-15 17l-20 109z" />
    <glyph glyph-name="Charu_Chandan" horiz-adv-x="1405" 
d="M1747 1525l29 -67l-211 32l3 3q-24 -9 -44.5 -20.5t-43.5 -20.5h12l-173 -23l-88 -35l-33 -206q0 -6 -2.5 -16t-2.5 -16v3l-39 -179l30 -185l20 -164v3l3 -105l38 -191l-17 -47l6 -149l29 -86l-59 -79l-9 -6q-46 -5 -87.5 -11t-87.5 -12q5 21 -9 23q-15 6 -24 15t3 3v32
v-3l47 203l18 205l-3 191l-9 446l-117 64l-232 50h-73l-200 -3l-149 -220l-85 -32l53 -252l32 -106l211 -111l70 217l-67 38l61 91l159 50l47 -9q0 -6 3 -10.5t3 -10.5v3q-6 -23 -12 -45t-12 -46l3 3l-67 -193q0 -65 2.5 -126.5t2.5 -125.5l-32 5l-211 12q-53 9 -102.5 19.5
t-102.5 21.5l-41 214l-112 88l12 -6l-67 121l6 -9l20 82v158l-6 -9l59 91l-12 -3l53 47h-3l214 147q56 0 98.5 -3t95.5 -3l331 -44l108 -6l44 41l21 68l-3 44l3 37l-326 35l-246 -2l-217 -3h-193h-88h-182h-24q-5 0 -12.5 2.5t-13.5 2.5l15 47l193 12h-14l117 24l261 3
l313 5l132 3h129l159 6q3 3 9 21q20 -3 32 -6t26 -6l112 -26l264 -6l96 6zM1205 372l9 -24l23 -30l-21 -94l18 -183l6 -47l29 -82l-17 -3l-18 -6l-41 12q-32 6 -66 13t-67 13l-111 133l-313 62h9l-73 14l-59 -29l-89 -3q-35 -6 -72 -16.5t-72 -15.5l-138 -9l-62 -15
q-33 12 -65 23.5t-65 26.5l100 38h-8l44 12h-3l120 24l157 -3q32 0 71.5 3t72.5 3l53 -9l109 -18l362 -71l53 198l-15 17l-20 109z" />
    <glyph glyph-name="Charu_Chandan" horiz-adv-x="1522" 
d="M1056 1072l108 59v12l-102 102l-230 221h-45t-57 -1.5t-58.5 -1.5h-49.5l-104 15l-192 -164l-36 -114l258 -60q38 -6 74 -15t75 -18l51 -86l-75 -198l341 213zM1819 1514l53 -42l-98 -3l-138 -12l-110 -12l-132 -15l-72 -74v-144l-9 -164q0 -30 -3 -60t-3 -60l-9 -242
l3 -141l12 -96l6 -47q0 -6 3 -16.5t6 -16.5l33 -398l-18 -3q-42 -3 -66 -6t-65 -6l-84 6l-54 51l18 -15l51 224l21 168q0 12 3 27t3 26v-2l30 245l9 72l-30 260l-305 -207l-69 -68l-81 -96l9 3l-105 -69l-53 -33q-18 0 -24 3t-21 3l-120 45l147 156l9 35l-45 297l-165 50
q-54 6 -104.5 12t-104.5 12l-15 12l-42 45l153 135l41 42l78 71l-18 -3l207 75h-15q6 0 10.5 1.5t10.5 1.5l355 -63l-20 3l302 -224l-57 290h-6l87 24l83 -6l60 -30l251 -18l195 -3h12zM1313 372l9 -24l23 -30l-21 -94l18 -183l6 -47l29 -82l-17 -3l-18 -6l-41 12
q-32 6 -66 13t-67 13l-111 133l-313 62h9l-73 14l-59 -29l-89 -3q-35 -6 -72 -16.5t-72 -15.5l-138 -9l-62 -15q-33 12 -65 23.5t-65 26.5l100 38h-8l44 12h-3l120 24l157 -3q32 0 71.5 3t72.5 3l53 -9l109 -18l362 -71l53 198l-15 17l-20 109z" />
    <glyph glyph-name="Charu_Chandan" horiz-adv-x="1811" 
d="M1819 1456h6h-152l-286 -3l-391 -6h-96l-188 -9h3l-62 -3l-105 -12l-71 -21q41 -66 87.5 -140.5t88.5 -139.5q0 -9 3 -21t3 -21v3l-21 -84l-15 -59l3 3l-81 -227l349 -140l167 -18l-56 104l6 -6q0 27 3 66t3 65l9 164l8 185q0 24 3 46.5t3 46.5q36 6 60 9t57 9h62l188 9
l179 -69l36 -9l33 -119l-51 -230q0 -6 -3 -15t-3 -15l-128 -59v-6l-66 110l-50 51l137 53l6 54l-42 188l-33 30l-250 -122v-185l-12 -149l-6 -263v-84l3 -50l36 -236l29 -84l-3 3q0 -14 -3 -30.5t-3 -31.5l-140 -36l-53 18q-12 3 -19.5 6t-19.5 6l-3 241l6 96l-66 101
l-51 63l-167 104l-215 27l-107 -116l12 3q-42 -27 -94 -57t-97 -56l-98 41l-36 21l95 63l161 128l120 140l53 156q0 14 -1.5 29t-1.5 30l-3 -3l54 200l-140 122l-125 81l-90 39l-206 12h-128l12 92l75 -21l307 6q6 12 16.5 25.5t19.5 28.5l41 -18l96 -15l170 -15l134 -6
l197 -3l140 -3l439 6l200 3h232l117 -3q15 0 27 -1.5t27 -1.5q3 0 7 -3t10 -3h6l-107 -24l-140 -26zM1134 372l9 -24l23 -30l-21 -94l18 -183l6 -47l29 -82l-17 -3l-18 -6l-41 12q-32 6 -66 13t-67 13l-111 133l-313 62h9l-73 14l-59 -29l-89 -3q-35 -6 -72 -16.5t-72 -15.5
l-138 -9l-62 -15q-33 12 -65 23.5t-65 26.5l100 38h-8l44 12h-3l120 24l157 -3q32 0 71.5 3t72.5 3l53 -9l109 -18l362 -71l53 198l-15 17l-20 109z" />
    <glyph glyph-name="Charu_Chandan" horiz-adv-x="1385" 
d="M1058 1477l-190 -6l-105 -115l-85 -99l-30 -36l-105 -148l-88 -193l-84 -45l18 -24q27 0 83 -1.5t89 -1.5q39 -6 76.5 -12t76.5 -12h-12l196 -69l96 39l9 117l10 184q3 39 7.5 78t7.5 79l12 102l-55 45zM1184 1019v-78.5t-1.5 -99.5t-1.5 -102v-87l-36 -256l27 63l3 -72
l48 -181v3l18 -196l-39 -24q-48 -9 -90 -19.5t-90 -19.5l-25 21h-6l-18 190l-3 -3l43 147l-40 181l-117 123h3l-27 31l-223 144l-184 -6h-63l-93 -135q-15 -19 -30 -40l-30 -42q-28 0 -40 1.5t-36 1.5q-30 15 -55.5 28.5t-55.5 28.5q6 12 13.5 26t13.5 26l-6 -3l78 90
q18 24 39 45t40 45l183 214l69 81l46 130l-24 105l-196 85h-214h-66l-211 -3h-9l18 9l-3 -3l226 96l42 -30l310 6l169 3l202 9h12l228 9l91 30l93 -69q45 6 104 13.5t104 13.5h-6l153 6q18 0 39.5 1.5t39.5 1.5l-85 -78q12 0 -7.5 -4.5t-34.5 -7.5l-186 6l-85 -94l-6 -202
q6 -60 12 -117t12 -117zM1166 372l9 -24l23 -30l-21 -94l18 -183l6 -47l29 -82l-17 -3l-18 -6l-41 12q-32 6 -66 13t-67 13l-111 133l-313 62h9l-73 14l-59 -29l-89 -3q-35 -6 -72 -16.5t-72 -15.5l-138 -9l-62 -15q-33 12 -65 23.5t-65 26.5l100 38h-8l44 12h-3l120 24
l157 -3q32 0 71.5 3t72.5 3l53 -9l109 -18l362 -71l53 198l-15 17l-20 109z" />
    <glyph glyph-name="Charu_Chandan" horiz-adv-x="1555" 
d="M1377 -40l-192 33l-81 66l-24 15l-66 45l-144 57l-123 15q-27 -3 -57 -7.5t-57 -7.5l-201 -12l-116 -36h15l-42 -6q-33 0 -75 1.5t-87 -64.5l-129 90l132 48l213 39l131 30v-27q42 0 109.5 1.5t109.5 1.5h-3l171 -9l123 -33h-3l198 -69q0 6 30 33l-42 69l18 111l15 285
v87l-9 182q0 6 3 9t3 9l-81 -12v0l-141 -155l-54 -60l-231 -24l-90 -6h-33l-51 78l6 -3q-6 20 -16.5 39.5t-16.5 40.5l3 -6q0 57 -1.5 112.5t-1.5 112.5v-3l30 204l-6 -3q9 18 24 42t27 42q27 6 43.5 7.5t40.5 7.5l102 -45l-15 3v6l84 -63q3 0 7.5 -1.5t7.5 -1.5l-21 -75
q0 -24 3 -57t3 -57l-117 -42l-9 -168l69 -69l165 72l159 150l66 144l18 48q39 -27 52.5 -34.5t52.5 -34.5l-9 3l135 -159l-27 -51l-24 -99l-3 -149v-159l-3 -243l60 -123l-6 3l18 -81l-33 -75zM1929 1531l-45 -15h3l-240 -60l-69 -12h-123h-141h-168h-117h-165h-165l-237 -3
h-27h-203h-144h-156h-93h-222l147 42h-15l24 3l174 39h-3l84 12l195 3h159l89 -3h279h42h174l237 -3h84h84h255l171 -3h93h39z" />
    <glyph glyph-name="Charu_Chandan" horiz-adv-x="1950" 
d="M-106 1541h25h40l96 -3h93h134h145h165h59h177h282h149h310h217h208h177l-199 -65l-37 -3l-102 -3l-62 -3l-174 -3h-53l-217 -3l-99 -3h-223l-208 -3h-146h-146h-344h-174h-332l164 49zM1640 921q25 -38 54.5 -75t54.5 -74l-9 9l9 -143l-46 -189l6 3q-13 -21 -27 -41.5
t-26 -42.5l3 4l-71 -87h3l-134 -186q-55 -10 -77 -27t-44 -32l-40 3l-177 -22q-111 12 -216.5 26t-217.5 27l-202 59q-9 6 -18.5 12t-18.5 13h13l-100 96l-68 74h3l-115 155h3l-28 53v-3l-65 139h3l-43 97l102 93l66 -34l83 9l19 -40l-3 3l31 -180l-31 -31l53 -112l179 -211
l106 -93l133 -71l218 -16l96 -3l282 43l84 140l-16 -9l50 53l71 114l13 217l-19 100l-71 149l-121 -53l-87 -47l-90 -83h9l-121 -62l-133 -13h3q-19 0 -45 1.5t-48 1.5l-78 84l10 -3l-50 127l3 -6q0 46 3 96t3 96l-3 -3l31 99v-3l47 146l-7 -3l16 22l248 -112q3 0 -9.5 -6
t-9 -37t3.5 -66l12 10l-140 -158l-6 -143l239 25l127 46l137 264q0 6 3 6t3 6q22 -24 46.5 -46t37 -36t34.5 -36h-3l105 -148zM1665 410l-19 -274l23 -30l-21 -94l18 -183l6 -47l29 -82l-17 -3l-18 -6l-41 12q-32 6 -66 13t-67 13l-111 133l-313 62h9l-73 14l-59 -29l-89 -3
q-35 -6 -72 -16.5t-72 -15.5l-138 -9l-62 -15q-33 12 -65 23.5t-65 26.5l100 38h-8l44 12h-3l120 24l157 -3q32 0 71.5 3t72.5 3l53 -9l109 -18l362 -71l53 198l-15 17l-20 109z" />
    <glyph glyph-name="Charu_Chandan" horiz-adv-x="1455" 
d="M1121 1511q21 12 40.5 25.5t43.5 28.5l86 -27l222 -21h77h21t24 3q-9 -15 -12 -22.5l-9 -22.5l-128 -6l-189 -12l-68 -176l2 -162l6 -164v-114l9 -155l6 -117l27 -266l-21 -102v-92l19 -186q-25 51 -51.5 45t-62.5 -15q-51 12 -73.5 28.5t-16.5 82.5l-6 56q0 27 3 54
t3 54v-3l39 275l-6 117l-3 27l-48 197l-99 75l-218 54l-120 -6l-233 -36l-84 -78l-80 -161l30 -189l9 -194l266 -96l65 186q0 9 1.5 18t1.5 18l-35 3h-9l-63 65l15 -12v33l6 21l-21 -6l90 51l140 36l72 -9q-12 -51 -25.5 -103.5t-25.5 -102.5l-21 -78l-15 -150v-122l21 12
l-42 -27l-143 21l-60 12l-60 12h12l-168 71l12 -3l-92 72l6 -3l-72 81l6 -3l-69 129l6 -3l-48 272l27 60l-15 -6l189 152l53 51h-8l110 60l15 74l-72 213l-212 161q-75 -6 -160 -13.5t-160 -13.5h-3l18 18l-18 -3q42 15 81 30t81 30h-12l275 57l113 -30q24 0 49.5 -1.5
t49.5 -1.5h-3l242 -9q18 0 37.5 -1.5t37.5 -1.5h-3l242 -9zM523 1230l3 -117l9 -77l176 -24l263 -39l129 -6l6 209q-3 18 -7.5 37.5t-7.5 37.5v-3l-12 203l-395 -3l-143 -15l-102 -29l78 -153h-3zM1234 152l9 -24l23 -30l-21 -94l18 -183l6 -47l29 -82l-17 -3l-18 -6l-41 12
q-32 6 -66 13t-67 13l-111 133l-313 62h9l-73 14l-59 -29l-89 -3q-35 -6 -72 -16.5t-72 -15.5l-138 -9l-62 -15q-33 12 -65 23.5t-65 26.5l100 38h-8l44 12h-3l120 24l157 -3q32 0 71.5 3t72.5 3l53 -9l109 -18l362 -71l53 198l-15 17l-20 109z" />
    <glyph glyph-name="Charu_Chandan" horiz-adv-x="1342" 
d="M764 636l166 -142l42 261l-30 350l45 42l-42 279q-32 0 -91.5 -3t-98.5 -3l-80 15l-267 3l154 -128l-14 6l65 -142l-3 5l3 -112l47 -193q-44 -48 -82.5 -91t-83.5 -90l3 3l-47 -51l196 3q14 0 26 -1.5t27 -1.5h-3zM1604 1524l-6 -54l-166 -23q-42 0 -85 2.5t-78 2.5
l-104 24l-12 -80q0 -9 -1.5 -19.5t-1.5 -18.5l-12 -164v3l-21 -157l33 -119l-33 -184l48 -166l-3 3l-24 -202l48 -47l23 -18l-12 -175q0 -24 1.5 -65.5t1.5 -65.5l-97 -44q-30 -6 -48 -6l-59 39l-6 222h-18l-24 86l3 -3l-9 107l-391 187l-89 6l-110 -18q-15 -30 -37.5 -64
t-39.5 -63q-60 -6 -106 -10.5t-96 -10.5l50 98l-12 -6l152 133l62 92l45 63l65 77l71 127l-3 172l-104 75l9 -3l-32 41l-282 134l-69 29q-32 0 -146.5 -3t-149.5 -3l-33 33l220 53q80 -32 78.5 -14.5t-7.5 32.5q32 3 44 6t45 6h-3q24 0 46 1.5t46 1.5l172 -80q30 6 67 18
t69 18l128 -9l291 -15l142 -6q21 15 40.5 29.5t39.5 29.5l143 -29l308 -15zM1146 372l9 -24l23 -30l-21 -94l18 -183l6 -47l29 -82l-17 -3l-18 -6l-41 12q-32 6 -66 13t-67 13l-111 133l-313 62h9l-73 14l-59 -29l-89 -3q-35 -6 -72 -16.5t-72 -15.5l-138 -9l-62 -15
q-33 12 -65 23.5t-65 26.5l100 38h-8l44 12h-3l120 24l157 -3q32 0 71.5 3t72.5 3l53 -9l109 -18l362 -71l53 198l-15 17l-20 109z" />
    <glyph glyph-name="Charu_Chandan" horiz-adv-x="1468" 
d="M447 969l-197 -254l-21 143l-132 -15q-6 9 -10.5 18t-10.5 18q9 12 18 22.5t15 22.5l-6 -3l215 209l21 105l-6 138l-146 95l-132 39l-86 -6h-144l-9 6v21l96 9h-3q33 0 68.5 -1.5t68.5 -1.5h-3l138 -15q30 -3 55.5 -7.5t55.5 -7.5l68 -57l30 -23l117 -57l132 110l14 3
q18 9 42 24t45 27q6 0 12 3t9 3q18 -6 33 -12t33 -12l105 -51h-9l233 -191l-12 269l120 72l36 -69l83 6l114 -6l212 -6q15 0 34.5 -1.5t34.5 -1.5l-9 -42l-137 6q-24 -3 -40.5 -7.5t-37.5 -7.5l-192 -12l-68 -53v-51l-12 -180l-12 -206l-18 -266l63 -255q0 -23 2.5 -44
t2.5 -45l15 12l-41 -48l18 -99l35 -161v3q0 -18 3 -42t3 -42l-104 -33h9l-96 -18l-36 39l-18 131l-33 24l21 183l9 173l3 108l6 168l6 194v99l3 89l-6 3l-84 129l-80 108l-153 27l-147 -93l-77 -174l57 -116l167 -93l-12 3l78 -84l-171 -122l-92 170zM1279 372l9 -24l23 -30
l-21 -94l18 -183l6 -47l29 -82l-17 -3l-18 -6l-41 12q-32 6 -66 13t-67 13l-111 133l-313 62h9l-73 14l-59 -29l-89 -3q-35 -6 -72 -16.5t-72 -15.5l-138 -9l-62 -15q-33 12 -65 23.5t-65 26.5l100 38h-8l44 12h-3l120 24l157 -3q32 0 71.5 3t72.5 3l53 -9l109 -18l362 -71
l53 198l-15 17l-20 109z" />
    <glyph glyph-name="Charu_Chandan" horiz-adv-x="1377" 
d="M1615 1504l-154 -15l-129 -19q-9 0 -19.5 -1.5t-17.5 -1.5h-93l9 -246l9 9l-60 -82q6 -51 12 -105t12 -105l-12 -127l-15 -159l21 -187l-33 -21l81 -106l-12 6l45 -231v-61l12 9l-54 -69l15 3q-24 -12 -42 -24t-42 -24q-24 0 -48 1.5t-21 -1.5l-54 187l3 -3l-13 129
l-36 99l-75 133l-141 93l-214 33l-145 -36l-96 -102h3q-24 -21 -48 -43.5t-48 -43.5l-73 9l-135 105l150 54l103 54l150 157l85 93l9 115l-3 -6l45 123l-6 42l-181 301l-60 -3h-105l-283 61l-91 -46q-15 0 -27 3l-24 6q42 28 72 44.5t73 40.5l123 -3l147 45l58 30l108 -84
l118 3l156 3l301 6l69 9l241 -42q15 6 41 13.5t44 13.5l120 -3q48 6 95 13.5t95 13.5zM522 1464l30 -93l120 -126l-6 -94l72 -84l139 -45h-3l169 -66l-40 159l40 160l6 123l-109 75l-220 3zM678 1040l-27 -111l9 6l-102 -157h3l-78 -84l9 -9l84 -46l78 -3q39 0 75.5 -1.5
t75.5 -1.5l247 -99l6 265l-136 154l-135 36zM1183 372l9 -24l23 -30l-21 -94l18 -183l6 -47l29 -82l-17 -3l-18 -6l-41 12q-32 6 -66 13t-67 13l-111 133l-313 62h9l-73 14l-59 -29l-89 -3q-35 -6 -72 -16.5t-72 -15.5l-138 -9l-62 -15q-33 12 -65 23.5t-65 26.5l100 38h-8
l44 12h-3l120 24l157 -3q32 0 71.5 3t72.5 3l53 -9l109 -18l362 -71l53 198l-15 17l-20 109z" />
    <glyph glyph-name="Charu_Chandan" horiz-adv-x="1495" 
d="M1169 -12q-21 20 -41.5 21.5t-44.5 7.5l24 86l17 158l18 187v-3l9 118l-15 30l-65 86l-157 139l-152 17l-107 -9l-98 -258l9 3l-148 -160l-101 -125l-149 -30q-30 -3 -58 -7.5t-58 -7.5q-3 0 -7.5 1.5t-7.5 1.5q6 36 15 74.5t15 71.5l54 -9l234 18l89 133l-3 -3l36 75
l30 231l-45 253l-41 86l-119 117l-190 149q-15 0 -39 -1.5t-44 -4.5l-45 30l-113 3l-142 -12h3q-6 0 -10.5 -1.5t-10.5 -1.5l-6 9l-12 -24q21 9 43 22t43 25l134 45l154 89l116 -33l116 -12l24 -38h294l118 3l226 9l116 12l71 23h104l89 -29l268 -30q11 -12 17 -21t15 -21
l-113 -11l-44 -3l-184 -12l26 -57l-32 15v-92l-21 -279l-3 -60l6 -210l15 -81l29 -65l-29 -145l12 -119l44 -54v-74l-12 -134l12 -80l12 12l-83 -86l-166 30zM1136 1481l-139 -3l-146 -6l-148 -2l-164 -6l-216 -3l154 -101l74 -54l63 -117l-3 3l41 -149v3l9 -92v-21l71 -65
h188l130 -58l77 127l48 455zM1285 372l9 -24l23 -30l-21 -94l18 -183l6 -47l29 -82l-17 -3l-18 -6l-41 12q-32 6 -66 13t-67 13l-111 133l-313 62h9l-73 14l-59 -29l-89 -3q-35 -6 -72 -16.5t-72 -15.5l-138 -9l-62 -15q-33 12 -65 23.5t-65 26.5l100 38h-8l44 12h-3l120 24
l157 -3q32 0 71.5 3t72.5 3l53 -9l109 -18l362 -71l53 198l-15 17l-20 109z" />
    <glyph glyph-name="Charu_Chandan" horiz-adv-x="1489" 
d="M1164 -12q-21 20 -41.5 21.5t-44.5 7.5l24 86l17 158l18 187v-3l9 118l-15 30l-65 86l-157 139l-152 17l-107 -9l-98 -258l9 3l-148 -160l-101 -125l-149 -30q-30 -3 -58 -7.5t-58 -7.5q-3 0 -7.5 1.5t-7.5 1.5q6 36 15 74.5t15 71.5l54 -9l234 18l89 133l-3 -3l36 75
l30 231l-45 253l-41 86l-119 117l-190 149q-15 0 -39 -1.5t-44 -4.5l-45 30l-113 3l-142 -12h3q-6 0 -10.5 -1.5t-10.5 -1.5l-6 9l-12 -24q21 9 43 22t43 25l134 45l154 89l116 -33l116 -12l24 -38h294l118 3l226 9l116 12l71 23h104l89 -29l268 -30q11 -12 17 -21t15 -21
l-113 -11l-44 -3l-184 -12l26 -57l-32 15v-92l-21 -279l-3 -60l6 -210l15 -81l29 -65l-29 -145l12 -119l44 -54v-74l-12 -134l12 -80l12 12l-83 -86l-166 30zM1131 1481l-139 -3l-146 -6l-148 -2l-164 -6l-216 -3l154 -101l74 -54l63 -117l-3 3l41 -149v3l9 -92v-21l71 -65
h188l130 -58l77 127l48 455zM1280 372l9 -24l23 -30l-21 -94l18 -183l6 -47l29 -82l-17 -3l-18 -6l-41 12q-32 6 -66 13t-67 13l-111 133l-313 62h9l-73 14l-59 -29l-89 -3q-35 -6 -72 -16.5t-72 -15.5l-138 -9l-62 -15q-33 12 -65 23.5t-65 26.5l100 38h-8l44 12h-3l120 24
l157 -3q32 0 71.5 3t72.5 3l53 -9l109 -18l362 -71l53 198l-15 17l-20 109z" />
    <glyph glyph-name="Charu_Chandan" horiz-adv-x="1355" 
d="M1705 1538l-83 -31l-99 -48l-89 -3h-145l-268 -9l-142 -5l20 -52l116 -171h-2q31 -48 58 -101t58 -101l-54 -185l-8 -54l-91 -89h5l-91 -65h3l-123 -69l-48 -22l-239 -83q40 -60 54 -51l45 -46l225 -65l52 -23q17 -43 48.5 -46t56.5 -3q17 -8 41.5 -19.5t44.5 -17.5
q25 -8 55 -22.5t56 -25.5l122 -60q-31 -51 -39.5 -75.5t-8.5 -64.5l-46 -11l-91 40l-28 37l-169 83l3 -3l-173 99h2l-168 109l-8 8l-60 34h3l-274 160l-63 -14q-39 25 -76 46.5t-77 44.5q42 14 73.5 24t71.5 24h65q12 -2 22 -6.5t21 -7.5h-8l79 -40l-14 3l86 -60
q3 -14 27 -2.5t24 22.5l131 26l100 37l194 83l85 179l-11 94l11 143l-63 105l-111 179l-125 38l-143 22l-134 6l-48 -83l9 -153l88 -143l28 -40l-77 -97l20 6l-105 -43h14l-134 -5l-11 14l14 145l12 254l-12 37l9 139l-308 -11l-171 -11h3l28 11l-22 -6l230 71h57l177 32h-3
q26 6 50 15.5t50 15.5l48 -11l177 -32l160 -22l85 5l237 3l94 3l76 3l283 3l59 3zM1109 116l9 -24l23 -30l-21 -94l18 -183l6 -47l29 -82l-17 -3l-18 -6l-41 12q-32 6 -66 13t-67 13l-111 133l-313 62h9l-73 14l-59 -29l-89 -3q-35 -6 -72 -16.5t-72 -15.5l-138 -9l-62 -15
q-33 12 -65 23.5t-65 26.5l100 38h-8l44 12h-3l120 24l157 -3q32 0 71.5 3t72.5 3l53 -9l109 -18l362 -71l53 198l-15 17l-20 109z" />
    <glyph glyph-name="Charu_Chandan" horiz-adv-x="1385" 
d="M1055 1477l-190 -6l-105 -115l-85 -99l-30 -36l-105 -148l-88 -193l-84 -45l18 -24q27 0 83 -1.5t89 -1.5q39 -6 76.5 -12t76.5 -12h-12l196 -69l96 39l9 117l10 184q3 39 7.5 78t7.5 79l12 102l-55 45zM1181 1019v-78.5t-1.5 -99.5t-1.5 -102v-87l-36 -256l27 63l3 -72
l48 -181v3l18 -196l-39 -24q-48 -9 -90 -19.5t-90 -19.5l-25 21h-6l-18 190l-3 -3l43 147l-40 181l-117 123h3l-27 31l-223 144l-184 -6h-63l-93 -135q-15 -19 -30 -40l-30 -42q-28 0 -40 1.5t-36 1.5q-30 15 -55.5 28.5t-55.5 28.5q6 12 13.5 26t13.5 26l-6 -3l78 90
q18 24 39 45t40 45l183 214l69 81l46 130l-24 105l-196 85h-214h-66l-211 -3h-9l18 9l-3 -3l226 96l42 -30l310 6l169 3l202 9h12l228 9l91 30l93 -69q45 6 104 13.5t104 13.5h-6l153 6q18 0 39.5 1.5t39.5 1.5l-85 -78q12 0 -7.5 -4.5t-34.5 -7.5l-186 6l-85 -94l-6 -202
q6 -60 12 -117t12 -117zM517 1120l95 26l42 33l164 -10l73 -35l47 -37l79 -82l55 -100l-32 -83l-83 42l-31 134l-27 -10l-96 113l-151 -30l-22 13l-130 -50zM1158 372l9 -24l23 -30l-21 -94l18 -183l6 -47l29 -82l-17 -3l-18 -6l-41 12q-32 6 -66 13t-67 13l-111 133
l-313 62h9l-73 14l-59 -29l-89 -3q-35 -6 -72 -16.5t-72 -15.5l-138 -9l-62 -15q-33 12 -65 23.5t-65 26.5l100 38h-8l44 12h-3l120 24l157 -3q32 0 71.5 3t72.5 3l53 -9l109 -18l362 -71l53 198l-15 17l-20 109z" />
    <glyph glyph-name="Charu_Chandan" horiz-adv-x="1377" 
d="M1051 1477l-190 -6l-105 -115l-85 -99l-30 -36l-105 -148l-88 -193l-84 -45l18 -24q27 0 83 -1.5t89 -1.5q39 -6 76.5 -12t76.5 -12h-12l196 -69l96 39l9 117l10 184q3 39 7.5 78t7.5 79l12 102l-55 45zM1177 1019v-78.5t-1.5 -99.5t-1.5 -102v-87l-36 -256l27 63l3 -72
l48 -181v3l18 -196l-39 -24q-48 -9 -90 -19.5t-90 -19.5l-25 21h-6l-18 190l-3 -3l43 147l-40 181l-117 123h3l-27 31l-223 144l-184 -6h-63l-93 -135q-15 -19 -30 -40l-30 -42q-28 0 -40 1.5t-36 1.5q-30 15 -55.5 28.5t-55.5 28.5q6 12 13.5 26t13.5 26l-6 -3l78 90
q18 24 39 45t40 45l183 214l69 81l46 130l-24 105l-196 85h-214h-66l-211 -3h-9l18 9l-3 -3l226 96l42 -30l310 6l169 3l202 9h12l228 9l91 30l93 -69q45 6 104 13.5t104 13.5h-6l153 6q18 0 39.5 1.5t39.5 1.5l-85 -78q12 0 -7.5 -4.5t-34.5 -7.5l-186 6l-85 -94l-6 -202
q6 -60 12 -117t12 -117zM1141 372l9 -24l23 -30l-21 -94l18 -183l6 -47l29 -82l-17 -3l-18 -6l-41 12q-32 6 -66 13t-67 13l-111 133l-313 62h9l-73 14l-59 -29l-89 -3q-35 -6 -72 -16.5t-72 -15.5l-138 -9l-62 -15q-33 12 -65 23.5t-65 26.5l100 38h-8l44 12h-3l120 24
l157 -3q32 0 71.5 3t72.5 3l53 -9l109 -18l362 -71l53 198l-15 17l-20 109zM719 214l19 70l-32 4l-37 166l-168 50l-15 25l-158 19l58 68l109 -25l60 11l161 -98l54 -74l28 -63l36 -125v-23z" />
    <glyph glyph-name="Charu_Chandan" horiz-adv-x="1907" 
d="M1103 1459l-346 6l-21 -42l-6 -66l12 -170l80 -116l179 15l75 137l9 89zM831 698l233 -128v108l12 193l-21 77l3 -3l3 45l-104 -21l-123 21l-128 87l9 -3l-74 95l11 -6l-17 123v-3l-9 122l-260 51l113 -176l-9 6q6 -24 12 -52.5t12 -52.5v3q0 -15 -1.5 -27t-1.5 -27l6 6
l-44 -68l68 -221l143 -92l-50 30l6 -48zM1404 1524h-3l367 3q39 0 78 -3t77 -3h-3q27 -3 114 -15l-6 -35l-126 -24h-17l-153 9l-286 9h-233l-6 -212v-45l27 -51l72 -21q24 0 53.5 3t53.5 3h-3l93 -6l182 -122l38 -197l-23 24l12 -137l-9 -96q-33 -3 -61.5 -6t-126.5 -15
l44 200l63 36l-54 152l-152 81h-140l-54 -90l-12 -232l-6 -200q0 -24 -3 -58.5t-3 -61.5l-9 -38q15 -27 27 -58.5t27 -61.5q3 -47 7.5 -95t7.5 -96q0 -18 -3 -44.5t-3 -44.5q-6 -3 -13.5 -4.5t-13.5 -4.5q-33 -3 -53.5 -6t-50.5 -6l-21 415l-96 105l6 -3l-17 32l-236 156
l-119 35l-66 -32q0 -3 1.5 -4.5t1.5 -4.5l-12 -42l9 6l-122 -164l12 3l-156 -111q0 -12 3 -15q-44 -14 -68 -23t-66 -24l-45 21l-3 29q-15 21 -40 48t-46 51l45 3l313 131l71 116l-68 170l-125 134l-63 -86l-60 -24l-68 -36l-90 146q99 21 209 42l-12 -6l84 84l80 152
l-33 101l-86 78l-278 9l-125 -6l98 65l224 15q6 0 6 12h24l48 6l36 -6h-3h23l278 -6l245 -3l187 9l63 6l27 6l75 18q9 0 20.5 1.5t20.5 1.5l27 -57zM1231 372l9 -24l23 -30l-21 -94l18 -183l6 -47l29 -82l-17 -3l-18 -6l-41 12q-32 6 -66 13t-67 13l-111 133l-313 62h9
l-73 14l-59 -29l-89 -3q-35 -6 -72 -16.5t-72 -15.5l-138 -9l-62 -15q-33 12 -65 23.5t-65 26.5l100 38h-8l44 12h-3l120 24l157 -3q32 0 71.5 3t72.5 3l53 -9l109 -18l362 -71l53 198l-15 17l-20 109z" />
    <glyph glyph-name="Charu_Chandan" horiz-adv-x="1587" 
d="M710 1442h3l-107 21l-60 -102l3 3l-129 -182l-48 -114l-9 -30q0 -9 -3 -19.5t-3 -19.5l-18 -33l183 -39l353 -107q-12 56 -30 131t-30 132q-6 48 -16.5 94t-16.5 94l60 165zM441 287h132l227 -105l-15 273l3 212l-3 87l-81 6q-24 -45 -50.5 -94.5t-50.5 -94.5l6 3
l-153 -188l-102 -90l51 -24zM1306 1394q12 -21 25.5 -40.5t25.5 -40.5h-3l62 -146l-3 3q6 -33 12 -70.5t12 -70.5l3 9q-15 -51 -35.5 -100.5t-38.5 -99.5q-15 3 -13.5 3t-1.5 0l-105 41l-153 51l195 192l-69 15l24 134l-177 186l-89 6l6 -257l-3 14l27 -200l-33 -203
l128 -36l138 -45h-3l167 -78l-23 9l74 -159l-6 3l15 -47l-21 -162q-3 -9 -7.5 -18t-7.5 -18l-122 -87q-30 6 -54 12l-48 12l-75 60h-6q9 18 16.5 27t16.5 27l-21 -6l177 90l42 170l-126 99l-239 27v-147v3l-30 -191l48 -278l29 -72l-68 -51q-39 -6 -66 -6t-63 -6l-135 36
l24 144l-131 83l-171 42l-66 -3l-92 -134q18 6 12 3l-18 6l-144 53l36 102l-12 -6l126 132l77 86l93 114l78 156q33 6 30 25.5t-3 31.5l27 21l-174 86l-116 15l-87 -90l-195 84l3 -3l-21 9l12 -24l129 126l51 57l167 212l48 63l-51 51l-412 21q-24 0 -64.5 1.5t-64.5 1.5
q-12 0 -36 6l66 36l233 48h120l108 3l170 6h21q33 6 67.5 15t67.5 14l155 -59l120 54q33 -3 52.5 -6t49.5 -6l33 -21l128 -12l404 -6l126 3h191q15 0 27 1.5t27 1.5l-24 -42l-114 3l-56 -21l-123 -21l-416 6l126 -66z" />
    <glyph glyph-name="Charu_Chandan" horiz-adv-x="2030" 
d="M1472 1534v156l-116 73q12 107 -82.5 125t-179.5 33l-22 49l-122 15l-149 -9l-216 -39l-80 -37l-149 -134l-46 43l-24 -13l-25 55l83 46q61 -31 64 -0.5t67 52.5l122 33l274 40h244h-3l189 -15q40 0 79.5 -3t79.5 -3l-43 -22l82 -45h-6l67 -49l-15 6l85 -180l-6 9
l-39 -183l170 -6l388 -3l58 -3h58l-64 -67l-104 -21h-70l-150 3h-292h-110l-232 -6l-94 -19l88 -79l-12 3l61 -98l-6 10l21 -214l15 12l-9 -9h6l-52 -30q-33 3 -65 1.5t-63 1.5q-21 15 -45.5 30t6.5 3q0 9 -3 26t-3 26l-3 -6l12 30l-12 -6l24 22l-27 -3l118 21l16 82
l-229 217l-21 -113l6 -345l3 -91l36 -174v3l-3 -140v-137l-6 -217v-79l86 -67l225 -73l101 12l204 58l82 73l40 146l12 98q-27 40 -62 84t-63 84l-52 45l-115 -39l73 -134l-37 33l9 -85l3 3l-39 -110q-128 -52 -122 -40l-34 -9q-12 0 -19.5 1.5t-16.5 4.5l-6 135v198l12 186
q-3 0 -22 12l144 55q27 0 51.5 1.5t48.5 4.5l128 -89l110 -42l40 -25l43 -103q15 -43 30 -92t30 -91v-49l7 6l-46 -94l6 3l-113 -131l12 3l-192 -116l-46 -6l-195 -7l-91 -30l-122 21l-345 40q0 15 -1.5 30.5t-10.5 73.5l31 -52l-16 131l-3 -3l40 128q0 27 1.5 53t1.5 54
l9 204l-103 116l-190 116q-15 3 -41 9t-41 9l-165 27l-36 -109h-15l-122 70h9l-67 58l70 76l40 30l36 58l-6 -3l156 162l36 61l-9 -3l91 88l-274 13h3l-177 24q-6 0 -12 3l18 64l34 -9l204 6l180 3l110 49h55l48 -9l156 -34q24 9 51.5 23t52.5 26l131 -52l292 3zM490 921
l281 -36q0 24 1.5 76t1.5 85l18 211l-52 149h-168l-198 -305l-55 -143l131 -37h40z" />
    <glyph glyph-name="Charu_Chandan" horiz-adv-x="2034" 
d="M1472 1534v156l-116 73q12 107 -82.5 125t-179.5 33l-22 49l-122 15l-149 -9l-216 -39l-80 -37l-149 -134l-46 43l-24 -13l-25 55l83 46q61 -31 64 -0.5t67 52.5l122 33l274 40h244h-3l189 -15q40 0 79.5 -3t79.5 -3l-43 -22l82 -45h-6l67 -49l-15 6l85 -180l-6 9
l-39 -183l170 -6l388 -3l58 -3h58l-64 -67l-104 -21h-70l-150 3h-292h-110l-232 -6l-94 -19l88 -79l-12 3l61 -98l-6 10l21 -214l15 12l-9 -9h6l-52 -30q-33 3 -65 1.5t-63 1.5q-21 15 -45.5 30t6.5 3q0 9 -3 26t-3 26l-3 -6l12 30l-12 -6l24 22l-27 -3l118 21l16 82
l-229 217l-21 -113l6 -345l3 -91l36 -174v3l-3 -140v-137l-6 -217v-79l86 -67l225 -73l101 12l204 58l82 73l40 146l12 98q-27 40 -62 84t-63 84l-52 45l-115 -39l73 -134l-37 33l9 -85l3 3l-39 -110q-128 -52 -122 -40l-34 -9q-12 0 -19.5 1.5t-16.5 4.5l-6 135v198l12 186
q-3 0 -22 12l144 55q27 0 51.5 1.5t48.5 4.5l128 -89l110 -42l40 -25l43 -103q15 -43 30 -92t30 -91v-49l7 6l-46 -94l6 3l-113 -131l12 3l-192 -116l-46 -6l-195 -7l-91 -30l-122 21l-345 40q0 15 -1.5 30.5t-10.5 73.5l31 -52l-16 131l-3 -3l40 128q0 27 1.5 53t1.5 54
l9 204l-103 116l-190 116q-15 3 -41 9t-41 9l-165 27l-36 -109h-15l-122 70h9l-67 58l70 76l40 30l36 58l-6 -3l156 162l36 61l-9 -3l91 88l-274 13h3l-177 24q-6 0 -12 3l18 64l34 -9l204 6l180 3l110 49h55l48 -9l156 -34q24 9 51.5 23t52.5 26l131 -52l292 3zM490 921
l281 -36q0 24 1.5 76t1.5 85l18 211l-52 149h-168l-198 -305l-55 -143l131 -37h40zM1826 253l9 -176l23 -30l-21 -94l18 -183l6 -47l29 -82l-17 -3l-18 -6l-41 12q-32 6 -66 13t-67 13l-111 133l-313 62h9l-73 14l-59 -29l-89 -3q-35 -6 -72 -16.5t-72 -15.5l-138 -9
l-62 -15q-33 12 -65 23.5t-65 26.5l100 38h-8l44 12h-3l120 24l157 -3q32 0 71.5 3t72.5 3l53 -9l109 -18l362 -71l53 198l-15 17l-20 109z" />
    <glyph glyph-name="Charu_Chandan" horiz-adv-x="1506" 
d="M771 944l-14 37l5 -6q0 25 3 53.5t3 53.5l14 166v192l-169 76l-45 -147l-90 -157h6l-110 -136l67 -59l144 -50h-9l198 -76zM675 772l82 3l-130 116l-183 84l-124 -6q-31 -14 -62 -33.5t-62 -36.5q-50 6 -91 13t-89 12l71 74l309 318l-25 -3l45 101l-107 14l-130 6
q-5 0 -15 1.5t-16 1.5l-298 5q3 12 5.5 17.5t5.5 11.5l65 -12l144 62q22 -2 50 -3.5t51 -1.5h-3l217 -9l84 12l99 53l42 -8h-11l121 -57q17 6 45 20t48 22l169 -22l87 6l330 -29h62h135l118 20l22 -53l-42 -20l-138 -3l-132 -6l-183 -8l-130 42l71 -121l62 -65l-12 6
l45 -104l-16 -85l-110 -47h17q-6 0 -12 -3l-25 5q-6 23 -15.5 44t-15.5 44l-8 -12l64 74l-11 115l-160 158l-9 -57l6 -87l-6 -124l9 -70v-141l-17 -183l200 -144l-14 3l78 -132v3l17 -37l68 -149l-6 8l-17 -152l9 6l-107 -149l5 3l-115 -110l-31 3l-194 -40l-37 -8
q-17 -6 -32.5 -10t-32.5 -10l-62 17l-146 39h3l-76 23l-192 107h9l-82 73l-101 121l11 -8q3 42 7 85.5t7 85.5l-3 -5q6 14 11.5 25t11.5 25l56 -14l-17 3l119 -98v-40l-9 -22l93 -150l73 -95l93 -104l11 -6l181 -17l118 -17l172 79q5 17 11 34t11 34l-11 -6l93 107v146
l-85 166l-70 116l-118 82l-113 -93l-11 -279l67 20v-9l3 6l-62 -144l-110 -11h-36q-3 37 -7 67.5t-7 67.5l11 149l3 82l-40 138h3l-8 53l25 20z" />
    <glyph glyph-name="Charu_Chandan" horiz-adv-x="1998" 
d="M1197 595l-138 21l-80 -61l-165 -34l-80 -12l-76 67h21l141 16l218 113l110 107l43 126l-68 174l-82 80l-215 33l-58 31l-55 -73l18 -163l77 -55l55 -30l-46 -114l9 -27l-92 -46l-73 -3h-3l-22 116l-52 129l3 -3l-52 217l-27 55l58 28l92 36h-12l223 31l34 -24l190 -62
l58 -18l-19 3l181 -156l-12 9l37 -122l-3 3q3 -37 7.5 -77t-11.5 -61l46 -3l-79 -40l-46 -83q24 -46 45.5 -96.5t46.5 -99.5l-16 -27l10 -254l6 6l-123 -230l34 6l-126 -61h-95h-91l-218 18h12l-202 77q-18 12 -42.5 27.5t-42.5 24.5h6l-40 34q-15 15 -29 35t-29 35
l-135 150l9 -3l-27 86l-46 141l-65 196l4 -3q-7 45 -17.5 94t-16.5 95v-3q0 13 -6 37l12 -6h-12l46 -37l137 -104h-3q16 -15 35.5 -26t38.5 -26l-49 -64l34 -166l107 -214l-6 3l12 -37l64 -128l83 -43h-9l46 -34l260 -82l82 18l169 113l144 101l-46 184l3 -3zM-111 1541h6
l150 -3h86l215 -3h98l260 -3l607 -6l729 -7q18 0 38 -3t41 -3l141 -18l-21 3l15 -9l-46 -28h-43l-147 -3l-159 -3l-609 -3l-482 -3h-227l-358 12q-18 0 -41 3t-41 3l-138 28l-86 43h9l-12 12l15 -12v3zM1250 634l-126 19l92 163l68 64l45 15l229 137q26 -5 55 -11.5
t53 -12.5h5l168 -207l-8 -100l-29 -105l-144 -163q-21 -6 -43.5 -12.5t-46.5 -11.5l-42 29q-13 37 -30 71t-30 71l2 -3q-8 32 -18.5 64.5t-17.5 64.5l57 32q3 0 7 -4t7 -4l39 -16h-5l18 -8q0 -5 16 1.5t16 1.5l23 -50l-18 -40l18 -50l174 48l-40 81l3 -2l-34 123l-142 110
l-250 -57l-58 -92l-39 -98z" />
    <glyph glyph-name="Charu_Chandan" horiz-adv-x="1511" 
d="M769 944l-14 37l5 -6q0 25 3 53.5t3 53.5l14 166v192l-169 76l-45 -147l-90 -157h6l-110 -136l67 -59l144 -50h-9l198 -76zM673 772l82 3l-130 116l-183 84l-124 -6q-31 -14 -62 -33.5t-62 -36.5q-50 6 -91 13t-89 12l71 74l309 318l-25 -3l45 101l-107 14l-130 6
q-5 0 -15 1.5t-16 1.5l-298 5q3 12 5.5 17.5t5.5 11.5l65 -12l144 62q22 -2 50 -3.5t51 -1.5h-3l217 -9l84 12l99 53l42 -8h-11l121 -57q17 6 45 20t48 22l169 -22l87 6l330 -29h62h135l118 20l22 -53l-42 -20l-138 -3l-132 -6l-183 -8l-130 42l71 -121l62 -65l-12 6
l45 -104l-16 -85l-110 -47h17q-6 0 -12 -3l-25 5q-6 23 -15.5 44t-15.5 44l-8 -12l64 74l-11 115l-160 158l-9 -57l6 -87l-6 -124l9 -70v-141l-17 -183l200 -144l-14 3l78 -132v3l17 -37l68 -149l-6 8l-17 -152l9 6l-107 -149l5 3l-115 -110l-31 3l-194 -40l-37 -8
q-17 -6 -32.5 -10t-32.5 -10l-62 17l-146 39h3l-76 23l-192 107h9l-82 73l-101 121l11 -8q3 42 7 85.5t7 85.5l-3 -5q6 14 11.5 25t11.5 25l56 -14l-17 3l119 -98v-40l-9 -22l93 -150l73 -95l93 -104l11 -6l181 -17l118 -17l172 79q5 17 11 34t11 34l-11 -6l93 107v146
l-85 166l-70 116l-118 82l-113 -93l-11 -279l67 20v-9l3 6l-62 -144l-110 -11h-36q-3 37 -7 67.5t-7 67.5l11 149l3 82l-40 138h3l-8 53l25 20zM813 -272l-53 -182l33 -37l223 -24q-5 52 -14.5 110t-13.5 110l35 235l-185 -185zM1160 -589l-5 3l48 -225q-15 -5 -17 -8.5
t-16 -7.5h10l-98 -17h2l-68 -8q-7 20 -15.5 43.5t-12.5 42.5h2l-15 106l-172 114l-152 31q-26 -33 -59 -67.5t-61 -67.5q-15 5 -22 5l-99 21q0 17 -2.5 30t-2.5 30l-12 -10l69 69l121 118l40 61l54 84h-2q26 30 52 63t52 64l59 55l-12 -3l53 24h-5l152 47q28 5 55.5 9.5
t52.5 9.5l10 -165l3 -67l1 -123l-4 -175l9 -76z" />
    <glyph glyph-name="Charu_Chandan" horiz-adv-x="2024" 
d="M1197 595l-138 21l-80 -61l-165 -34l-80 -12l-76 67h21l141 16l218 113l110 107l43 126l-68 174l-82 80l-215 33l-58 31l-55 -73l18 -163l77 -55l55 -30l-46 -114l9 -27l-92 -46l-73 -3h-3l-22 116l-52 129l3 -3l-52 217l-27 55l58 28l92 36h-12l223 31l34 -24l190 -62
l58 -18l-19 3l181 -156l-12 9l37 -122l-3 3q3 -37 7.5 -77t-11.5 -61l46 -3l-79 -40l-46 -83q24 -46 45.5 -96.5t46.5 -99.5l-16 -27l10 -254l6 6l-123 -230l34 6l-126 -61h-95h-91l-218 18h12l-202 77q-18 12 -42.5 27.5t-42.5 24.5h6l-40 34q-15 15 -29 35t-29 35
l-135 150l9 -3l-27 86l-46 141l-65 196l4 -3q-7 45 -17.5 94t-16.5 95v-3q0 13 -6 37l12 -6h-12l46 -37l137 -104h-3q16 -15 35.5 -26t38.5 -26l-49 -64l34 -166l107 -214l-6 3l12 -37l64 -128l83 -43h-9l46 -34l260 -82l82 18l169 113l144 101l-46 184l3 -3zM-111 1541h6
l150 -3h86l215 -3h98l260 -3l607 -6l729 -7q18 0 38 -3t41 -3l141 -18l-21 3l15 -9l-46 -28h-43l-147 -3l-159 -3l-609 -3l-482 -3h-227l-358 12q-18 0 -41 3t-41 3l-138 28l-86 43h9l-12 12l15 -12v3zM1250 634l-126 19l92 163l68 64l45 15l229 137q26 -5 55 -11.5
t53 -12.5h5l168 -207l-8 -100l-29 -105l-144 -163q-21 -6 -43.5 -12.5t-46.5 -11.5l-42 29q-13 37 -30 71t-30 71l2 -3q-8 32 -18.5 64.5t-17.5 64.5l57 32q3 0 7 -4t7 -4l39 -16h-5l18 -8q0 -5 16 1.5t16 1.5l23 -50l-18 -40l18 -50l174 48l-40 81l3 -2l-34 123l-142 110
l-250 -57l-58 -92l-39 -98zM813 -272l-53 -182l33 -37l223 -24q-5 52 -14.5 110t-13.5 110l35 235l-185 -185zM1160 -589l-5 3l48 -225q-15 -5 -17 -8.5t-16 -7.5h10l-98 -17h2l-68 -8q-7 20 -15.5 43.5t-12.5 42.5h2l-15 106l-172 114l-152 31q-26 -33 -59 -67.5t-61 -67.5
q-15 5 -22 5l-99 21q0 17 -2.5 30t-2.5 30l-12 -10l69 69l121 118l40 61l54 84h-2q26 30 52 63t52 64l59 55l-12 -3l53 24h-5l152 47q28 5 55.5 9.5t52.5 9.5l10 -165l3 -67l1 -123l-4 -175l9 -76z" />
    <glyph glyph-name="Charu_Chandan" horiz-adv-x="1517" 
d="M837 944l-14 37l5 -6q0 25 3 53.5t3 53.5l14 166v192l-169 76l-45 -147l-90 -157h6l-110 -136l67 -59l144 -50h-9l198 -76zM823 775l-130 116l-183 84l-124 -6q-31 -14 -62 -33.5t-62 -36.5q-50 6 -91 13t-89 12l71 74l309 318l-25 -3l45 101l-107 14l-130 6
q-5 0 -15 1.5t-16 1.5l-298 5q3 12 5.5 17.5t5.5 11.5l65 -12l144 62q22 -2 50 -3.5t51 -1.5h-3l217 -9l84 12l99 53l42 -8h-11l121 -57q17 6 45 20t48 22l169 -22l87 6l330 -29h62h135l118 20l22 -53l-42 -20l-138 -3l-132 -6l-183 -8l-130 42l71 -121l62 -65l-12 6
l45 -104l-16 -85l-110 -47h17q-6 0 -12 -3l-25 5q-6 23 -15.5 44t-15.5 44l-8 -12l64 74l-11 115l-160 158l-9 -57l6 -87l-6 -124l9 -70v-141l-17 -183l-90 -129zM860 693l-100 -6l-127 -69l-42 -94v-121l63 -171l100 -80l112 193q-54 -21 -121 -27l-21 53l30 56l85 11
l103 36l63 -8l-24 -142l11 6l-50 -68l-10.5 -56l-10.5 -56h4q-6 -30 -18 -62t-21 -62l-180 18l-121 71l15 -4l-97 125q-15 23 -34 48.5t-34 47.5l9 -8q0 47 -1.5 92.5t-1.5 93.5l-8 -9l73 103l-9 -3l106 95l-9 -3l175 85l108 -6q42 0 80.5 -2.5t82.5 -2.5l106 -110
q26 -9 58.5 -17.5t65.5 -21.5l-9 -276l30 -116l-28 -46l24 -292q4 -15 8 -29.5t7 -29.5l-9 -127l-103 -15q0 -3 -3 -3l-242 104l12 -4l-41 30l-112 17l-44 24l-77 6l-139 -21l-185 -50q-21 -6 -36 -15t-29 -15l-21 30l-76 30h2l-50 -9q-45 23 -53 23l-3 4l236 43l106 13
l204 20h-6l103 -12q48 -6 98 -11.5t97 -11.5l194 -41l23 238l4 145l3 139q0 28 1 56.5t1 57.5l-2 -3l29 97l-244 110l-63 11z" />
    <glyph glyph-name="Charu_Chandan" horiz-adv-x="1519" 
d="M767 944l-14 37l5 -6q0 25 3 53.5t3 53.5l14 166v192l-169 76l-45 -147l-90 -157h6l-110 -136l67 -59l144 -50h-9l198 -76zM753 775l-130 116l-183 84l-124 -6q-31 -14 -62 -33.5t-62 -36.5q-50 6 -91 13t-89 12l71 74l309 318l-25 -3l45 101l-107 14l-130 6
q-5 0 -15 1.5t-16 1.5l-298 5q3 12 5.5 17.5t5.5 11.5l65 -12l144 62q22 -2 50 -3.5t51 -1.5h-3l217 -9l84 12l99 53l42 -8h-11l121 -57q17 6 45 20t48 22l169 -22l87 6l330 -29h62h135l118 20l22 -53l-42 -20l-138 -3l-132 -6l-183 -8l-130 42l71 -121l62 -65l-12 6
l45 -104l-16 -85l-110 -47h17q-6 0 -12 -3l-25 5q-6 23 -15.5 44t-15.5 44l-8 -12l64 74l-11 115l-160 158l-9 -57l6 -87l-6 -124l9 -70v-141l-17 -183l-90 -129zM641 -116l-42 39l-46 21l-48 11l-194 109h8l-61 56l-11 11l5 -3q-29 40 -58.5 80t-58.5 80l8 -11
q5 38 10.5 78t10.5 77q-5 3 12.5 11t35.5 18q16 0 28 1.5t26 1.5l69 -171l-40 3l40 -21l-3 -27l61 -99l115 -122l80 -35l173 -74l179 64l114 88l83 87l-24 128l5 158l-13 40l-69 98l-166 125l-117 -69l-2 -37l10 -139q11 -45 23 -90.5t23 -90.5l-11 -3l-112 -37
q-8 0 -17.5 -1.5t-14.5 -1.5l-53 14l45 189l-37 75q0 16 -1.5 34.5t-1.5 34.5l11 152q0 8 -1.5 14.5t-1.5 14.5l165 11l40 13l195 5q13 0 23.5 1.5t24.5 1.5l77 -173l43 -96l117 -128l-32 -139l3 3l-51 -139l8 3l-75 -82l16 5l-112 -43l-133 -61l-16 -11l-77 -48l-110 -3
l-69 3zM1307 -463l-25 3l-156 -20l-107 156l-94 -3l-79 48q-40 0 -89.5 -1.5t-91.5 -1.5l-74 37l-167 -31l-190 -40l-25 -25q-49 -6 -83 -11.5t-76 -11.5q0 14 1.5 25.5t1.5 22.5l8 43q34 8 51 15t51 16h-3l193 34l96 -14q40 0 78 -3t78 -3h-3q57 -6 110.5 -11.5
t110.5 -11.5h-3l77 -8h181l26 153q2 25 6.5 53.5t7.5 53.5l-12 -8l23 166l99 -11l20 -29l-9 9q0 -17 3 -41t3 -41l-34 -115l65 -167l-3 5l3 -173z" />
    </font>
</defs>
</svg>
