<?xml version="1.0" standalone="no"?>
<!DOCTYPE svg PUBLIC "-//W3C//DTD SVG 1.1//EN" "http://www.w3.org/Graphics/SVG/1.1/DTD/svg11.dtd" >
<svg xmlns="http://www.w3.org/2000/svg" xmlns:xlink="http://www.w3.org/1999/xlink" version="1.1">
<metadata>
Created by FontForge 20160407 at Mon Oct 31 14:00:32 2016
 By Jimmy Warting
Copyright (c)2016 by Chandan Acharja. All rights reserved.

Typography &#38; Develop by Chandan Acharja,
Department of Graphic Design, Faculty of Fine Arts,
University of Dhaka.
Web : www.charuchandan.com
Email : chandan0112@gmail.com
Mobile +8801704580102
+8801956834106
</metadata>
<defs>
<font id="CharukolaUltraLightUnicode" horiz-adv-x="0" >
  <font-face 
    font-family="Charukola Ultra Light Unicode"
    font-weight="200"
    font-stretch="normal"
    units-per-em="2048"
    panose-1="2 0 5 0 0 0 0 0 0 0"
    ascent="1638"
    descent="-410"
    x-height="986"
    cap-height="1397"
    bbox="-1419 -754 3193 2326"
    underline-thickness="70"
    underline-position="-385"
    unicode-range="U+000D-25CC"
  />
<missing-glyph horiz-adv-x="1300" 
d="M454 1413h-258v-1303h258v-98h-344v1494h344v-93zM838 1506h344v-1494h-344v98h256v1303h-256v93zM382 981l-3 4v-7zM843 1053l5 6q-2 1 -4 0.5t-5 0.5zM380 553l201 217l-164 175l-7 6l-28 30l46 46l23 19v-1l7 7l190 -210l40 42q17 20 37.5 41.5t39.5 40.5h-1
q9 11 22 25.5t27 28.5q7 8 14.5 17t14.5 16l12 -10l18 -17v1l10 -8q3 -5 9.5 -12.5t24.5 -23.5l-201 -213q17 -19 40.5 -44t43.5 -45l13 -13l106 -116q-20 -21 -37 -35v1l-35 -34l-198 213l-107 -117l-88 -96z" />
    <glyph glyph-name=".notdef" horiz-adv-x="1300" 
d="M454 1413h-258v-1303h258v-98h-344v1494h344v-93zM838 1506h344v-1494h-344v98h256v1303h-256v93zM382 981l-3 4v-7zM843 1053l5 6q-2 1 -4 0.5t-5 0.5zM380 553l201 217l-164 175l-7 6l-28 30l46 46l23 19v-1l7 7l190 -210l40 42q17 20 37.5 41.5t39.5 40.5h-1
q9 11 22 25.5t27 28.5q7 8 14.5 17t14.5 16l12 -10l18 -17v1l10 -8q3 -5 9.5 -12.5t24.5 -23.5l-201 -213q17 -19 40.5 -44t43.5 -45l13 -13l106 -116q-20 -21 -37 -35v1l-35 -34l-198 213l-107 -117l-88 -96z" />
    <glyph glyph-name="NULL" 
 />
    <glyph glyph-name="NULL" 
 />
    <glyph glyph-name="nonmarkingreturn" unicode="&#xd;" horiz-adv-x="744" 
 />
    <glyph glyph-name="space" unicode=" " horiz-adv-x="744" 
 />
    <glyph glyph-name="Charu_Chandan.002" unicode="!" horiz-adv-x="908" 
d="M599 1439v-1079h-87v1079h87zM672 84q0 -51 -30 -81t-83 -30q-48 0 -79 30t-31 81q0 53 31 83.5t79 30.5q53 0 83 -31t30 -83z" />
    <glyph glyph-name="Charu_Chandan.003" unicode="&#x22;" horiz-adv-x="737" 
d="M196 1374v255h87v-255h-87zM424 1374v255h88v-255h-88z" />
    <glyph glyph-name="Charu_Chandan.004" unicode="#" horiz-adv-x="1483" 
d="M1048 1302v-232h231v-91h-231v-393h231v-86h-231v-236h-86v236h-396v-236h-87v236h-241v86h241v393h-241v91h241v232h87v-232h396v232h86zM566 586h396v393h-396v-393z" />
    <glyph glyph-name="Charu_Chandan.005" unicode="%" horiz-adv-x="1532" 
d="M137 1143q0 45 17.5 87.5t51.5 77.5q35 37 77.5 55.5t88.5 18.5q48 0 88 -15t71 -48q42 -42 61.5 -86t19.5 -90q0 -100 -80 -182q-24 -22 -66.5 -39.5t-93.5 -17.5q-97 0 -155 58q-80 82 -80 181zM1341 260q0 -47 -17 -88.5t-66 -90.5q-31 -30 -70 -44.5t-86 -14.5
q-96 0 -166 70q-71 73 -71 168q0 94 71 167q70 73 166 73q97 0 167 -73q38 -39 55 -79t17 -88zM1335 1272q-54 -58 -103.5 -112t-103.5 -114l-18 -19l-77 -83l-254 -276q-14 -15 -29.5 -31.5t-29.5 -31.5l-58 -62l-119 -127l-127 -140q-48 -53 -98 -106.5t-99 -105.5l-8 4
l-5 7h1l-16 15l-4 4v-1l-15 12l-5 7h1l-6 7l-4 4q66 69 130 138t127 137l51 55l250 273q54 57 106.5 114t106.5 115l12 14l36 40l161 171l40 44l24 26t25 26l49 53zM265 1030q20 -20 49 -32.5t58 -12.5q35 0 63 11t51 34q23 24 34.5 51.5t11.5 61.5q0 30 -13 59t-33 49
q-23 23 -51 36.5t-63 13.5q-32 0 -59 -14t-50 -37q-20 -20 -33 -48.5t-13 -58.5q0 -65 47 -112zM1204 351v4l4 1l1 -4zM1261 260q0 60 -44 107q-26 23 -55.5 37.5t-59.5 14.5t-61.5 -16.5t-66.5 -48.5q-28 -31 -28 -94q0 -65 46 -111q45 -45 110 -45q35 0 62 11t50 34
q47 47 47 111z" />
    <glyph glyph-name="Charu_Chandan.006" unicode="&#x26;" horiz-adv-x="1435" 
d="M1266 0l-195 192q-109 -106 -230 -161.5t-251 -55.5q-106 0 -185.5 27t-140.5 78q-115 108 -115 274q0 130 84 234t252 190q-166 205 -166 344q0 137 97 232q49 47 110.5 71t139.5 24q69 0 124 -21t96 -60q80 -82 80 -202q0 -67 -21.5 -123.5t-59.5 -106.5
q-39 -45 -104.5 -89t-164.5 -92q38 -39 89 -90.5t110.5 -110.5t124.5 -122.5t131 -125.5q61 103 96.5 210.5t43.5 228.5h82q-11 -132 -52.5 -254t-118.5 -239q30 -29 65.5 -64t71.5 -69.5t70 -66.5t60 -56zM571 813q39 18 75.5 38.5t68 40.5t56.5 39.5t42 35.5
q33 38 52.5 87t19.5 101q0 51 -17 90.5t-49 71.5q-33 32 -72 47t-90 15q-57 0 -103 -20.5t-84 -55.5q-31 -36 -50 -82.5t-19 -100.5q0 -61 40.5 -137.5t112.5 -164.5zM1012 250q-165 159 -284 278.5t-187 194.5q-149 -71 -229.5 -162t-80.5 -200q0 -69 24.5 -126.5
t71.5 -102.5v1q49 -42 118 -65t153 -23q112 0 215.5 48.5t193.5 136.5z" />
    <glyph glyph-name="Charu_Chandan.007" unicode="'" horiz-adv-x="678" 
d="M321 1374v255h85v-255h-85z" />
    <glyph glyph-name="Charu_Chandan.008" unicode="(" horiz-adv-x="849" 
d="M385 1359q38 63 83 124t92 114q11 -9 24 -23.5t27 -29.5l14 -15q-94 -103 -159.5 -220.5t-112.5 -254.5q-29 -82 -41.5 -161.5t-12.5 -154.5q0 -192 81 -371t247 -356q-24 -21 -41 -41l-25 -26q-181 190 -269 387.5t-88 410.5q0 157 44 309t137 308z" />
    <glyph glyph-name="Charu_Chandan.009" unicode=")" horiz-adv-x="859" 
d="M538 1054l-1 5q-45 134 -110.5 251t-161.5 220l67 67q44 -50 90 -114t84 -124q38 -71 71.5 -149.5t58 -159t39 -159t14.5 -149.5q0 -212 -89 -409t-273 -387l-56 57l-7 7q165 178 247 358t82 369q0 76 -12.5 152t-41.5 161z" />
    <glyph glyph-name="Charu_Chandan.010" unicode="*" horiz-adv-x="1434" 
d="M1032 1230l-238 -415h479v-89h-478l58 -100l58 -100l11 -21l5 -8l16 -30l10 -18q5 -11 11.5 -21.5t14.5 -22.5l25 -43l27 -49q-9 -9 -12.5 -11t-5.5 -3l-10 -4q1 1 -5.5 -3t-8.5 -6v1l-7 -5q-6 -2 -13.5 -5.5t-12.5 -6.5l-237 416q-11 -21 -29 -51.5t-33 -55.5
q-2 -4 -4.5 -8t-4.5 -7l-20 -34l-17 -29q-6 -9 -11.5 -18.5t-10.5 -18.5l-30 -52l-33 -59l-16 -30q-8 -14 -15.5 -26.5t-15.5 -25.5l-24 11q-7 1 -11 7v-1l-10 6l-14 9l-18 9l244 414h-482v89h478q-13 24 -26.5 48t-26.5 48l-56 95l-29 49l-10 18l-10 18l-12 19l-22 37
q-11 18 -23.5 39.5t-23.5 41.5q17 11 26.5 17t21.5 12v-1q6 6 8.5 8t4.5 4l16 7l238 -416q4 8 10 18.5t12 19.5l14 24l19 32l8 13l8 14l43 77l46 83q10 17 20 34.5t21 35.5l18 30l19 32z" />
    <glyph glyph-name="Charu_Chandan.011" unicode="+" horiz-adv-x="1366" 
d="M175 795h485v504h86v-504h508v-85h-508v-491h-86v491h-485v85z" />
    <glyph glyph-name="Charu_Chandan.012" unicode="," horiz-adv-x="820" 
d="M530 166q54 -42 76 -115h2v-13q0 -2 0.5 -3t0.5 -2q1 -7 1 -14.5v-12.5q0 -72 -52 -127q-45 -35 -92 -55.5t-98 -20.5q-19 0 -49 6l9 31q0 1 1 2.5t1 2.5l11 33h33q8 0 19.5 1t25.5 5q17 5 37 15t41 27v-1q40 46 40 83v9q0 5 -1 10q-13 54 -47 76q-20 14 -40 14
q-4 0 -8 -0.5t-9 -1.5q-1 0 -1.5 -0.5t-1.5 -0.5h1q-31 -14 -38 -24q-5 -8 -3 -18.5t9 -21.5v-24q0 -5 0.5 -10.5t0.5 -11.5v-34q-48 20 -67.5 46.5t-19.5 53.5q0 23 5 38q19 31 44 49.5t51 26.5q12 3 20.5 4t14.5 1q21 0 43.5 -6t39.5 -17z" />
    <glyph glyph-name="Charu_Chandan.013" unicode="-" horiz-adv-x="1227" 
d="M226 795h793v-85h-793v85z" />
    <glyph glyph-name="Charu_Chandan.014" unicode="." horiz-adv-x="390" 
d="M265 67q0 -35 -20.5 -56t-54.5 -21q-33 0 -54 21t-21 56q0 34 21 54.5t54 20.5q34 0 54.5 -21t20.5 -54z" />
    <glyph glyph-name="Charu_Chandan.015" unicode="/" horiz-adv-x="1303" 
d="M1150 1673l-160 -320q-198 -396 -394.5 -790.5t-392.5 -787.5q-15 8 -24.5 14t-22.5 14l-30 18l589 1179l107 210l94 189l32 63l64 126t61 123z" />
    <glyph glyph-name="Charu_Chandan.016" unicode=":" horiz-adv-x="713" 
d="M477 1162q0 -52 -31 -83t-80 -31q-51 0 -81.5 31t-30.5 83t30.5 82t81.5 30q49 0 80 -30.5t31 -81.5zM477 333q0 -52 -30.5 -83t-81.5 -31q-48 0 -79.5 31t-31.5 83q0 51 31.5 81.5t79.5 30.5q51 0 81.5 -31t30.5 -81z" />
    <glyph glyph-name="Charu_Chandan.017" unicode=";" horiz-adv-x="768" 
d="M563 40q3 -12 3 -39q0 -32 -11.5 -63t-37.5 -62q-32 -30 -68.5 -48t-77.5 -20h-8q-8 -1 -16 -1.5t-13 -0.5q-39 0 -54 4l12 35l12 33q6 -1 13.5 -1h15.5q32 0 65.5 13t63.5 44q20 17 26.5 41.5t4.5 50.5q-1 13 -8 27t-17 25.5t-22 20t-23 10.5q-21 8 -38 0
q-15 -7 -24 -18.5t-9 -26.5q0 -26 21 -41l-3 -17q-2 -8 -2 -14l-4 -25q-44 15 -67.5 42t-23.5 56q0 20 17 57q10 21 34.5 36.5t47.5 23.5q2 0 3.5 0.5t2.5 0.5h7h4h17q44 5 92 -31q48 -37 65 -110v-2zM512 385q0 -44 -26 -70t-69 -26q-41 0 -67.5 26t-26.5 70q0 43 26.5 69
t67.5 26q43 0 69 -26t26 -69z" />
    <glyph glyph-name="Charu_Chandan.018" unicode="&#x3c;" horiz-adv-x="810" 
d="M649 1054l-335 -329l71 -70l78 -77v1q10 -5 22 -21h-1l9 -10h2l11 -12l23 -22v1q26 -22 60.5 -56t64.5 -66l-10 -11h1q-9 -12 -17 -19.5t-12 -10.5q-11 -7 -14 -11l-10 -11l1 1q0 -1 -1 -4.5t-1 -4.5l-27 29h1l-40 37l-73 74l-61 62l-46 43l-31 30l-57 57l-71 70l94 92
l106 106q30 29 63 61t67 65l33 33l36 35z" />
    <glyph glyph-name="Charu_Chandan.019" unicode="=" horiz-adv-x="1532" 
d="M345 625h875v-86h-875v86zM345 951h875v-84h-875v84z" />
    <glyph glyph-name="Charu_Chandan.020" unicode="&#x3e;" horiz-adv-x="825" 
d="M192 1052l-3 3v-6zM192 1052l64 65l15 -15l89 -87l61 -61l32 -33l52 -52l39 -38l76 -74l35 -34l-207 -199q-23 -23 -48 -48.5t-51.5 -51t-52 -51t-48.5 -47.5q-13 13 -21 22t-10 12h1l-33 34l340 331l-46 45l-45 45l-72 71l-40 38l-65 64v-1q-4 2 -9 7l-11 11l-7 8
l-14 14l-20 21z" />
    <glyph glyph-name="Charu_Chandan.021" unicode="?" horiz-adv-x="1483" 
d="M939 1426q39 -9 77 -27.5t72.5 -45.5t65 -61t55.5 -72q28 -51 43.5 -103t15.5 -104q0 -32 -6 -65.5t-17 -67.5q-15 -44 -43 -87t-66.5 -82t-86.5 -73t-102 -60q-16 -7 -34.5 -15.5t-37.5 -18.5t-36.5 -20t-30.5 -19q-48 -41 -77 -94t-36 -114q-19 -2 -29 -4t-21 -4
l-11 -2l-17 -3q5 69 31 131t61 104q46 45 105.5 81t117.5 57q42 22 80 49.5t69 59t54 66.5t35 71q8 28 13 55.5t5 52.5q0 42 -13 86t-32 81q-47 76 -111.5 121t-139.5 57h-29q-32 0 -63 -4t-61 -18q-65 -32 -106.5 -79t-58.5 -93q-14 -42 -14 -75q0 -30 8.5 -59t24.5 -57
q23 -35 52.5 -55.5t64.5 -20.5q20 0 43.5 6.5t46.5 20.5q17 15 27.5 30.5t11.5 29.5q1 18 -3.5 39t-23.5 50l58 53q24 -36 37.5 -73.5t11.5 -70.5q-4 -67 -68 -122l-17 -5q-57 -34 -114 -34q-6 0 -16 0.5t-21 2.5q-48 6 -88 33.5t-69 71.5q-20 36 -32.5 78.5t-12.5 81.5
q0 29 3.5 52.5t10.5 43.5q21 66 75.5 122.5t132.5 95.5q35 16 73 25.5t80 9.5q36 0 83 -10zM774 77q0 -44 -26 -70t-69 -26q-41 0 -67.5 26t-26.5 70q0 43 26.5 69t67.5 26q43 0 69 -26t26 -69z" />
    <glyph glyph-name="Charu_Chandan.022" unicode="@" horiz-adv-x="1473" 
d="M529 647q0 -82 61 -154h-1q36 -35 75 -50.5t84 -15.5q95 0 154 63q34 33 48.5 70.5t14.5 86.5v220q0 45 -14.5 83t-48.5 73q-62 65 -154 65q-47 0 -85 -17t-71 -49q-63 -68 -63 -155v-220zM346 1327h-4l2 7l4 -1zM343 1329q158 132 405 132q240 0 404 -134
q154 -135 154 -351v-443q-20 -69 -70.5 -112.5t-132.5 -41.5q-27 2 -63.5 20t-71.5 44q-54 -47 -110 -71.5t-110 -24.5q-127 0 -214 88q-88 85 -88 212v220q0 125 90 212q88 88 212 88q121 0 209 -89q88 -88 88 -211v-220q0 -27 -8.5 -59t-23.5 -75q23 -21 47.5 -36
t46.5 -17q66 0 88 19q11 8 18.5 23t12.5 31v443q0 100 -44 180.5t-118 136.5q-66 40 -145.5 64t-170.5 24q-88 0 -170.5 -24t-147.5 -64q-76 -57 -118.5 -137t-42.5 -180v-440q0 -99 41.5 -178.5t119.5 -136.5q57 -37 127 -60t168 -29v-77q-245 17 -380 126q-33 34 -61.5 76
t-49 88t-32.5 94.5t-12 96.5v440q0 110 37 196.5t115 154.5z" />
    <glyph glyph-name="Charu_Chandan.023" unicode="[" horiz-adv-x="917" 
d="M248 1812h329v-77h-245v-1944h245v-77h-329v2098z" />
    <glyph glyph-name="Charu_Chandan.024" unicode="\" horiz-adv-x="1278" 
d="M1073 -227q9 0 16.5 0.5t16.5 0.5v15q-1 -1 -3 -1q-1 0 -2 -0.5t-3 -0.5zM201 1711l39 -78l21 -42l58 -119l41 -77q29 -59 62.5 -126l69.5 -139t73.5 -148t76.5 -153t77 -153.5t74.5 -150t71 -143t64.5 -131.5q28 -57 55.5 -111.5t56.5 -110.5l26 -54t27 -53l55 -108
q-17 -10 -23 -13t-11 -4q-3 -2 -8.5 -5t-8.5 -5l-6 -2h1q-5 -2 -9 -3.5t-12 -6.5l-299 598l-83 165l-44 89l-31 62q-4 7 -9.5 18.5t-8.5 18.5q-29 56 -60 119t-63.5 127.5t-64 129t-60.5 123.5l-45 90l-72 146l-67 133l-2 4q-2 4 -2 5q-8 17 -18 36t-18 34z" />
    <glyph glyph-name="Charu_Chandan.025" unicode="]" horiz-adv-x="922" 
d="M618 -286h-328v77h245v1944h-245v77h328v-2098z" />
    <glyph glyph-name="Charu_Chandan.026" unicode="{" horiz-adv-x="1078" 
d="M545 279q-67 -162 -62 -247q4 -57 25 -100.5t54 -72.5v1q32 -23 70.5 -35.5t82.5 -12.5h11q8 0 16.5 -0.5t21.5 1.5q0 -3 3 -18l14 -68q-22 -2 -33 -2.5t-22 -0.5q-66 0 -119 17t-98 54q-24 19 -43.5 45t-34 57t-23.5 65t-12 69q1 25 6.5 57.5t14 69t20 75.5t25.5 77v-1
l4 13q17 52 28 90.5t13 60.5v1q0 3 2 7q1 2 1 5v25q0 109 -56 159v-1q-26 20 -54.5 31t-63.5 11h-5q-15 0 -30 -1t-35 -9q-11 -4 -12 -3q-4 -2 -7 -2q-5 -1 -11 -2.5t-11 -2.5q-3 -1 -15 -1v155l9 -1l15 -5q4 -3 6.5 -3.5t7.5 -0.5l13 -4q14 -2 33.5 -3.5t38.5 -1.5
q44 0 83 14t71 37q34 29 55 72t23 97q2 42 -12 103.5t-47 141.5q-23 63 -37 109.5t-16 79.5v10q-1 8 -1.5 19t-0.5 17q0 70 25 128t71 100q35 27 79 44t92 17q13 0 30 -0.5t39 -3.5q-5 -24 -9 -45t-8 -43h-6q-4 0 -7.5 0.5t-6.5 0.5h-7q-3 0 -5.5 0.5t-4.5 0.5h-14
q-35 0 -66 -11.5t-57 -32.5v1q-56 -53 -56 -160v-16v-11t1 -9q2 -26 15 -66.5t36 -94.5q29 -81 45.5 -154.5t18.5 -128.5q-8 -63 -39.5 -127.5t-82.5 -113.5q-4 -2 -5 -3t-2 -1h1q-6 -5 -15 -11t-38 -20q17 -14 26 -21t14 -10q38 -43 62 -101t24 -124q0 -8 -0.5 -17.5
t-1.5 -17.5v-7q-2 -31 -15 -78t-39 -111z" />
    <glyph glyph-name="Charu_Chandan.027" unicode="|" horiz-adv-x="843" 
d="M605 1324v-1079h-87v1079h87z" />
    <glyph glyph-name="Charu_Chandan.028" unicode="}" horiz-adv-x="1074" 
d="M543 279q-24 63 -37 111t-15 79v6q-1 8 -1.5 17.5t-0.5 17.5q0 66 22.5 124t62.5 101q5 3 13.5 9.5t25.5 21.5l-13 7q-17 8 -24 12.5t-14 11.5v-1q-2 1 -2 2t-2 2l-7 5v-1l-11 5l1 3q-42 39 -70 101.5t-36 128.5q2 54 18.5 129.5t44.5 153.5q44 111 50 161q1 3 1 9v11v16
q0 108 -57 159v-1q-56 45 -122 45h-12q-2 0 -4.5 -0.5t-5.5 -0.5h-9q-3 0 -6 -0.5t-8 -0.5q-3 0 -5 -2l-7 35q-4 14 -5 26q-1 8 -1.5 13.5t-4.5 15.5q23 3 40 3.5t29 0.5q49 0 94.5 -17.5t82.5 -48.5q45 -40 68 -95.5t23 -127.5q0 -6 -0.5 -17t-1.5 -19v-10q-2 -29 -15 -71
t-32 -97q-2 -5 -3.5 -10.5t-3.5 -10.5q-32 -78 -47 -141.5t-13 -104.5q2 -57 21.5 -97.5t51.5 -68.5v1q74 -54 160 -54q20 0 39 1.5t33 3.5l14 4q5 0 13 4l16 5q1 0 5 2v-156h-7.5t-5.5 1q-5 1 -10 2.5t-10 2.5l-18 4q-20 8 -37.5 9.5t-34.5 1.5q-32 0 -61.5 -10.5
t-54.5 -30.5q-27 -26 -42.5 -66t-15.5 -93v-27v-4t2 -7q2 -23 14.5 -66t32.5 -97q13 -38 24.5 -76.5t20 -75t14 -69.5t7.5 -58q-6 -71 -36 -135t-78 -102q-45 -36 -97.5 -53t-118.5 -17q-17 0 -56 3l6 32q3 14 5.5 27t6.5 27q15 -2 23.5 -1.5t15.5 0.5h9q88 0 153 50
q31 29 52.5 72.5t25.5 97.5q2 42 -14 105.5t-48 141.5z" />
    <glyph glyph-name="Charu_Chandan.029" unicode="&#x2013;" horiz-adv-x="1119" 
d="M152 950h796v-84h-796v84z" />
    <glyph glyph-name="Charu_Chandan.030" unicode="&#x2014;" horiz-adv-x="1232" 
d="M164 978h918v-84h-918v84z" />
    <glyph glyph-name="Charu_Chandan.031" unicode="&#x2018;" horiz-adv-x="715" 
d="M124 1454q-3 10 -3 38q0 71 46 123q71 65 147 70q9 1 19 1h18q15 0 29.5 -0.5t26.5 -3.5l-19 -51v1l-6 -16q-6 1 -13.5 1h-14.5q-33 0 -64.5 -11t-60.5 -40q-20 -20 -28.5 -46t-6.5 -53q1 -12 7 -26.5t17 -31.5q8 -10 20.5 -16.5t23.5 -9.5q11 -2 21 -2t17 3q35 14 35 46
q0 26 -22 40q0 1 0.5 2.5t0.5 2.5q2 8 2.5 14t1.5 14q0 4 2 10q0 3 1 8t1 7q44 -15 68 -43t24 -56q0 -23 -17 -57q-12 -21 -35 -36.5t-49 -23.5q-1 0 -2.5 -0.5t-3.5 -0.5q-2 -1 -5.5 -1h-5.5h-17q-20 -2 -44 6.5t-47 23.5q-50 39 -64 113v1z" />
    <glyph glyph-name="Charu_Chandan.032" unicode="&#x2019;" horiz-adv-x="764" 
d="M632 1546q3 -11 3 -39q0 -67 -45 -123q-68 -65 -149 -71q-8 -1 -16.5 -1h-16.5q-18 0 -32 1t-27 4q5 11 7 16.5t3 8.5l3 10l13 32q6 -1 12.5 -1h14.5q33 0 64.5 11t60.5 40q20 19 28.5 46.5t6.5 52.5q-2 12 -8.5 25.5t-16.5 25.5t-21.5 21t-22.5 12q-10 2 -21 2t-17 -3
q-15 -7 -24 -18.5t-9 -28.5q0 -28 21 -39q0 -5 -0.5 -8.5t-1.5 -7.5l-3 -20q-2 -5 -2.5 -7.5l-1.5 -7.5v-7q-44 15 -68 43t-24 56q0 21 19 56q11 20 34 36t47 24q2 0 3.5 0.5t2.5 0.5h7q1 0 1.5 0.5t2.5 0.5h16q47 3 92 -31q48 -34 65 -111v-1z" />
    <glyph glyph-name="Charu_Chandan.033" unicode="&#x201c;" horiz-adv-x="1114" 
d="M581 1458q-3 10 -3 38q0 69 47 125q68 63 147 68h5q2 0 4 0.5t4 0.5q8 1 15.5 1h13.5q17 0 29.5 -1t22.5 -4l-10 -28q-4 -8 -7 -16.5t-7 -21.5q-6 1 -13.5 1h-16.5q-33 0 -64.5 -11.5t-60.5 -38.5q-21 -20 -30 -46t-4 -54q1 -14 7 -28t15 -25.5t20 -20t21 -10.5
q10 -1 20.5 -1t15.5 1h-1q43 17 43 48q0 14 -6 24t-16 16q0 3 0.5 8.5t1.5 7.5q0 3 1 8t1 8q0 4 2 10q0 3 1 8t1 7q45 -13 68.5 -41t23.5 -57q0 -13 -5.5 -26.5t-13.5 -30.5q-19 -43 -84 -60q-12 -3 -15 -3h-16q-25 -2 -46 6t-44 22q-23 20 -41 49.5t-26 65.5v1zM127 1458
q-3 10 -3 38q0 69 46 122q35 32 71.5 50.5t77.5 20.5q9 1 18.5 1h17.5q20 0 32.5 -0.5t24.5 -3.5l-13 -37l-9 -29q-5 1 -14.5 1h-15.5q-34 0 -67 -11.5t-59 -38.5q-21 -20 -30 -46.5t-7 -53.5q1 -12 8 -26.5t18 -31.5q9 -10 20 -17t22 -9t21.5 -2t18.5 3q34 14 34 47
q0 27 -21 38q0 6 0.5 9.5t1.5 7.5l3 17q0 4 2 10q0 3 1 8t1 7q44 -15 67.5 -43t23.5 -55q0 -14 -4.5 -27.5t-12.5 -30.5q-12 -21 -35.5 -36.5t-47.5 -23.5q-1 0 -2.5 -0.5t-3.5 -0.5q-2 -1 -5.5 -1h-5.5h-18q-22 -2 -45.5 6.5t-46.5 23.5q-21 18 -38 47t-26 66v1z" />
    <glyph glyph-name="Charu_Chandan.034" unicode="&#x201d;" horiz-adv-x="1193" 
d="M1048 1547v4l20 3v-4zM1050 1549q1 -6 1.5 -16t0.5 -23q0 -68 -46 -125q-67 -64 -149 -70q-8 -1 -17.5 -1h-17.5q-20 0 -32 0.5t-24 3.5l12 36l12 32q6 -1 13 -1h16q32 0 65 12t62 43q20 17 27.5 42.5t5.5 51.5q-1 14 -7.5 29.5t-20.5 29.5q-8 11 -19.5 17t-23.5 8
q-8 3 -18.5 2.5t-18.5 -3.5q-15 -7 -24 -18.5t-9 -27.5q0 -25 20 -37l-3 -29q-1 -6 -1.5 -13t-2.5 -19q-46 15 -69 42.5t-23 57.5q0 20 17 56q11 20 33.5 35.5t51.5 23.5q10 3 15 3h16q21 1 43.5 -7.5t48.5 -24.5q22 -17 40 -45t26 -65zM595 1547q4 -9 4 -38q0 -67 -48 -124
q-32 -32 -70 -50t-77 -21q-8 -1 -17 -1h-17q-42 0 -57 4l12 36l12 32q6 -1 12.5 -1h14.5q34 0 67 11t59 40q20 20 29 46t7 53q-1 13 -7.5 27t-16.5 25.5t-21.5 20t-22.5 11.5q-23 5 -40 -1q-15 -7 -24 -18.5t-9 -27.5q0 -30 21 -40q0 -5 -0.5 -8.5t-1.5 -7.5l-4 -20
q-2 -6 -2 -8t-1 -7v-7q-45 15 -68.5 43t-23.5 56q0 11 5 26t13 30q11 20 34 36t48 24q2 0 3.5 0.5t2.5 0.5h7q1 0 1.5 0.5t2.5 0.5h16q23 2 45.5 -6t47.5 -25q47 -34 64 -111v-1z" />
    <glyph glyph-name="Charu_Chandan.035" unicode="&#x200c;" 
d="M50 1459v-1431h-88v1431h88z" />
    <glyph glyph-name="Charu_Chandan.036" unicode="&#x200d;" 
d="M-249 1774q-1 0 -3 2l4 2zM-252 1776l-3 3v-5zM-252 1338l206 221l-70 72l-38 42h1l-39 43l-5 5l-3 4q-6 7 -12.5 14t-14.5 15l-18 18q-2 0 -4 1t-3 1l19 20l21 21l8 7q5 5 6 7l200 -217q8 8 13 13.5t13 14.5l28 27h-1l20 23l11 11h-1l15 18l51 53l51 56l28 -29l26 -21
l-204 -219q9 -10 21.5 -24t26 -28.5t26 -28t21.5 -22.5q10 -12 23.5 -27t28 -31t29 -31.5t27.5 -28.5l-32 -32h1l-4 -4t-15 -12l-159 169v-1514h-88v1514l-27 -30t-13 -15l-16 -15l-12 -14q-21 -23 -46 -50.5t-45 -47.5z" />
    <glyph glyph-name="Charu_Chandan.037" unicode="&#x25cc;" horiz-adv-x="1295" 
d="M659 1217q-50 0 -50 52q0 48 50 48q46 0 46 -48q0 -52 -46 -52zM857 1179q-49 0 -49 49q0 47 49 47q46 0 46 -47q0 -49 -46 -49zM460 1179q-49 0 -49 49q0 47 49 47q50 0 50 -47q0 -49 -50 -49zM1026 1067q-51 0 -51 46q0 53 51 53q48 0 48 -53q0 -46 -48 -46zM292 1067
q-49 0 -49 43q0 56 49 56q50 0 50 -53q0 -46 -50 -46zM1135 897q-50 0 -50 47q0 49 52 49q50 0 50 -49q0 -47 -52 -47zM182 897q-51 0 -51 47q0 49 48 49q50 0 50 -49q0 -47 -47 -47zM1181 697q-51 0 -51 49q0 51 51 51q47 0 47 -51q0 -49 -47 -49zM140 697q-48 0 -48 49
q0 51 48 51q49 0 49 -51q0 -49 -49 -49zM1135 502q-50 0 -50 49q0 47 50 47q52 0 52 -47q0 -49 -52 -49zM179 502q-48 0 -48 49q0 47 48 47q50 0 50 -47q0 -49 -50 -49zM1026 329q-49 0 -49 49q0 50 49 50q51 0 51 -50q0 -49 -51 -49zM292 329q-49 0 -49 49q0 50 49 50
q50 0 50 -50q0 -49 -50 -49zM857 219q-49 0 -49 47q0 53 49 53q50 0 50 -53q0 -47 -50 -47zM460 219q-49 0 -49 47q0 53 49 53q50 0 50 -48q0 -52 -50 -52zM659 177q-50 0 -50 51q0 50 50 50q46 0 46 -50q0 -51 -46 -51z" />
    <glyph glyph-name="Charu_Chandan.038" unicode="&#x964;" horiz-adv-x="1005" 
d="M739 1276v-1079h-87v1079h87z" />
    <glyph glyph-name="Charu_Chandan.039" unicode="&#x965;" horiz-adv-x="1148" 
d="M509 1276v-1079h-87v1079h87zM906 1276v-1079h-85v1079h85z" />
    <glyph glyph-name="Charu_Chandan.040" unicode="&#x981;" 
d="M-211 2019q-11 -63 -32.5 -112t-60.5 -89q-86 -86 -214 -86q-63 0 -117 21.5t-106 72.5q-65 71 -85 193h77q7 -43 24 -77t40 -57q35 -34 78.5 -54.5t88.5 -20.5q46 0 88.5 19.5t78.5 54.5q23 20 38.5 56.5t23.5 78.5h78zM-459 1994q-24 -24 -57 -24q-32 0 -55 25
q-26 23 -26 55q0 29 27 56q25 25 54 25q34 0 57 -25q26 -28 26 -56q0 -30 -26 -56z" />
    <glyph glyph-name="Charu_Chandan.041" unicode="&#x982;" horiz-adv-x="1127" 
d="M1074 -34l1 -1v1h-1zM1056 -25l14 -5l-1 -4h-15zM1100 23l5 -3q0 2 -0.5 3t-0.5 4zM134 720q28 -22 56 -42t57 -40l24 -17l70 -51q28 -21 59 -43t60 -42l31 -23q145 -106 300 -218.5t309 -221.5l-12 -13l-13 -17l-8 -9l-9 -12h1l-9 -11l-232 169l-323 232l-344 245
l-41 32l-24 19zM647 1137q-79 0 -131 -52q-26 -27 -39.5 -59t-13.5 -74t13.5 -73.5t39.5 -60.5v1q29 -25 61 -38t70 -13q42 0 72.5 12.5t59.5 38.5q54 54 54 133t-54 133q-55 52 -132 52zM915 952q0 -98 -64 -168q-97 -99 -204 -99q-106 0 -187 79q-78 81 -78 188t79 189
q40 40 86 58.5t100 18.5t100 -18.5t86 -58.5q82 -78 82 -189z" />
    <glyph glyph-name="Charu_Chandan.042" unicode="&#x983;" horiz-adv-x="781" 
d="M255 1134q0 -35 19 -68h-1l10 -11l8 -6v1q49 -38 93 -38q49 0 86 34q18 20 27.5 41t9.5 47t-11.5 49.5t-31.5 43.5v-1q-17 14 -35.5 22t-44.5 8q-23 0 -45.5 -9.5t-46.5 -27.5v1q-37 -39 -37 -86zM185 1134q0 41 15.5 75.5t48.5 62.5v-1q56 52 135 52q39 0 74 -14t65 -43
q56 -56 56 -132q0 -77 -56 -133q-28 -27 -63 -42t-76 -15q-84 0 -141 57v-1q-30 26 -44 59t-14 75zM255 381q0 -45 33 -81v1q29 -20 51.5 -30t44.5 -10q50 0 87 34q36 39 36 86q0 55 -36 91q-35 36 -87 36q-26 0 -49.5 -10t-40.5 -27q-39 -36 -39 -90zM185 381q0 40 16 76
t46 64q60 54 137 54q80 0 139 -55q56 -59 56 -139q0 -35 -13.5 -69t-42.5 -65q-30 -27 -63.5 -40.5t-75.5 -13.5t-77 14.5t-64 40.5q-58 55 -58 133z" />
    <glyph glyph-name="Charu_Chandan.043" unicode="&#x985;" horiz-adv-x="2164" 
d="M2267 1434h-312v-1462h-82v513q-75 48 -158.5 83.5t-173.5 57.5q-1 -9 -3 -22t-4.5 -28t-5.5 -29.5t-6 -26.5q-11 -41 -34.5 -89t-65.5 -99q-91 -103 -214.5 -158.5t-284.5 -55.5h-10q-82 0 -173 28t-177 75q-71 49 -135.5 114t-119.5 146t-98.5 177.5t-73.5 207.5l41 10
h-1l38 10q59 -225 157.5 -373t242.5 -229q78 -45 152 -65t146 -19q148 0 254 42.5t183 128.5h-1q41 48 66.5 96.5t36.5 91.5q8 42 13 85.5t5 88.5q0 103 -33.5 183t-93.5 140q-54 53 -120 87t-130 45q-14 3 -30 4t-30 1h-10t-10 -1q-2 0 -2.5 -0.5t-2.5 -0.5h-6l-24 -3
t-37 -7q-23 -3 -49.5 -16t-52.5 -33q-24 -20 -48.5 -51t-41.5 -64q-11 -26 -16.5 -51.5t-5.5 -46.5q0 -75 50 -128q64 -64 148 -64q17 0 31.5 2t34.5 9q25 6 48 17t49 28l23 -29l13 -18q8 -13 15 -20q-45 -29 -86 -46t-86 -24q-9 -2 -20 -2.5t-22 -0.5q-118 0 -206 92
q-21 20 -35.5 44t-21.5 47q-8 26 -12.5 49.5t-4.5 52.5q0 30 6.5 61t20.5 60q97 182 262 209h-1q22 6 42 8t44 2q23 0 52 -2.5t61 -9.5q64 -12 131 -48t131 -92q98 -103 131.5 -208t22.5 -200q79 -20 160 -49.5t166 -72.5v848h-1987v78h2381v-78z" />
    <glyph glyph-name="Charu_Chandan.044" unicode="&#x986;" horiz-adv-x="2588" 
d="M-152 1512h2819v-78h-248v-1462h-81v1462h-419v-1462h-81v513q-132 91 -336 139q-2 -18 -6.5 -48t-9.5 -56q-11 -42 -37 -91t-64 -97q-89 -103 -211.5 -158.5t-286.5 -55.5h-12q-82 0 -172.5 28t-175.5 75q-72 48 -136.5 113.5t-119.5 147t-99 178t-74 206.5l41 10h-1
l35 10q60 -223 161.5 -371t241.5 -231q77 -43 153 -64t145 -20q150 0 255 42.5t182 128.5h-1q42 49 67.5 97t36.5 91q8 42 13 85.5t5 88.5q0 101 -35 182.5t-92 140.5q-56 51 -121.5 86t-128.5 46q-14 3 -30 4t-30 1h-11.5t-11.5 -1q-2 0 -2.5 -0.5t-1.5 -0.5h-5
q-8 -1 -23.5 -3t-35.5 -7q-24 -3 -50 -16t-52 -33t-48.5 -49.5t-42.5 -65.5q-11 -26 -16.5 -51.5t-5.5 -46.5q0 -74 52 -128q61 -64 147 -64q17 0 32.5 2t38.5 10q20 5 42 16t49 28l9 -12q2 -4 5.5 -8.5t6.5 -6.5l7 -10q7 -10 13 -17t13 -14q-45 -27 -88.5 -44.5
t-87.5 -24.5q-9 -2 -20 -2.5t-20 -0.5q-115 0 -207 92q-20 18 -34 42.5t-22 48.5q-8 28 -13 52t-5 50q0 30 6 61t20 60q99 182 264 209h-1q20 6 40 8t45 2q23 0 52 -2.5t61 -9.5q66 -12 133 -49t132 -97q80 -83 120.5 -189t30.5 -212q80 -18 160.5 -48t167.5 -75v848h-1990
v78z" />
    <glyph glyph-name="Charu_Chandan.045" unicode="&#x987;" horiz-adv-x="1307" 
d="M1404 1512v-78h-1488v78h1149l6 30q4 15 7 29t5 25q0 3 1 6.5t1 6.5q4 21 6.5 45t2.5 41q0 51 -12.5 102t-35.5 93q-46 70 -132 119.5t-194 72.5q-29 5 -64 7t-64 3q-125 -11 -251 -59t-242 -133l-52 59q65 45 130.5 81t138.5 66q75 29 152 45t159 14q26 0 51.5 -3
t55.5 -9q131 -24 228.5 -83t151.5 -147q26 -51 41 -107.5t15 -117.5q0 -17 -2.5 -40t-5.5 -46l-12 -59q-1 -7 -4 -15.5t-11 -25.5h269zM542 936q-5 0 -12 -0.5t-16 -3.5l-2 82q7 2 13 2h13h7q81 0 134 -71q40 -53 40 -117q0 -24 -9 -54q-12 -42 -47 -76.5t-89 -58.5l-5 -1h1
q-27 -9 -52.5 -13t-49.5 -4q-27 0 -57 6.5t-59 14.5q-66 25 -118.5 77.5t-80.5 132.5q-6 26 -9 45.5t-3 39.5q0 36 7.5 71t20.5 71q56 149 233 224q38 13 79 20.5t89 7.5q23 0 49 -2t51 -7q43 -9 88 -27t88 -44t81.5 -60t68.5 -74q33 -51 50 -110.5t20 -127.5q1 -7 1 -14.5
v-14.5q0 -83 -31 -158t-91 -147q-155 -175 -492 -226h-78q117 -46 165.5 -65t94 -37.5t86 -35t70.5 -29.5q37 -15 81.5 -34t90.5 -39.5t91 -41.5t84 -40l-35 -71q-141 64 -271.5 121t-252.5 108t-236.5 96t-224.5 84q1 6 1.5 11t2.5 7q1 4 2 7.5t3 8.5q2 10 6 21t6 21
q60 -10 108.5 -14t97.5 -4q91 0 179 19t167 51q66 31 117.5 63t82.5 67h-1q100 116 100 260q0 14 -1 30.5t-3 30.5q-7 42 -21 84t-31 71q-64 81 -143.5 129.5t-175.5 55.5q-3 1 -8.5 1h-11.5h-19q-39 0 -76 -4.5t-72 -18.5q-75 -32 -124 -86.5t-72 -120.5q-8 -23 -11 -45.5
t-3 -42.5q0 -31 4 -51v1q59 -152 183 -180q14 -2 30 -3.5t34 -1.5q21 0 41.5 2.5t39.5 7.5q35 17 58 40t32 49v-1q1 5 1.5 11t0.5 14q0 19 -7 38t-18 36q-13 17 -32 27t-43 10z" />
    <glyph glyph-name="Charu_Chandan.046" unicode="&#x988;" horiz-adv-x="1533" 
d="M1619 1512v-78h-1706v78h1271l6 30q5 20 8.5 38t4.5 29q4 21 6 45t2 41q0 49 -12.5 99.5t-35.5 95.5q-24 33 -58.5 63.5t-76.5 55t-90.5 43.5t-99.5 30q-29 5 -64 7t-63 3q-125 -11 -251.5 -59t-243.5 -133l-51 58q64 45 130.5 81.5t139.5 66.5q73 29 150.5 45t160.5 14
q51 0 104 -12q133 -24 230.5 -83t151.5 -147q26 -51 40.5 -108t14.5 -117q0 -17 -1.5 -40t-5.5 -46q-1 -8 -4 -23t-8 -36q-1 -7 -4 -15.5t-11 -25.5h366zM493 944h-9.5t-8.5 -1l-7 73q11 1 23 1.5t22 -0.5q38 -4 71 -23.5t59 -50.5q17 -26 23 -51t6 -53q0 -20 -3.5 -37
t-10.5 -37q-40 -82 -139 -118q-28 -8 -53 -12.5t-50 -4.5q-34 0 -71 10t-70 26q-114 62 -164 203v18q-4 17 -5 32.5t-1 28.5q0 43 10.5 84.5t27.5 81.5q18 35 44 66.5t58 57.5t68.5 46.5t74.5 33.5q26 6 50.5 9.5t48.5 3.5q68 0 135 -26q73 -26 134.5 -86.5t106.5 -145.5
q12 -32 20 -69.5t8 -78.5q0 -34 -6.5 -86t-23.5 -125l262 252l165 160l2 1l40 39l48 48l55 -52l-169 -165h1q-88 -108 -137.5 -247.5t-49.5 -304.5q0 -39 1.5 -78t5.5 -77q8 -42 26.5 -84t45.5 -79q24 -28 55 -52t66 -42t74 -28t79 -10h22l10 -74h-32q-89 0 -172.5 38.5
t-146.5 99.5q-35 46 -61.5 108.5t-40.5 123.5q-4 36 -6.5 72t-2.5 69q0 76 10 152.5t36 161.5l18 62q-81 -86 -125 -127.5t-82 -78.5l-11 -9v1l-25 -24l-29 -28l-44 -40l-42 -40q-15 -14 -31 -29.5t-28 -28.5l-27 -25l-93 -90q-23 -21 -47 -44.5t-46 -45.5l-59 -55l-45 -43
l-92 -88l-19 19l-34 36l426 413q85 92 136 189t62 196q1 3 1.5 7t0.5 10v34q0 32 -6 65t-17 60q-38 85 -97 138t-130 70q-17 2 -35 3t-39 1q-39 0 -79 -9h1q-75 -23 -128 -74.5t-79 -114.5q-11 -25 -16 -55t-5 -56v-22q0 -9 2 -13q21 -63 52 -110t69 -67q49 -25 113 -25
q20 0 35 1.5t31 6.5q38 14 66 37.5t40 47.5q2 7 3 17t1 21q0 28 -9 58q-20 22 -43.5 34.5t-48.5 12.5z" />
    <glyph glyph-name="Charu_Chandan.047" unicode="&#x989;" horiz-adv-x="1657" 
d="M1236 1434l-12 -9q-14 -11 -29.5 -21.5t-31.5 -20.5q-46 -35 -90 -74t-83.5 -81t-74 -84.5t-61.5 -84.5q-34 -58 -52 -103.5t-18 -77.5q0 -14 4.5 -26.5t11.5 -23.5q7 -14 23 -19t39 -5q18 0 36.5 1.5t37.5 6.5q97 13 213 51.5t256 100.5l28 12l3 1q4 3 8.5 6t7.5 6l9 4
q1 -8 1.5 -15t0.5 -17v-13.5t2 -14.5q4 -38 6 -76t2 -71q0 -110 -19.5 -231.5t-53.5 -239.5q-30 -91 -92 -161t-150 -105q-33 -12 -68.5 -18.5t-74.5 -6.5q-77 0 -171 32t-192 89q-66 38 -140.5 105.5t-144.5 157.5q-143 185 -270 513l70 37q60 -164 123 -285t132 -209
q72 -91 140 -155.5t130 -96.5q42 -24 85.5 -44t85 -34t80 -22t71.5 -8q63 0 116 21q66 29 116.5 86t77.5 129q32 109 50 227t18 229v76q-143 -56 -251.5 -90.5t-195.5 -47.5q-24 -5 -45 -7t-37 -2q-44 0 -77 16t-54 42q-11 17 -18 40.5t-7 50.5q0 45 21.5 103t59.5 124
q43 67 114 148t185 185h-1192v78h1356l8 33q3 9 4.5 19t3.5 18l3 15l3 12q3 23 5 44.5t2 41.5q0 51 -11.5 100.5t-37.5 94.5q-23 35 -56.5 65t-75.5 54.5t-90.5 43t-100.5 29.5q-29 5 -65 7t-65 3q-126 -10 -250.5 -57.5t-244.5 -134.5q-8 8 -15 16t-13 16t-11.5 15.5
t-8.5 11.5q62 42 131 79.5t136 67.5q73 29 151 45t160 14q26 0 51.5 -3t55.5 -9q131 -24 228 -83.5t151 -146.5q27 -51 41.5 -108t14.5 -117q0 -17 -1.5 -40t-5.5 -46q-1 -8 -4 -23t-8 -36q-1 -7 -4 -16.5t-13 -24.5h462v-78h-545z" />
    <glyph glyph-name="Charu_Chandan.048" unicode="&#x98a;" horiz-adv-x="1786" 
d="M817 127q-32 16 -61 31t-56 32q-35 20 -65.5 39.5t-53.5 39.5q-46 36 -88 73t-65 64h1q-12 11 -21.5 21t-14.5 17l-20 23l-13 15h1l-10 12q-6 8 -18 20q-11 13 -24.5 30.5t-27.5 37t-27.5 39.5t-24.5 37q-8 12 -28.5 48t-50.5 95l-2 5l24 15l11 7l33 20l54 -111
q23 -42 46.5 -82t49.5 -79q25 -38 44.5 -63.5t31.5 -40.5h-1l4 -5q9 -11 20 -22l25 -25l39 -41l16 -16l8 -7v1q8 -6 15 -13t15 -14v1l31 -26l109 -64l-57 68l-25 28q-41 47 -74 90.5t-50 72.5l-23 36l-7 10l-3 6l-9 16h1l-6 7l-8 16q-4 9 -7.5 15.5t-5.5 10.5l-14 28
q-17 34 -36 73t-31 68q-5 12 -17.5 48t-27.5 81l-5 16q-1 2 -2.5 4.5t-1.5 3.5l-4 10l55 18q6 1 15 6q6 3 8.5 3.5t7.5 2.5l18 -70q12 -51 21.5 -89.5t19.5 -62.5q0 -1 2 -4q7 -18 14.5 -37.5t14.5 -34.5q3 -8 8 -17.5t8 -16.5q12 -27 22.5 -49.5t19.5 -39.5q5 -10 16 -26
t25 -36q9 -12 19.5 -27.5t20.5 -31.5q26 -37 55.5 -71.5t58.5 -63.5t70.5 -60t87.5 -59q47 -26 111.5 -45t136.5 -28q27 1 58 6.5t55 15.5q66 29 119 85.5t80 128.5q32 112 49.5 233.5t17.5 249.5v45q-140 -54 -252 -89t-203 -50h1q-14 -5 -28 -5.5t-28 -0.5h-16
q-46 0 -80.5 15t-56.5 42q-12 18 -20 42.5t-8 49.5q0 46 21.5 102.5t59.5 122.5q47 68 121 149.5t186 181.5h-1279v78h1386v16q0 1 0.5 1t0.5 2l5 15q0 1 1 7.5t2.5 14t3.5 16t3 14.5q0 3 1 6.5t1 6.5q3 22 5 44.5t2 39.5q0 51 -11 100.5t-37 94.5q-45 72 -130 120.5
t-194 71.5q-29 5 -65 7t-65 3q-125 -11 -250.5 -59t-242.5 -133q-15 15 -19.5 21t-9.5 12t-10.5 12.5t-10.5 12.5q65 43 133.5 81t135.5 67q72 29 150 45t161 14q48 0 105 -12q132 -24 229 -83t151 -147q26 -51 40.5 -108t14.5 -117q0 -17 -1.5 -40t-5.5 -46q-1 -5 -2 -10.5
t-2 -12.5l-7 -39l-8 -38h483v-78h-506q-57 -35 -112.5 -76t-106 -88.5t-95 -99.5t-81.5 -107q-34 -59 -53 -105.5t-19 -77.5q0 -10 5 -25t10 -24q10 -9 27 -16t37 -7q17 0 35 1.5t35 3.5q45 8 102.5 22.5t110.5 31.5q29 10 70 24t84 30q22 8 44.5 16.5t46.5 16.5
q11 4 22.5 7.5t22.5 8.5l32 12q1 -6 1.5 -11.5t0.5 -13.5v-10t2 -11q4 -35 6 -73t2 -73q0 -109 -20.5 -228.5t-52.5 -240.5q-32 -91 -95.5 -159.5t-151.5 -104.5q-32 -11 -67 -19t-77 -8q-69 0 -150 25t-174 72h-3z" />
    <glyph glyph-name="Charu_Chandan.049" unicode="&#x98b;" horiz-adv-x="1767" 
d="M233 511q60 -48 124.5 -96t124.5 -86q144 -87 290 -151t294 -106v1129q-96 -78 -201 -162t-211 -168l-216 -172l-205 -164v-24zM289 1350q-20 8 -44 1q-22 -5 -37 -19.5t-23 -35.5q-4 -8 -5 -16.5t-1 -17.5q0 -22 10 -39q33 -67 108 -74q46 -3 90 11t78 40q38 35 59 86.5
t21 117.5q0 27 -1.5 52t-6.5 54l60 22l11 -4q6 -4 9 -5q4 -2 8.5 -4t10.5 -6q84 -51 149 -136.5t110 -202.5q19 14 38 30t38 30l95 76v268h80v-865q87 -14 172.5 -43.5t178.5 -80.5v989h81v-66h260v-78h-260v-1462h-81v515q-75 46 -167 84t-184 58v-657h-80v18
q-75 18 -154.5 45t-159.5 61.5t-160 76t-156 88.5q-102 63 -187.5 129.5t-153.5 136.5l726 588q-20 78 -68 153t-123 154q-12 -108 -40.5 -178t-72.5 -106v1q-83 -74 -203 -74h-22q-50 11 -99 39t-77 73q-8 18 -14 37.5t-6 39.5q0 22 5 40t12 38q40 94 140 102l18 2h5
q20 0 41 -6z" />
    <glyph glyph-name="Charu_Chandan.050" unicode="&#x98c;" horiz-adv-x="1211" 
d="M197 433q0 -11 2 -25.5t6 -33.5h-77q0 1 -0.5 3t-0.5 3q-3 17 -5 30.5t-2 24.5q0 46 13.5 87.5t42.5 86.5l6 6q33 35 75.5 60t77.5 35q14 2 26 3t19 1q30 0 63 -10.5t62 -28.5q51 -32 89 -79t60 -107q15 -42 23 -83t8 -87q0 -20 -6.5 -61.5t-17.5 -102.5
q125 23 206.5 73.5t123.5 132.5q24 35 33 71.5t9 72.5q0 18 -2.5 37t-7.5 38q-17 42 -46 84.5t-68.5 82t-88 75t-104.5 63.5q-69 32 -133 85.5t-112 113.5q-18 28 -34 60.5t-28 66.5t-19 69t-7 68q0 14 1.5 34.5t4.5 44.5l69 -24q-2 -8 -1.5 -16t0.5 -17l1 -15
q0 -152 117 -278q35 -38 81.5 -69t92.5 -55q134 -65 223.5 -153.5t120.5 -191.5q17 -57 17 -106q0 -45 -14 -91t-40 -93q-62 -117 -168.5 -177.5t-258.5 -60.5h-7h-19.5t-28.5 2q17 63 18 91q8 33 12.5 67.5t4.5 64.5q0 33 -4.5 66.5t-16.5 66.5q-16 60 -45 102t-67 65
q-30 15 -55.5 24.5t-45.5 9.5q-35 0 -70.5 -20t-70.5 -56h1q-19 -32 -28.5 -63.5t-9.5 -66.5z" />
    <glyph glyph-name="Charu_Chandan.051" unicode="&#x98f;" horiz-adv-x="1616" 
d="M1417 -28h-94v15q-40 44 -83.5 80.5t-88 64.5t-88 47t-82.5 30q-27 6 -87 6q-40 0 -91.5 -4t-108.5 -12q-37 -5 -79.5 -8t-76.5 -5l-37 -2q-50 6 -98 22.5t-91 42.5t-79 60t-62 76q-37 60 -61 135t-33 166h21.5t21.5 1h20q5 0 10.5 0.5t11.5 0.5q6 -55 18.5 -104
t29.5 -90q42 -99 120.5 -157t175.5 -69q15 0 35.5 1t44 2t48 3t46.5 4q64 8 120 13t99 5q24 0 49.5 -2t48.5 -6q37 -9 81 -24.5t81 -33.5q32 -17 77.5 -48t96.5 -74v1039q-42 49 -89 90.5t-96 73.5t-98 54t-95 31l-40 3q-8 1 -17.5 1.5t-19.5 0.5q-29 0 -56 -3.5t-56 -13.5
q-94 -34 -156 -95.5t-91 -144.5q-12 -33 -16 -65t-4 -61q0 -14 0.5 -29t2.5 -27v1q18 -62 48.5 -105t72.5 -67q28 -15 55.5 -22.5t62.5 -7.5q21 0 45.5 3t51.5 12q48 18 75.5 52.5t27.5 79.5q0 17 -2 31t-5 27v-1q-32 51 -64 59q-5 1 -12.5 1.5t-18.5 0.5t-26 -2.5
t-37 -11.5q-3 5 -6 11t-5 11l-8 9l-2 4q0 2 -0.5 2t-0.5 1q-3 1 -3 3q-4 10 -10 17l-8 13q65 29 107 29q15 0 27 -1.5t26 -6.5q32 -11 61.5 -36t52.5 -63l1 -10q5 -20 8.5 -39t3.5 -37t-3.5 -38.5t-9.5 -46.5q-35 -99 -138 -139q-28 -8 -57 -12.5t-62 -4.5q-102 0 -169 42
q-57 30 -98.5 88.5t-61.5 145.5q-2 14 -3.5 32t-1.5 37q0 47 10.5 95.5t27.5 96.5q43 85 115.5 149.5t168.5 99.5q32 9 64 15t65 6q20 0 46 -2.5t54 -7.5q125 -24 239 -97t211 -205v-1201z" />
    <glyph glyph-name="Charu_Chandan.052" unicode="&#x990;" horiz-adv-x="1947" 
d="M774 1014l-2 -1q1 0 1.5 -0.5t1.5 -0.5zM1414 754q103 26 174 71t111 101q26 44 40.5 93t14.5 102q0 37 -8.5 83t-22.5 94q-14 45 -38.5 90.5t-56.5 96.5q-63 90 -148.5 159.5t-193.5 122.5l4 9v-1q1 4 2.5 7.5t2.5 7.5q0 1 0.5 2.5t0.5 2.5l3 7q2 6 5.5 15t8.5 17
q119 -55 215 -135t165 -175q38 -55 63 -107t39 -99q16 -54 24.5 -102t8.5 -99q0 -59 -19 -120.5t-48 -109.5q-41 -59 -105.5 -107.5t-147.5 -77.5q-8 -5 -33.5 -12t-60.5 -15v-703h-94v15q-40 44 -84 80.5t-88.5 64.5t-87.5 47.5t-81 29.5q-29 6 -88 6q-40 0 -91.5 -4
t-108.5 -12q-40 -5 -84.5 -8t-79.5 -5l-31 -2q-100 12 -186.5 64t-141.5 137q-75 120 -93 301h29h9t14 1h4q5 1 11 1.5t14 0.5q5 -54 19.5 -105.5t31.5 -89.5q22 -46 53.5 -85t70 -68.5t82 -48.5t88.5 -24q15 0 36.5 0.5t45.5 2t48.5 3t45.5 4.5q64 8 120 13t98 5
q26 0 50.5 -2t47.5 -6q38 -9 82 -25t79 -34t81.5 -48.5t95.5 -71.5v1038q-89 100 -186.5 165.5t-191.5 83.5l-41 3q-8 1 -17 1.5t-19 0.5q-29 0 -57.5 -4t-55.5 -13q-94 -34 -156.5 -94t-91.5 -146q-21 -63 -21 -126q0 -14 0.5 -28.5t2.5 -26.5v1q20 -60 50.5 -104t72.5 -69
q28 -14 58 -22t61 -8q21 0 42 2.5t44 9.5q53 22 82 56t29 79q0 18 -2 32t-5 30v-1q-28 47 -67 55q-5 1 -11.5 1.5t-14.5 0.5q-11 0 -26 -2.5t-37 -10.5l-2 6v-1q-5 7 -8 15h1l-10 11l-2 3q0 2 -0.5 2t-0.5 1q-3 1 -3 3l-19 30q65 29 108 29q13 0 25.5 -1.5t27.5 -6.5
q35 -11 62.5 -36t50.5 -64q6 -22 10 -43.5t4 -41.5q0 -19 -4.5 -39.5t-9.5 -45.5q-17 -48 -52.5 -83.5t-86.5 -55.5q-56 -17 -117 -17q-47 0 -90 11.5t-80 31.5q-57 30 -98.5 89t-62.5 144q-2 14 -3.5 32t-1.5 37q0 47 11.5 95.5t29.5 96.5q19 39 49.5 76.5t68 70t80 58.5
t86.5 44q27 8 61 14.5t65 6.5q20 0 45.5 -3t57.5 -8q57 -14 117.5 -40t119.5 -63.5t113 -87t99 -110.5v-419z" />
    <glyph glyph-name="Charu_Chandan.053" unicode="&#x993;" horiz-adv-x="1597" 
d="M1388 862q-14 -47 -40.5 -89t-60.5 -80q23 -31 44.5 -69t32.5 -70q21 -65 21 -115q0 -23 -3 -45t-11 -42v1q-5 -29 -22.5 -60.5t-44.5 -69.5q-49 -66 -123.5 -107.5t-160.5 -52.5q-14 -1 -30.5 -1.5t-33.5 -0.5q-123 0 -236 44.5t-210 124.5q-32 27 -72.5 70t-80.5 97
q-36 51 -72 112t-69 128.5t-62.5 140t-52.5 147.5l77 24q45 -144 109 -272.5t137 -230.5q39 -52 75 -92t63 -62q172 -151 390 -151q29 0 61 3q71 7 127.5 37.5t98.5 87.5q21 30 36 58.5t20 56.5q3 13 5 26t2 29q0 23 -4 47.5t-13 47.5q-19 60 -63 113q-63 -32 -134.5 -49
t-147.5 -17q-6 0 -19 0.5t-24 1.5h-4q-1 0 -2 0.5t-2 0.5q-2 0 -5 3l6 65v5q0 2 0.5 3.5t0.5 3.5q20 -2 34 -3t27 -1q34 0 68 4.5t69 12.5h-1q86 24 142.5 79t81.5 127q10 37 10 86q0 27 -3 51q-5 42 -19 82.5t-32 72.5q-38 69 -107.5 114.5t-161.5 67.5q-32 6 -70 6
q-53 0 -106.5 -19.5t-101.5 -55.5q-20 -17 -38 -43.5t-28 -57.5t-10 -69q0 -29 10 -60l2 -10q7 -29 28.5 -53.5t59.5 -41.5q18 -11 37 -15t39 -4q15 0 30.5 3t30.5 11q46 18 52 125q5 0 10.5 -0.5t10.5 -0.5h18q8 -1 19.5 -1h21.5q-4 -53 -17 -93.5t-33 -66.5
q-11 -11 -25.5 -21.5t-25.5 -15.5q-22 -10 -44 -15t-48 -5q-29 0 -56 7.5t-54 20.5q-54 29 -88.5 68.5t-45.5 89.5v-1q-6 20 -10 40t-4 40q0 24 2.5 46t9.5 43q13 43 36.5 79.5t57.5 63.5q48 38 108.5 61t121.5 29q5 1 11 1h12h26q15 0 32.5 -1t38.5 -6q48 -15 95 -37.5
t89 -51t76.5 -61t56.5 -68.5q24 -42 41 -94t24 -103q1 -11 1.5 -23t0.5 -24q0 -56 -15 -110v-1z" />
    <glyph glyph-name="Charu_Chandan.054" unicode="&#x994;" horiz-adv-x="1945" 
d="M1403 1020q1 -11 1.5 -23t0.5 -24q0 -29 -3.5 -56t-9.5 -56l-18 -54q37 14 54.5 22.5t25.5 13.5l6 3q77 46 123 109q55 93 55 196q0 35 -8.5 81t-22.5 94q-14 43 -40 91.5t-55 96.5q-65 88 -150 160t-191 122q8 20 9 23t1 4q2 8 6 16t6 14l6 8q121 -56 214.5 -133.5
t161.5 -174.5q38 -55 64.5 -108.5t40.5 -97.5q14 -51 23 -101t9 -99q0 -60 -19.5 -122t-48.5 -110q-81 -122 -251 -184l-46 -13l-65 -16q37 -47 55 -82q9 -18 17 -35t13 -31q20 -66 20 -115q0 -37 -11 -78v1q-6 -32 -24 -67t-44 -72q-51 -66 -124 -107.5t-161 -52.5
q-14 -1 -30.5 -1.5t-33.5 -0.5q-124 0 -236.5 44.5t-209.5 124.5q-33 28 -72.5 70t-80.5 97q-37 52 -73 113t-69 128.5t-62 140t-52 146.5l76 24q46 -144 109.5 -272.5t136.5 -230.5q38 -52 74 -91.5t65 -62.5q174 -151 391 -151q30 0 59 3q71 7 127.5 39t98.5 86
q20 27 35.5 57.5t21.5 56.5q8 29 8 56q0 18 -5 43t-15 51q-10 29 -26.5 58.5t-37.5 55.5q-131 -66 -279 -66q-6 0 -20 0.5t-25 1.5h-6.5t-6.5 1l5 41q2 9 3 16.5t2 20.5q14 -2 27.5 -2h24.5h9q35 0 68 4.5t67 12.5h-1q88 25 144 78t81 128v-1q5 21 8 42.5t3 44.5q0 27 -3 51
q-5 43 -19.5 83t-32.5 72q-42 69 -110 114t-159 68q-32 6 -70 6q-112 0 -209 -75q-20 -14 -37.5 -42t-27.5 -59q-11 -38 -11 -69q0 -22 11 -60l2 -10q7 -28 27 -52.5t60 -42.5q18 -10 38 -14.5t38 -4.5q15 0 30.5 3t30.5 11q23 11 36.5 41t17.5 84h19.5t19.5 -1
q4 0 9.5 -0.5t9.5 -0.5h21q-4 -57 -16.5 -95.5t-33.5 -64.5q-11 -11 -25 -21.5t-26 -15.5q-23 -10 -45 -15t-48 -5q-29 0 -56 7.5t-54 20.5q-108 57 -132 155v-1q-6 21 -10.5 42t-4.5 41t3.5 41.5t10.5 47.5q14 42 38.5 79t53.5 63q50 38 110.5 61.5t123.5 29.5q4 1 8 1h9
h28q15 0 33.5 -1t37.5 -6q48 -15 95 -37.5t89 -51t76.5 -61t57.5 -68.5q26 -45 42 -93.5t21 -102.5v-1z" />
    <glyph glyph-name="Charu_Chandan.055" unicode="&#x995;" horiz-adv-x="1929" 
d="M2009 1434h-778l93 -30q164 -72 267.5 -163.5t140.5 -196.5q8 -23 15 -52.5t11 -64.5q2 -14 2.5 -28t0.5 -26q0 -47 -9.5 -89.5t-29.5 -77.5q-30 -55 -77.5 -90t-112.5 -48q-14 -3 -28 -4t-26 -1q-47 0 -93 15.5t-87 44.5q-35 37 -54.5 82.5t-21.5 89.5q-3 19 4 56
q4 20 13 41.5t21 38.5q28 39 77 61q14 5 30 8.5t34 3.5h4q18 0 35.5 -2.5t43.5 -11.5q14 -6 29 -19t28 -30q11 -14 18 -32t10 -36q-5 -1 -9 -1.5t-9 -0.5q0 -1 -2 -1q-1 0 -11 -2l-56 -10q-6 32 -28.5 47t-52.5 15q-8 0 -17 -1.5t-17 -4.5q-24 -11 -40.5 -36t-18.5 -65
q-4 -77 49 -134q17 -17 45 -26.5t64 -9.5h8h14.5t12.5 2q48 7 88 34.5t61 64.5q14 26 21.5 58t7.5 67v29q0 12 -2.5 24.5t-5.5 29.5q0 2 -0.5 3.5t-0.5 3.5q-4 17 -7.5 32t-9.5 26q-14 37 -40.5 74.5t-62.5 72.5t-80.5 67.5t-94.5 59.5q-26 13 -58.5 26t-69.5 27l-10 5
q-23 9 -44.5 17t-45.5 14v-1408h-81v12q-152 36 -310.5 103t-323.5 166q-116 71 -199 137.5t-144 135.5l611 908h-792v78h2101v-78zM195 533q75 -67 144 -118t138 -93q144 -88 292 -152t297 -105v1369h-266q-12 -19 -25.5 -39.5t-27.5 -40.5q-14 -21 -28.5 -42.5
t-28.5 -41.5q-16 -23 -31 -46.5t-31 -46.5l-46 -68q-43 -65 -88 -131t-88 -130l-202 -300z" />
    <glyph glyph-name="Charu_Chandan.056" unicode="&#x996;" horiz-adv-x="1409" 
d="M1198 1512h294v-78h-294v-1462h-82v8q-153 35 -308.5 103.5t-323.5 168.5q-100 63 -187 132t-155 141l579 484q3 19 4.5 44t1.5 48q-1 61 -26 132.5t-72 151.5q-16 -93 -45.5 -155.5t-67.5 -97.5q-91 -70 -205 -70h-7q-7 0 -12 1q-57 7 -103.5 36t-74.5 74
q-8 17 -13.5 38.5t-5.5 40.5q-1 18 1.5 36.5t10.5 38.5q9 21 23.5 40.5t33.5 34.5q19 14 40 22.5t45 9.5q39 1 67 -9.5t47 -26.5l10 -13h-1l25 -29h-1l5 -6l-52 -23l-28 -12q-8 17 -25.5 25.5t-49.5 9.5q-18 -5 -34 -15.5t-24 -24.5q-8 -19 -10.5 -34t-1.5 -23q0 -18 10 -35
q19 -36 46 -51.5t63 -17.5q45 -2 90.5 10.5t79.5 38.5v-1q82 75 78 206q0 25 -2 50.5t-5 54.5l17 5h-1q5 2 11 3.5t13 3.5l21 5q6 -3 17.5 -15t27.5 -29l5 -5l10 -9q27 -26 53.5 -66t49.5 -92q24 -54 36.5 -109t12.5 -116q0 -55 -9 -112l-25 -25l-515 -426
q70 -57 139.5 -107t126.5 -88q143 -87 292 -151t298 -105v1508h82v-66z" />
    <glyph glyph-name="Charu_Chandan.057" unicode="&#x997;" horiz-adv-x="1405" 
d="M1188 1434v-1462h-84v927q-56 144 -124 246.5t-140 160.5q-57 45 -106.5 72t-84.5 35q-38 9 -66.5 13.5t-43.5 4.5q-32 0 -50 -3q-62 -16 -126 -69t-124 -140q-20 -39 -41 -95.5t-39 -119.5q115 19 198.5 28t137.5 9h20h9.5t9.5 -1q65 -2 113.5 -20.5t70.5 -57.5
q5 -17 8.5 -32.5t3.5 -31.5q0 -45 -22.5 -93t-64.5 -105q-37 -56 -100 -120t-160 -139q-14 21 -23 32.5t-23 28.5q82 63 141.5 123.5t97.5 114.5q36 49 56.5 90t20.5 68q0 17 -8 31q-22 34 -110 34q-44 1 -96 -2.5t-107 -10t-110.5 -14.5t-107.5 -16q-2 -2 -6.5 -2.5
t-6.5 -0.5l-12 -3l-20 -3l5 51q14 96 51 189t88 168q22 33 52 62t64 52.5t70.5 40.5t72.5 27q17 3 35 5t32 3q44 -6 90 -17t90 -27.5t84.5 -37.5t74.5 -47q17 -12 47.5 -42t65.5 -72h-1q25 -25 53.5 -69t60.5 -95v476h84v-66h290v-78h-290z" />
    <glyph glyph-name="Charu_Chandan.058" unicode="&#x998;" horiz-adv-x="1353" 
d="M1422 1434h-253v-1462h-81v21q-158 36 -313.5 103.5t-316.5 165.5q-99 60 -188.5 130.5t-153.5 137.5l406 424h-23.5t-31.5 -1q-17 0 -32 -0.5t-21 -0.5q-15 -1 -32.5 -1h-25.5h-42q-155 3 -196 87q-17 39 -17 82t18.5 90.5t53.5 98.5q10 14 34 44t70 81h-335v78h1480
v-78zM1088 1434h-683q-53 -45 -93.5 -89t-65.5 -80q-31 -43 -47.5 -79.5t-16.5 -65.5q0 -11 5 -25t13 -31h-1q14 -15 46 -22t70 -9q5 -1 12.5 -1h14.5h25q67 0 143 6t161 20l7 -28l6 -25q0 -4 0.5 -10t2.5 -11q0 -3 3 -6l-9 -1q-5 -2 -9 -2.5t-10 -0.5l-44 -43
q-94 -97 -190.5 -198t-193.5 -203q72 -63 136.5 -109t132.5 -88q143 -87 287 -150.5t298 -104.5v1356z" />
    <glyph glyph-name="Charu_Chandan.059" unicode="&#x999;" horiz-adv-x="1514" 
d="M989 1065q0 20 -9 39t-23 36q-23 18 -46 29.5t-40 11.5q-47 0 -76 -29q-18 -20 -28.5 -41t-10.5 -46q0 -26 10 -46t27 -40q32 -32 78 -32q49 0 81 32q18 20 27.5 40.5t9.5 45.5zM1388 742q0 -109 -18.5 -224t-54.5 -236q-13 -39 -37.5 -77.5t-55.5 -72t-67 -61t-72 -45.5
q-34 -12 -71 -19t-73 -7q-78 0 -171.5 32.5t-187.5 84.5q-124 75 -254 221.5t-251 358.5l69 38q114 -200 236.5 -338.5t237.5 -211.5q42 -22 85 -41.5t85 -34t80 -23t70 -8.5q25 0 55 5.5t50 13.5q66 29 119.5 85t79.5 127q32 112 48 231t16 246v42q-276 -108 -433 -137
q-21 -3 -40.5 -4.5t-33.5 -1.5q-48 0 -84.5 15.5t-60.5 43.5q-20 26 -31.5 59t-11.5 71q2 57 14 107.5t33 103.5q-11 36 -16.5 72.5t-5.5 68.5q0 48 12 100.5t31 98.5q10 23 29.5 53t42.5 61q5 -5 8.5 -9t2.5 -4l17 -16l12 -14l15 -15q-42 -52 -67.5 -123.5t-30.5 -178.5
q91 74 169 73q75 0 133 -58q26 -28 40.5 -60t14.5 -71q0 -68 -54 -131q-27 -26 -60.5 -40.5t-75.5 -16.5q-95 2 -174 90q-5 -36 -7 -57.5t-2 -32.5q0 -28 7 -49.5t18 -37.5q12 -9 31.5 -17t47.5 -8h29q4 0 14.5 2.5t24.5 5.5t31 7l34 8l13 3h-1l71 19q38 10 65 18
q57 20 122.5 45.5t125.5 60.5l24 13l27 15q6 -69 9 -126.5t3 -91.5z" />
    <glyph glyph-name="Charu_Chandan.060" unicode="&#x99a;" horiz-adv-x="1307" 
d="M978 777v-1q-28 23 -66.5 39t-84.5 21q-15 3 -29.5 4t-31.5 1q-90 0 -215 -42t-268 -113v-630q35 -5 57.5 -5.5t44.5 -0.5h8q40 0 88 5.5t98 16t100.5 25.5t94.5 34q106 44 184 122.5t121 179.5q16 43 16 88q0 20 -2.5 41t-9.5 44q-13 51 -36.5 90t-53.5 66zM283 1434
v-653q152 69 269.5 102.5t208.5 33.5q20 0 46 -2t48 -6q57 -13 109.5 -38t91.5 -65q12 -12 26.5 -31t29 -42.5t27 -50t21.5 -54.5q8 -30 10 -56.5t2 -51.5q0 -30 -5 -61t-13 -56q-48 -120 -134.5 -206.5t-214.5 -137.5q-94 -41 -201 -64t-216 -23q-46 0 -90 4t-92 14v1444
h-272v78h1475v-78h-1126z" />
    <glyph glyph-name="Charu_Chandan.061" unicode="&#x99b;" horiz-adv-x="1386" 
d="M280 1434v-393q149 60 259 90t192 30q20 0 41.5 -1.5t39.5 -4.5q46 -10 92.5 -29t77.5 -43q69 -59 107 -126.5t38 -140.5q0 -36 -8 -73t-22 -75q-7 -15 -20 -41t-39 -64l28 -11l12 -5q24 -13 48 -25t39 -25v1q42 -36 61.5 -81.5t15.5 -91.5q-8 -58 -55.5 -105.5
t-140.5 -89.5q-18 -7 -67 -22t-146 -40q162 -86 302.5 -145t271.5 -95q-5 -22 -6 -25.5t-2 -4.5l-1 -2l-8 -27l-4 -13q-174 49 -344.5 124t-317.5 167q-2 0 -3.5 -0.5t-3.5 -0.5l-8 32l-2 10q-2 4 -3.5 10t-6.5 20q43 8 88 19t88.5 22.5t83.5 24t74 23.5q57 29 91.5 63
t42.5 67q-1 23 -13 51.5t-36 50.5v-1q-54 43 -134 57q-66 -63 -131.5 -104.5t-129.5 -67.5q-91 -32 -201.5 -51t-223.5 -19h-58q-2 0 -3.5 0.5t-3.5 0.5q-5 1 -9 1.5t-6 0.5h-14v1178h-273v78h1582v-78h-1231zM930 1030q-26 20 -61.5 34t-81.5 19q-11 2 -26 2.5t-26 0.5
q-87 0 -199.5 -34t-255.5 -100v-623q65 3 121 8t102 12q47 8 102 20t98 29v-1l7 7q112 38 190 113.5t123 179.5q12 26 17.5 55.5t5.5 58.5q0 57 -31 113t-84 105z" />
    <glyph glyph-name="Charu_Chandan.062" unicode="&#x99c;" horiz-adv-x="2000" 
d="M1094 1434q-44 -36 -83 -72.5t-69 -68.5q-36 -39 -71 -84t-64 -90q-31 -57 -50 -104t-19 -77q0 -14 5.5 -27.5t12.5 -24.5q8 -14 22 -17.5t37 -3.5q20 0 37.5 1.5t36.5 6.5q95 13 215.5 52.5t257.5 100.5l52 26l7 -58q4 -38 5.5 -76t1.5 -71q0 -110 -19.5 -231.5
t-51.5 -239.5q-32 -94 -95 -162t-151 -106q-32 -11 -67 -17t-74 -6q-81 0 -173 31.5t-191 88.5q-33 19 -69 46.5t-72.5 61.5t-72 73t-68.5 81q-73 94 -143 223.5t-131 288.5l71 39q58 -159 122.5 -282t132.5 -211q34 -43 69 -81.5t70 -71t68.5 -58t63.5 -41.5
q86 -48 171 -78.5t151 -30.5q31 0 61 5.5t54 14.5q31 15 60.5 37.5t55 51t45.5 60.5t33 67q34 107 51.5 226t17.5 231v75q-144 -55 -252.5 -89.5t-196.5 -47.5q-24 -5 -44.5 -7t-37.5 -2q-86 0 -128 56q-27 37 -27 92q0 45 21.5 103.5t59.5 124.5q18 26 44.5 61t68.5 83h-1
q10 12 25 28.5t31 34.5t32 35.5t27 29.5h-1055v78h2198v-78h-835q20 -36 43 -65.5t43 -49.5q66 -71 181 -121t264 -80l41 -79q-201 -290 -201 -572q0 -11 0.5 -25.5t1.5 -25.5q9 -141 39 -240.5t79 -151.5l-63 -53q-59 77 -93.5 192.5t-38.5 262.5q-6 320 183 628
q-184 39 -300.5 102t-193.5 148q-33 41 -59 74t-42 56h-67z" />
    <glyph glyph-name="Charu_Chandan.063" unicode="&#x99d;" horiz-adv-x="1759" 
d="M1585 1512h250v-78h-250v-1462h-82v515q-78 47 -164.5 84t-179.5 58v-657h-81v10q-158 35 -313.5 101.5t-321.5 167.5q-116 71 -199.5 138t-148.5 137l616 908h-783v78h1231v-801q84 -14 167.5 -44.5t176.5 -77.5v989h82v-66zM814 1434l-300 -447l-306 -455
q63 -57 134 -108t149 -98q145 -92 290 -154.5t297 -102.5v1365h-264z" />
    <glyph glyph-name="Charu_Chandan.064" unicode="&#x99e;" horiz-adv-x="1894" 
d="M1375 1095q45 23 88.5 38t80.5 14q48 0 88 -17.5t76 -50.5q65 -66 65 -162q0 -50 -27.5 -100t-79.5 -98q48 -50 77.5 -102t29.5 -94q0 -48 -17.5 -89.5t-49.5 -73.5q-34 -32 -75 -50.5t-87 -18.5q-66 0 -169 55v-374h-83v12q-88 90 -177.5 143.5t-166.5 76.5h1
q-14 3 -37.5 4.5t-49.5 1.5q-42 0 -92 -3.5t-105 -11.5q-24 -3 -50.5 -6t-52 -5t-48.5 -3.5t-40 -1.5q-48 7 -94.5 23t-88 40.5t-77 58.5t-60.5 76q-38 60 -59.5 132.5t-32.5 162.5h57q5 0 12 0.5t13 0.5q7 -52 19 -100.5t29 -86.5q21 -46 51.5 -84.5t68.5 -68t81 -48
t88 -23.5q15 0 35.5 1t44 2.5t47.5 3t45 4.5q64 8 116.5 12.5t97.5 4.5q23 0 47.5 -2t48.5 -7q38 -9 77 -22t77 -30q29 -14 75.5 -47.5t99.5 -80.5v1022q-84 98 -179.5 161.5t-189.5 84.5l-39 3q-8 1 -18 1.5t-20 0.5q-22 0 -52.5 -5.5t-56.5 -13.5q-90 -33 -152.5 -91.5
t-91.5 -144.5q-10 -30 -14.5 -61t-4.5 -61q0 -14 1 -27t3 -27v1q18 -60 47 -103t71 -65q56 -32 117 -32q20 0 43.5 3.5t49.5 14.5q50 17 76 48t26 79q0 25 -9 60q-11 19 -27 33t-30 20q-12 4 -34 4q-10 0 -23.5 -3.5t-30.5 -8.5q-3 3 -8 12t-7 14q-4 11 -8 22.5t-10 25.5
q20 8 44.5 15t43.5 7q17 0 54 -8q29 -10 58.5 -36.5t53.5 -68.5q11 -41 11 -77q0 -19 -3.5 -38.5t-9.5 -42.5q-17 -49 -51 -83t-84 -56q-45 -16 -117 -16q-46 0 -88.5 12t-77.5 31q-54 32 -95.5 90t-61.5 139q-2 14 -3.5 30.5t-1.5 36.5q0 49 10 95.5t29 91.5q38 84 110 148
t164 99q31 8 64.5 13.5t64.5 5.5q20 0 45 -2.5t56 -8.5q121 -25 232 -94.5t207 -199.5v-56zM1539 1067q-31 0 -61 -11t-59 -29q-11 -10 -22 -23t-22 -30v-514q14 -20 24 -32.5t18 -20.5v1q29 -20 59.5 -31t62.5 -11q68 0 112 48q46 43 46 113q0 62 -48 110
q-15 14 -37.5 25.5t-51.5 19.5v66q31 8 50.5 20.5t39.5 29.5q47 44 47 111t-46 113q-21 20 -50.5 32.5t-61.5 12.5z" />
    <glyph glyph-name="Charu_Chandan.065" unicode="&#x99f;" horiz-adv-x="1448" 
d="M923 741q12 -20 17.5 -40.5t5.5 -41.5q0 -12 -8 -44q0 -1 -0.5 -1t-0.5 -1v-2q-26 -90 -112 -117q-38 -12 -70 -12q-31 0 -72 11q-73 27 -117.5 75t-58.5 121v-1q-5 17 -6.5 32.5t-1.5 31.5q0 25 4 47t11 44q8 18 20.5 40t29.5 42q50 62 122 101.5t154 52.5h4
q2 0 3.5 0.5t4.5 0.5q2 1 5 1h6h18q69 0 137.5 -26.5t128.5 -77.5q50 -43 84.5 -100.5t48.5 -122.5l1 -4q3 -20 5 -39t2 -33q0 -38 -8 -77t-22 -75q-26 -58 -62.5 -112t-82.5 -100.5t-100.5 -83.5t-116.5 -61q-111 -46 -223.5 -70t-223.5 -24q-67 0 -120.5 6.5t-96.5 18.5
q-5 1 -8 2.5t-7 2.5q0 -4 -1 -6l-11 11v1324h-276v78h1176q14 60 21.5 104t7.5 79q0 49 -13 99.5t-36 95.5q-48 68 -133 119t-191 73q-29 5 -64 7t-64 3q-125 -11 -251.5 -59t-242.5 -133q-7 8 -13.5 14.5t-11.5 13.5q-12 18 -25 31q63 42 132 80t136 67q72 29 150.5 45
t160.5 14q26 0 51.5 -3t55.5 -9q131 -24 228 -83.5t151 -146.5q26 -51 41.5 -107.5t15.5 -117.5q0 -29 -5 -73t-22 -113h342v-78h-1240v-1266q97 -15 170 -15q95 0 203 25t208 66q50 23 97.5 55.5t88.5 72.5t74.5 86.5t55.5 97.5q14 29 19.5 60.5t5.5 60.5q0 11 -1 24.5
t-3 22.5q-9 57 -37.5 107.5t-70.5 87.5q-47 38 -101 60t-108 22h-12h-3.5t-4.5 -1q-1 0 -2 -0.5t-2 -0.5h-13q-66 -10 -124 -43.5t-99 -79.5q-23 -29 -36 -62t-13 -65q0 -11 1 -21t4 -21q18 -106 135 -143h-1q20 -5 43 -5q35 0 62.5 23t44.5 64q5 21 -13 51z" />
    <glyph glyph-name="Charu_Chandan.066" unicode="&#x9a0;" horiz-adv-x="1281" 
d="M884 1038q-58 88 -145.5 174t-210.5 177q87 -231 87 -377q0 -39 -5.5 -79t-15.5 -73q-15 -42 -38.5 -83t-56 -77.5t-72 -67.5t-85.5 -54l-128 -52q3 -95 31 -162q11 -20 26 -45.5t33 -45.5q18 -19 41.5 -37t48 -33.5t50 -26.5t48.5 -17q24 -5 49 -7t48 -2q69 0 138.5 25
t129.5 64q46 38 87.5 94t68.5 122q17 42 24.5 85t7.5 85q0 93 -41 198t-117 214zM1364 1434h-763q55 -43 107.5 -89.5t98 -93t84 -91t65.5 -83.5q79 -113 122.5 -227t43.5 -221q0 -52 -11.5 -106t-29.5 -103q-30 -76 -75.5 -140t-102.5 -103q-69 -50 -149.5 -77.5
t-162.5 -27.5q-28 0 -55 2.5t-56 7.5q-69 14 -129.5 48t-105.5 88h1q-23 26 -42 55.5t-31 60.5q-17 42 -27.5 86t-10.5 95v17.5t1 17.5v8q0 1 0.5 1t0.5 2q1 3 1 8.5v10.5l175 72q159 79 207 231q9 33 14 66.5t5 72.5q0 87 -32 192.5t-90 219.5h-512v78h454
q-126 154 -126 294q0 58 20 121q17 54 50.5 101.5t79.5 89.5q51 46 120.5 75.5t151.5 45.5l7 -70v-8q-73 -11 -129 -36.5t-98 -63.5q-37 -35 -63.5 -75t-43.5 -85q-10 -26 -13 -50t-3 -47q0 -42 12 -83.5t34 -80.5q20 -35 50.5 -68t62.5 -60h893v-78z" />
    <glyph glyph-name="Charu_Chandan.067" unicode="&#x9a1;" horiz-adv-x="1651" 
d="M1236 1434l-19 -15q1 1 -4.5 -3t-8.5 -6l-20 -14q0 1 -8.5 -4.5t-12.5 -8.5q-44 -34 -88 -73.5t-84.5 -81.5t-76 -85t-61.5 -84q-32 -58 -50.5 -103.5t-18.5 -77.5q0 -15 4.5 -27.5t11.5 -23.5q6 -14 22.5 -18.5t39.5 -4.5q17 0 35 1.5t38 6.5q94 13 215 53t256 100
q11 5 18.5 8.5t13.5 7.5l5 2h-1l19 11q1 -8 1.5 -15t0.5 -18v-13.5t2 -14.5q5 -38 7.5 -76t2.5 -71q0 -110 -20.5 -231.5t-52.5 -239.5q-32 -92 -94 -161.5t-150 -104.5q-35 -12 -70 -18.5t-73 -6.5q-80 0 -172.5 32t-191.5 89q-66 38 -140.5 105t-143.5 158
q-70 91 -137 219.5t-133 293.5l70 37q58 -163 122 -283.5t133 -210.5q72 -91 139.5 -155t130.5 -97q42 -24 85.5 -44t85 -34t80 -22t71.5 -8q63 0 116 21q31 15 60.5 37t55 50t45.5 60.5t33 67.5q33 107 50.5 225.5t17.5 230.5v76q-143 -56 -251.5 -90.5t-195.5 -47.5
q-24 -5 -45 -7t-37 -2q-44 0 -77 16t-54 42q-11 17 -18 40.5t-7 50.5q0 45 21.5 103t59.5 124q44 70 120.5 152.5t188.5 180.5h-1202v78h1864v-78h-523z" />
    <glyph glyph-name="Charu_Chandan.068" unicode="&#x9a2;" horiz-adv-x="1427" 
d="M923 741q12 -20 17.5 -40.5t5.5 -41.5q0 -12 -8 -44q0 -1 -0.5 -1t-0.5 -1v-2q-26 -90 -112 -117q-38 -12 -70 -12q-31 0 -72 11q-73 27 -117.5 75t-58.5 121v-1q-5 17 -6.5 32.5t-1.5 31.5q0 45 16.5 89t49.5 85q50 62 122 101t153 52h4q2 0 3.5 0.5t4.5 0.5q2 1 5 1h6
h18q69 0 137.5 -26.5t128.5 -77.5q50 -43 84.5 -100.5t48.5 -122.5l1 -4q3 -20 5 -39t2 -33q0 -38 -8 -77t-22 -75q-26 -58 -62.5 -112t-82.5 -100.5t-100.5 -83.5t-116.5 -61q-111 -46 -223.5 -70t-223.5 -24q-67 0 -120.5 6.5t-96.5 18.5q-5 1 -8 2.5t-7 2.5q0 -4 -1 -6
l-11 11v1324h-276v78h1597v-78h-1240v-1266q97 -15 170 -15q95 0 203 25t208 66q50 23 97.5 55.5t88.5 72.5t74.5 86.5t55.5 97.5q14 29 19.5 60.5t5.5 60.5q0 11 -1 24.5t-3 22.5q-9 57 -37.5 107.5t-70.5 87.5q-47 38 -101 60t-108 22h-12h-3.5t-4.5 -1q-1 0 -2 -0.5
t-2 -0.5h-13q-66 -10 -124 -43.5t-99 -79.5q-23 -29 -36 -62t-13 -65q0 -11 1 -21t4 -21q18 -106 135 -143h-1q20 -5 43 -5q35 0 62.5 23t44.5 64q5 21 -13 51z" />
    <glyph glyph-name="Charu_Chandan.069" unicode="&#x9a3;" horiz-adv-x="1423" 
d="M1215 1512h295v-78h-295v-1462h-83v1109q-60 78 -117 136t-123 104.5t-148 75t-156 28.5q-35 0 -66 -3t-63 -12l-25 -8q-17 -5 -80 -40q-122 -66 -174 -161q-38 -71 -38 -163q0 -32 4.5 -67t17.5 -73q39 -169 227 -230h-1q32 -8 71 -8q16 0 32 1.5t34 3.5q49 8 84.5 24
t62.5 39v-1q64 58 64 130q0 27 -3 42v-1q-11 40 -29 70.5t-52 48.5q-14 5 -24 7.5t-18 2.5q-11 0 -26.5 -3.5t-37.5 -12.5q-2 3 -5 14l-5 17l-10 31l-8 24q21 6 46.5 11.5t43.5 5.5q54 0 112 -40q29 -20 52.5 -58.5t41.5 -98.5q4 -17 6 -32t2 -29q0 -55 -23 -102.5
t-68 -86.5q-52 -43 -117 -66.5t-152 -23.5q-31 0 -55 3.5t-47 8.5q-110 37 -182 107t-98 174v-1q-13 47 -20.5 86t-7.5 82q0 54 14 105t40 99q26 47 61 88t79 73q44 31 92.5 54t96.5 34h-1q42 11 81.5 16t72.5 5q58 0 120 -14t159.5 -60t262.5 -199v340h83v-66z" />
    <glyph glyph-name="Charu_Chandan.070" unicode="&#x9a4;" horiz-adv-x="1716" 
d="M-63 1512h1868v-78h-1868v78zM638 889q1 29 8.5 61t19.5 70h1q48 88 117 140.5t165 68.5l2 1q13 2 31.5 4.5t41.5 2.5q27 0 70 -6.5t86 -17.5q47 -15 99.5 -46.5t107.5 -79.5q57 -61 89 -125t47 -127q9 -42 14 -83t5 -78t-4.5 -79t-14.5 -87q-6 -24 -16 -52.5t-24 -57
t-31 -56t-36 -51.5q-43 -47 -96.5 -86t-116.5 -67t-134.5 -44t-149.5 -16h-11q-82 0 -173 27t-177 75q-151 93 -259.5 251.5t-172.5 394.5q14 1 22 4l24 5l35 6q28 -103 69 -192.5t93 -165t112.5 -135.5t127.5 -104q75 -41 153 -62.5t147 -19.5q146 0 252 43t183 128
q38 47 64.5 95.5t36.5 91.5q7 35 11 74t4 81q0 38 -3 70.5t-8 62.5q-14 60 -44 115.5t-68 93.5q-57 54 -119.5 88t-125.5 42q-24 7 -64 7q-32 0 -63 -9q-74 -12 -132 -54.5t-94 -115.5q-13 -23 -16.5 -46.5t-3.5 -46.5q0 -35 11 -66.5t31 -56.5h-1q79 -70 162 -70q17 0 33 2
t34 10q22 9 47.5 20.5t46.5 22.5q13 -13 16.5 -18t8.5 -10q2 -2 3.5 -5t3.5 -5q2 -3 5 -6l17 -22q-21 -12 -44 -23.5t-46 -21.5t-45.5 -17t-41.5 -11q-10 -2 -19.5 -3t-18.5 -1q-59 0 -112.5 24t-102.5 69q-23 26 -37 53.5t-21.5 53t-10 48.5t-0.5 40z" />
    <glyph glyph-name="Charu_Chandan.071" unicode="&#x9a5;" horiz-adv-x="1316" 
d="M231 1155q12 0 21 3v1q33 12 44 22t13 24l82 -11q-8 -31 -25.5 -55t-40 -40t-48.5 -24t-51 -8q-27 0 -53.5 13.5t-47.5 38.5h1q-27 28 -39.5 68.5t-14.5 74.5q8 48 30 96.5t57 81.5q35 26 79.5 40.5t94.5 14.5q13 0 24 -0.5t20 -1.5q77 -13 134.5 -52.5t92.5 -108.5
q23 -48 35.5 -93t12.5 -94q0 -77 -32 -162l-5 -9q-1 -2 -3 -4l-3 -3v1l-8 -10l-410 -437q68 -57 140 -108t131 -89q63 -38 136.5 -76t150 -72t153.5 -62t146 -46v1510h82v-66h263v-78h-260v-1462h-85v10q-158 35 -313.5 104t-316.5 165q-107 63 -195.5 134t-150.5 136
l477 506h-1q9 32 14 59.5t5 56.5q0 38 -10 77.5t-30 74.5q-46 100 -163 114q-3 1 -12 1q-3 1 -8.5 1h-9.5q-35 0 -67 -11t-58 -31q-18 -18 -34 -49.5t-21 -59.5q2 -23 10.5 -46t22.5 -40h-1q19 -19 45 -19z" />
    <glyph glyph-name="Charu_Chandan.072" unicode="&#x9a6;" horiz-adv-x="1238" 
d="M286 1434v-800q140 39 258.5 109.5t222.5 173.5q68 68 119 132.5t88 135.5q9 -5 16.5 -7.5t14.5 -4.5l10 -4l10 -4l27 -11l-8 -17v-1165h-84v1033q-350 -409 -762 -466v895h-265v78h1405v-78h-1052z" />
    <glyph glyph-name="Charu_Chandan.073" unicode="&#x9a7;" horiz-adv-x="1333" 
d="M381 1497q13 0 26 6t24 17h-1q23 29 23 56q0 9 -1.5 15t-3.5 12l-1 7q-8 14 -27 28.5t-45 26.5h1q-4 1 -9 1.5t-13 0.5h-21q-20 0 -43.5 -7t-40.5 -15q-29 -23 -53.5 -57.5t-33.5 -70.5q0 -2 -0.5 -3.5t-0.5 -3.5v-7q0 -4 -0.5 -7.5t-0.5 -6.5q-1 -6 -1.5 -11t-0.5 -11
q0 -42 18 -78.5t52 -71.5q48 -47 104.5 -71t119.5 -24q17 0 40.5 2.5t47.5 9.5q45 68 94 138.5t94 139.5h692v-78h-292v-1462h-81v10q-160 36 -314 103.5t-318 164.5q-110 69 -193.5 134t-151.5 139l408 615q-94 7 -170 35t-136 82q-97 90 -97 210q0 14 1 30.5t7 35.5v-1
q5 28 17 54.5t28 50t34.5 43t36.5 33.5q26 20 60 29t72 9q31 0 79 -9q37 -14 68.5 -40.5t45.5 -64.5q5 -15 9 -30.5t4 -36.5q0 -23 -9.5 -46t-33.5 -50q-53 -59 -120 -56l-17 4zM1047 1434h-271l-192 -285l-115 -176q-22 -34 -47.5 -72.5t-52 -78.5t-52.5 -79t-50 -73
l-93 -138q28 -25 64.5 -53.5t74.5 -56t76 -53.5t71 -46q64 -38 138.5 -77t151.5 -74.5t153 -64t144 -46.5v1373z" />
    <glyph glyph-name="Charu_Chandan.074" unicode="&#x9a8;" horiz-adv-x="1448" 
d="M1240 1434v-1462h-85v683q-48 66 -107 126t-118 102q-75 51 -153.5 76.5t-156.5 25.5q-31 0 -71.5 -7t-89.5 -24q-19 -8 -39 -16.5t-34 -16.5q-54 -33 -97.5 -75t-72.5 -88q-20 -35 -29.5 -78t-9.5 -90q0 -29 6.5 -68t14.5 -75q23 -73 85.5 -129.5t143.5 -88.5
q26 -10 68 -10q15 0 33.5 1t35.5 4q18 4 39 11t40.5 15.5t36.5 18t29 18.5q27 26 45.5 60.5t18.5 70.5q0 11 -0.5 22.5t-1.5 19.5q-18 74 -74 113q-3 0 -6 3q-14 7 -22.5 8.5t-19.5 1.5q-20 0 -62 -15l-2 13q-2 5 -4 20l-4 21l-7 27q30 20 77 21q26 0 51.5 -9t51.5 -26
q35 -21 60.5 -63t39.5 -102q0 -3 0.5 -4.5t2.5 -5.5q4 -15 4.5 -25.5t0.5 -22.5q0 -112 -93 -193v1q-48 -45 -113.5 -65.5t-149.5 -20.5q-34 0 -59 3t-48 8q-106 35 -178.5 109t-102.5 175q-5 17 -9.5 38t-7.5 42.5t-5 42t-2 37.5q0 114 53 209q52 93 135.5 155.5
t190.5 92.5q39 10 80 15.5t143.5 -1t229 -75t233.5 -190.5v636h-1210v78h1597v-78h-302z" />
    <glyph glyph-name="Charu_Chandan.075" unicode="&#x9aa;" horiz-adv-x="1426" 
d="M539 990q65 -70 97 -234q97 123 199.5 204.5t215.5 129.5q-51 80 -98 136.5t-89 88.5q-79 60 -159 94.5t-151 34.5q-13 0 -26 -1t-27 -4q-75 -13 -137 -52.5t-106 -105.5q-77 -97 -117 -254q131 45 205 43q119 -2 193 -80zM1494 1434h-256v-1462h-81v889q-14 36 -32 78.5
t-35 77.5q-54 -21 -107.5 -54t-104.5 -76t-99 -93.5t-90 -106.5q-42 -60 -80.5 -129t-66.5 -133l-25 11q-12 5 -25.5 10t-25.5 10q17 42 42 88t51 94v33q0 182 -79 263q-25 25 -59.5 38.5t-74.5 15.5q-29 -4 -60.5 -10.5t-62.5 -15.5t-61 -19t-55 -21q-14 -6 -33.5 -16
t-33.5 -16l3 32q1 8 2 19.5t3 20.5q7 47 20 95.5t31 95.5t41.5 91.5t51.5 83.5q53 78 130 126t168 65q17 3 33 4t33 1q88 0 177.5 -36.5t178.5 -108.5q58 -45 112.5 -109.5t102.5 -149.5l30 -48v506h81v-66h256v-78z" />
    <glyph glyph-name="Charu_Chandan.076" unicode="&#x9ab;" horiz-adv-x="1928" 
d="M1537 778l5 -3v1l31 -21l-68 -55q-21 7 -38 7q-28 0 -50 -9q-23 -12 -40.5 -37t-25.5 -55q-2 -7 -2.5 -16.5t-0.5 -17.5q0 -54 53 -105q55 -49 107 -49q18 0 30 3h-1q51 14 90.5 39t62.5 66q19 35 29 75t10 82q0 29 -3.5 59t-17.5 72q-34 130 -168 219.5t-381 139.5
v-1201h-85v15q-99 28 -190.5 58.5t-172.5 63t-150.5 65.5t-123.5 67q-110 70 -194.5 135t-153.5 140l407 520q-54 100 -128.5 180t-155.5 134q-46 28 -92 49.5t-82 34.5h-160v78h2123v-78h-1749q66 -51 114 -95.5t81 -84.5q45 -55 82.5 -113t66.5 -117l-396 -501
q74 -67 142.5 -117.5t134.5 -94.5q103 -60 249.5 -118t347.5 -117v1193q43 -6 89.5 -14.5t91.5 -18.5t85.5 -21.5t73.5 -23.5q73 -30 135 -68t110 -84t81 -98.5t48 -110.5v1q12 -42 18.5 -78.5t6.5 -72.5q0 -23 -3.5 -48t-10 -50.5t-15.5 -49t-19 -42.5q-32 -53 -86.5 -92
t-117.5 -58q-10 -2 -20 -3t-21 -1q-42 0 -89 20t-82 46q-18 19 -37.5 44.5t-25.5 45.5q-9 25 -14.5 48t-5.5 43q0 12 6 41q20 106 112 151q45 16 82 16q16 0 31 -2t29 -5l10 -5z" />
    <glyph glyph-name="Charu_Chandan.077" unicode="&#x9ac;" horiz-adv-x="1377" 
d="M217 534q76 -70 144.5 -119.5t134.5 -91.5q143 -87 292.5 -151.5t295.5 -104.5v1367h-261q-44 -63 -88 -129t-88 -129q-48 -72 -102 -151.5t-108.5 -160.5t-108.5 -160.5t-102 -151.5zM1470 1434h-304v-1462h-82v11q-152 35 -310.5 103.5t-321.5 165.5
q-117 71 -201 137.5t-144 135.5l610 909h-791v78h1544v-78z" />
    <glyph glyph-name="Charu_Chandan.078" unicode="&#x9ad;" horiz-adv-x="1681" 
d="M-66 1512h1820v-78h-1820v78zM977 950q10 -2 19 -3t22 0q35 6 46 38v-1q4 15 5 27t1 22q0 57 -56 92q-22 14 -45 21.5t-43 7.5q-16 0 -34 -3q-51 -11 -89 -41.5t-58 -81.5q-9 -26 -13 -54t-2 -54q3 -45 24 -81.5t52 -62.5q35 -26 77.5 -39.5t93.5 -13.5q17 0 35.5 1
t38.5 4q100 21 194 76.5t187 145.5l49 48l20 -68q14 -53 20.5 -104.5t6.5 -106.5q0 -86 -16.5 -170.5t-48.5 -178.5q-8 -26 -24 -56.5t-38 -60.5q-43 -54 -107.5 -92.5t-138.5 -59.5q-51 -13 -111 -13q-97 0 -188.5 30.5t-178.5 85.5q-47 32 -104.5 84.5t-115.5 117.5
q-53 60 -103.5 130t-96 147t-85.5 158.5t-71 164.5q14 5 26.5 9.5t23.5 8.5l28 9q63 -168 150.5 -312t193.5 -265h-1q54 -57 104.5 -104.5t97.5 -77.5q64 -42 130 -66.5t132 -32.5q30 -3 59 -3q23 0 47.5 2.5t44.5 6.5h-1q58 14 110 48.5t89 76.5q20 26 33 48.5t18 45.5
q29 81 42.5 159t13.5 156q0 22 -1 52.5t-6 72.5q-95 -77 -191 -124.5t-182 -68.5q-23 -4 -45.5 -6t-41.5 -2q-131 0 -218 71q-22 16 -40 39t-32 50t-23 56.5t-13 58.5q-1 8 -1.5 18t-0.5 17q0 76 35 146q30 55 80.5 90.5t117.5 47.5q11 2 22.5 3t20.5 1q31 0 66.5 -11
t69.5 -30q42 -28 72 -76q22 -41 22 -87q0 -18 -2 -37t-9 -38q-3 -11 -8.5 -20.5t-12.5 -18.5q-22 -23 -46.5 -36.5t-53.5 -15.5q-11 -2 -24 -0.5t-29 3.5z" />
    <glyph glyph-name="Charu_Chandan.079" unicode="&#x9ae;" horiz-adv-x="1470" 
d="M1254 1434v-1462h-86v683q-48 66 -105 125.5t-115 102.5q-72 50 -149.5 76t-158.5 26q-32 0 -64 -4.5t-55 -10.5q-9 -2 -25.5 -8t-41.5 -18l-20 -9l-31 -16q-56 -34 -99 -76.5t-70 -84.5q-20 -36 -30.5 -78.5t-10.5 -87.5q0 -31 6 -67t17 -78q24 -73 82 -129.5t144 -85.5
q17 -7 36 -8.5t40 -1.5q14 0 35 1t38 4q42 7 81 24t74 56h-1q19 22 30.5 50t13.5 63v21v5t-1 5q-10 38 -31.5 74.5t-49.5 56.5q-8 4 -15 4q-5 1 -10.5 1h-7.5h-7q-9 0 -25.5 -4t-39.5 -13l-21 39l-21 37q38 18 63.5 23.5t46.5 5.5q22 0 44 -6t41 -16q83 -56 112 -176l1 -3
q0 -2 0.5 -4.5t0.5 -4.5q2 -14 3.5 -26t1.5 -20q0 -52 -24 -102t-68 -92q-86 -84 -263 -86q-29 0 -54.5 3.5t-48.5 9.5q-51 18 -97 45.5t-82.5 63t-62.5 79t-38 93.5v-1q-12 45 -19 84t-7 81q0 57 13.5 106.5t38.5 97.5q42 78 119 139t195 106q-44 118 -127 217t-202 171
h-243v78h1665v-78h-315zM1168 1434h-850q48 -45 87 -88.5t61 -78.5q13 -20 26.5 -45.5t26 -52.5t23.5 -54.5t19 -51.5q17 3 29.5 4t20.5 1h29q123 0 256.5 -64.5t271.5 -202.5v633z" />
    <glyph glyph-name="Charu_Chandan.080" unicode="&#x9af;" horiz-adv-x="1386" 
d="M1102 1434h-822q130 -109 210.5 -210.5t128.5 -204.5l-397 -492q68 -61 140.5 -113.5t142.5 -95.5q50 -30 115 -61t141.5 -62t162.5 -61.5t178 -58.5v1359zM1102 -17q-51 15 -101.5 30.5t-97.5 31t-89 31t-76 29.5q-75 31 -144.5 65.5t-132.5 72.5q-116 70 -201 135.5
t-149 139.5l411 512q-42 70 -93.5 133.5t-110.5 116t-123.5 92t-131.5 62.5h-135v78h1549v-78h-290v-1462h-85v11z" />
    <glyph glyph-name="Charu_Chandan.081" unicode="&#x9b0;" horiz-adv-x="1365" 
d="M201 534q76 -70 144.5 -119.5t134.5 -91.5q143 -87 292.5 -151.5t295.5 -104.5v1367h-261q-44 -63 -88 -129t-88 -129q-48 -72 -102 -151.5t-108.5 -160.5t-108.5 -160.5t-102 -151.5zM1454 1434h-304v-1462h-82v11q-152 35 -310.5 103.5t-321.5 165.5
q-117 71 -201 137.5t-144 135.5l610 909h-791v78h1544v-78zM368 -3q49 0 78 -30t29 -81t-29 -80t-78 -29q-51 0 -80.5 29t-29.5 80q0 50 29.5 80.5t80.5 30.5z" />
    <glyph glyph-name="Charu_Chandan.082" unicode="&#x9b2;" horiz-adv-x="1670" 
d="M566 656q-4 11 -7.5 23t-6.5 23l-11 36q10 3 21.5 4.5t18.5 1.5q32 2 65.5 -9t62.5 -36q64 -53 73 -142q2 -8 2.5 -19t0.5 -22q0 -51 -17.5 -97.5t-52.5 -87.5q-34 -47 -89.5 -72t-133.5 -25q-19 0 -39 2t-41 7q-63 16 -119.5 51t-94.5 83q-47 65 -65 110
q-14 45 -21 93.5t-7 96.5q0 68 19.5 133t54.5 125q45 71 102 122.5t137 83.5q51 14 93.5 20.5t87.5 6.5q185 0 368 -195q54 79 100.5 114t95.5 37q51 -1 110 -34t123 -108v452h-1485v78h1832v-78h-264v-1462h-83v859q-29 47 -58.5 85.5t-59 66t-58 42.5t-53.5 15
q-34 -1 -72.5 -39.5t-77.5 -109.5q11 -21 21 -41t17 -40l-76 -21q-23 55 -51.5 95.5t-63.5 74.5q-57 57 -128 90t-149 33q-30 0 -68 -5.5t-74 -15.5q-20 -11 -42.5 -25.5t-45 -32t-44 -37t-39.5 -39.5q-40 -53 -62.5 -115.5t-22.5 -135.5q0 -41 6 -81t20 -85
q29 -69 85.5 -118t129.5 -66q20 -3 38 -5t38 -2q43 0 87.5 29.5t89.5 85.5q19 42 19 83q0 8 -0.5 15t-1.5 15v4q-8 53 -55 94q-38 11 -65 11h-14z" />
    <glyph glyph-name="Charu_Chandan.083" unicode="&#x9b6;" horiz-adv-x="1413" 
d="M854 1021q-13 63 -74 93l43 71q43 -19 71 -58t33.5 -76t5.5 -47q0 -19 -5 -39t-13 -40q-22 -52 -62 -92q-36 -34 -87.5 -54t-128 -4t-164.5 118q-33 -46 -83.5 -83.5t-113.5 -41.5t-108 15.5t-81 48.5q-30 32 -44 52t-23.5 55t-10 64.5t10.5 69.5q10 28 38.5 61t74.5 53
l20 -35l20 -34q-9 -3 -12 -6q-27 -11 -45.5 -35t-25.5 -54q0 -14 2 -35.5t7 -35.5q6 -17 14 -32t21 -26q35 -29 70.5 -41.5t67.5 -7.5q48 11 83 36.5t54 55.5q14 29 21.5 57.5t7.5 54.5t-6 56t-20 65q-51 127 -153 191.5t-245 74.5h-16v76q115 -14 186 -34t146.5 -65.5
t143.5 -173.5q129 181 282 181h9q110 -11 199.5 -71t162.5 -172v401h83v-66h286v-78h-286v-1462h-83v1010q-14 46 -41 98t-57 97q-54 74 -122.5 119.5t-143.5 45.5q-79 0 -137.5 -47t-93.5 -125q-5 -14 -9 -30t-7.5 -32.5t-5.5 -32t-2 -27.5q0 -26 8 -56t19 -57
q18 -27 54.5 -51.5t78.5 -32t77 4t62 34.5v-1q60 56 47 132z" />
    <glyph glyph-name="Charu_Chandan.084" unicode="&#x9b7;" horiz-adv-x="1363" 
d="M1082 1434h-822q73 -63 131 -120t93 -102l36 -52t34 -56q76 -41 139.5 -80.5t113.5 -74.5q55 -41 125.5 -101t149.5 -131v717zM202 527q66 -60 140 -113t144 -96q49 -29 114.5 -61t143 -63.5t163 -62t175.5 -56.5v496q-37 56 -86 109.5t-107 104.5q-59 50 -137.5 101.5
t-172.5 107.5zM1082 -17q-51 15 -101.5 30.5t-97.5 31t-89 31t-76 29.5q-154 64 -278 139q-114 70 -198.5 135t-150.5 139l411 512q-41 69 -93 132.5t-111.5 116t-124.5 92.5t-130 63h-135v78h1549v-78h-290v-1462h-85v11z" />
    <glyph glyph-name="Charu_Chandan.085" unicode="&#x9b8;" horiz-adv-x="1579" 
d="M1656 1434h-267v-1462h-86v343q-193 315 -569 319q-16 -57 -36 -104.5t-37 -73.5q-42 -51 -95.5 -84.5t-150.5 -46.5h-11q-66 0 -123 32.5t-111 92.5q-16 21 -29.5 50.5t-21.5 64.5v-1q-10 37 -10 72q0 21 4 41t10 40q15 46 51.5 83t87.5 65l15 -44q1 -6 3.5 -13.5
t4.5 -12.5l4 -9q-33 -20 -53.5 -44.5t-29.5 -51.5v-3l-4 -4h1q-6 -8 -8 -20t-2 -29q0 -29 6 -51q8 -27 19 -51t21 -35q35 -42 77 -63t90 -23q56 8 106.5 32t80.5 64q36 53 56.5 116.5t20.5 136.5q0 67 -12 127q-33 170 -152.5 313t-317.5 234h-240v78h1708v-78zM1303 1434
h-929q79 -60 139.5 -120.5t99.5 -116.5q51 -73 84 -149t45 -151q5 -24 6.5 -47t1.5 -51q0 -5 -0.5 -14.5t-0.5 -20.5q-1 -13 -1 -24v-19q161 -9 299 -71.5t256 -178.5v963z" />
    <glyph glyph-name="Charu_Chandan.086" unicode="&#x9b9;" horiz-adv-x="1257" 
d="M-90 1512h1455v-78h-1455v78zM542 936q-5 0 -11.5 -0.5t-15.5 -3.5l-3 82q7 2 13 2h13h7q84 0 134 -71q20 -29 31 -57t11 -60q0 -11 -3 -25t-8 -29q-12 -42 -46 -76.5t-88 -58.5l-6 -1q-54 -17 -102 -17q-26 0 -56.5 6.5t-59.5 14.5q-66 25 -118.5 78t-80.5 133
q-6 25 -8.5 46t-2.5 38q0 34 7.5 71t19.5 71q31 70 90 129t143 95q38 13 80 20.5t88 7.5q23 0 49 -2t51 -7q43 -9 88 -27t88 -44t81.5 -60t68.5 -74q33 -51 50 -110.5t20 -127.5q5 -90 -26 -173.5t-93 -160.5q-81 -88 -202 -144t-292 -82l-79 -1q171 -65 262 -101.5
t155 -64.5q37 -15 81.5 -34t90.5 -39.5t91 -41.5t84 -40l-35 -71q-280 127 -522.5 228.5t-462.5 180.5q1 6 1.5 11t2.5 7q1 4 2 7.5t3 8.5l12 42q60 -10 109.5 -14t96.5 -4q91 0 180 19t166 51q66 31 117.5 63t82.5 67h-1q100 115 100 260q0 14 -1 30.5t-3 30.5
q-7 42 -20.5 84t-30.5 71q-64 81 -144 129.5t-176 55.5q-3 1 -8.5 1h-11.5h-17q-42 0 -78 -4.5t-70 -18.5q-78 -32 -126.5 -86.5t-71.5 -120.5q-8 -23 -10.5 -45.5t-2.5 -42.5q0 -30 3 -51v1q59 -152 183 -180q14 -2 30 -3.5t34 -1.5q21 0 41.5 2.5t39.5 7.5q35 17 58 40
t32 49v-1q1 5 1.5 11t0.5 14q0 19 -7 38t-18 36q-13 17 -32 27t-43 10z" />
    <glyph glyph-name="Charu_Chandan.087" unicode="&#x9bc;" 
d="M-902 -237q49 0 78 -30t29 -81t-29 -80t-78 -29q-51 0 -80.5 29t-29.5 80q0 50 29.5 80.5t80.5 30.5z" />
    <glyph glyph-name="Charu_Chandan.088" unicode="&#x9bd;" horiz-adv-x="921" 
d="M-326 1512h814v-78h-814v78zM311 936q-5 0 -11.5 -0.5t-15.5 -3.5l-3 82q7 2 13 2h13h7q81 0 133 -71q20 -26 31 -56.5t11 -60.5q0 -24 -9 -54q-25 -85 -136 -135l-7 -1q-56 -17 -101 -17q-26 0 -56.5 6.5t-57.5 14.5q-66 25 -119 78t-81 133q-6 25 -8.5 46t-2.5 38
q0 34 7.5 71t19.5 71q29 71 88 129.5t144 94.5q38 13 80 20.5t90 7.5q22 0 48.5 -2t49.5 -7q43 -10 88.5 -28t88.5 -44t81 -59.5t68 -73.5q33 -51 50 -110.5t20 -127.5q1 -7 1 -14.5v-15.5q0 -82 -31 -157t-89 -147q-81 -88 -202 -144t-292 -82l-57 -8q100 -39 148 -58
t93 -37t84.5 -34t71.5 -30q37 -15 81 -34t90 -39.5t90.5 -41.5t83.5 -40l-35 -71q-284 130 -525.5 231.5t-458.5 178.5l11 32l6 23l6 20q59 -10 107.5 -14t97.5 -4q88 0 177.5 19t166.5 51q66 31 117.5 63t83.5 67h-1q99 115 99 260q0 14 -1 30.5t-3 30.5q-7 42 -20.5 84
t-30.5 71q-64 81 -144 129.5t-176 55.5q-3 1 -8.5 1h-11.5h-17q-41 0 -77.5 -4.5t-70.5 -18.5q-78 -32 -126.5 -86.5t-71.5 -120.5q-8 -23 -10.5 -45.5t-2.5 -42.5q0 -30 3 -51v1q59 -152 183 -180q14 -2 30 -3.5t34 -1.5q23 0 43.5 2.5t38.5 7.5q35 17 57 39t32 47
q4 12 4 27q0 20 -7.5 38.5t-19.5 35.5q-26 37 -74 37z" />
    <glyph glyph-name="Charu_Chandan.089" unicode="&#x9be;" horiz-adv-x="463" 
d="M-50 1512h574v-78h-249v-1462h-81v1462h-244v78z" />
    <glyph glyph-name="Charu_Chandan.090" unicode="&#x9bf;" horiz-adv-x="488" 
d="M185 1512l-12 82q-3 18 -5.5 37t-4.5 38q-4 36 -6 66.5t-2 45.5q0 99 17 159q7 20 19 45t30 60q26 44 65 84t82 66q46 27 96 47t96 29q41 8 82.5 12.5t82.5 4.5q21 0 45 -1.5t47 -3.5q34 -2 78.5 -10.5t86.5 -18.5q23 -6 63.5 -21t88.5 -35q54 -26 109.5 -60t109.5 -74
l-36 -31v1l-29 -25q-71 53 -133.5 88t-125.5 61q-129 47 -286 55q-34 0 -73.5 -3t-79.5 -10q-38 -5 -81.5 -21.5t-90.5 -44.5q-44 -26 -79.5 -64t-62.5 -81q-18 -48 -30 -103.5t-11 -104.5q1 -28 3.5 -64t9.5 -81l2 -11q2 -19 5 -39t6 -37q1 -7 3.5 -16.5t5.5 -20.5h260v-78
h-248v-1462h-82v1462h-243v78h228z" />
    <glyph glyph-name="Charu_Chandan.091" unicode="&#x9c0;" horiz-adv-x="482" 
d="M214 1512l6 39l13 85q7 45 10 80.5t4 63.5q1 48 -12.5 104.5t-31.5 105.5q-23 42 -60.5 79t-79.5 65q-44 26 -89.5 43.5t-83.5 22.5q-42 7 -80 10t-70 3q-78 -4 -151.5 -18t-136.5 -37q-63 -25 -125 -61t-134 -89l-65 58q51 38 106.5 71.5t111.5 59.5l15 6h-1
q42 16 79.5 30.5t59.5 20.5q44 11 87 19t80 10q21 2 45.5 3.5t44.5 1.5q42 0 83.5 -5t82.5 -13q45 -8 94.5 -27t96.5 -47q48 -31 84 -68t65 -82q15 -29 26.5 -54.5t19.5 -51.5q19 -55 19 -159q0 -17 -2 -40t-4 -56q0 -4 -0.5 -8t-0.5 -8l-3 -19l-4 -28t-5 -28l-12 -82h228
v-78h-243v-1462h-81v1462h-248v78h262z" />
    <glyph glyph-name="Charu_Chandan.092" unicode="&#x9c1;" 
d="M-170 -325q3 61 -54 115l27 71l7 -7v1q26 -14 42.5 -30.5t24.5 -33.5q18 -29 25.5 -58t7.5 -61q0 -24 -4.5 -44t-12.5 -42q-20 -45 -50 -77t-67 -48q-36 -16 -72.5 -23.5t-66.5 -5.5q-42 3 -87.5 20t-78.5 40q-31 17 -54.5 44t-32.5 47q-16 26 -22.5 59.5t-4.5 68.5
q-5 46 25 129q9 17 29.5 46.5t47.5 58.5q49 37 115 58.5t129 21.5q38 0 65 -7h-1q58 -8 112.5 -30t99.5 -54q45 -35 86 -77.5t70 -88.5q23 -37 41 -70.5t31 -59.5q14 -28 27.5 -58.5t24.5 -65.5l-46 -10h1l-37 -10q-16 51 -39 101t-55 102q-30 51 -68 94t-76 73
q-35 29 -74.5 48t-69.5 27q-20 4 -42.5 6t-44.5 2q-12 0 -26 -0.5t-25 -2.5q-36 -4 -74.5 -20t-67.5 -41q-14 -11 -28 -29t-25 -41t-18.5 -49.5t-8.5 -53.5q-3 -38 9.5 -69t34.5 -55.5t49.5 -41t53.5 -25.5q14 -6 29 -8t29 -2q24 0 47 5t40 13q29 11 50.5 28t33.5 40
q22 44 19 80z" />
    <glyph glyph-name="Charu_Chandan.093" unicode="&#x9c2;" 
d="M-115 -159q7 18 12 36t11 50q62 -17 114.5 -42t90.5 -54q42 -34 80.5 -74.5t64.5 -79.5q36 -60 69 -126t56 -130l-24 -7q2 0 0 -0.5t-5.5 -1.5t-8.5 -1.5t-9 -1.5h1l-37 -10q-17 51 -33 90.5t-33 70.5q-24 43 -54 82.5t-64 73.5t-70.5 61t-73.5 45q-28 -70 -68 -118.5
t-91 -80.5q-30 -20 -67.5 -32t-79.5 -12q-25 0 -66.5 10t-85 34t-82.5 63.5t-58 98.5q-7 24 -11 46.5t-4 45.5q0 33 11.5 72.5t32.5 82.5l27 -16q12 -8 23 -15t23 -12q-36 -71 -36 -120q2 -29 11.5 -56.5t21.5 -47.5q12 -19 25 -34.5t22 -24.5q21 -15 34 -21.5t22 -10.5h-1
q23 -6 45 -9.5t42 -3.5q32 0 59 7.5t53 24.5q30 22 57.5 54t48.5 79l2 1q0 2 0.5 4t0.5 4q0 1 0.5 1.5t0.5 1.5t0.5 1t0.5 1v1z" />
    <glyph glyph-name="Charu_Chandan.094" unicode="&#x9c3;" 
d="M-230 -40l-238 -280q10 -17 18 -23q46 -32 93 -65.5t93 -65.5l172 -118l-27 -31h1l-10.5 -10.5l-10.5 -10.5l-6 -6l-447 310l299 352z" />
    <glyph glyph-name="Charu_Chandan.095" unicode="&#x9c4;" 
d="M-407 -363l-52 -59q32 -21 69.5 -46.5t77 -53t79 -55.5t76.5 -54l40 -28l37 -26l-8 -12l-9 -13l-7 -9l-6 -6q-3 -3 -5.5 -6t-7.5 -11q-3 -2 -6 -7l-9 7l-11 9v-1l-36 25l-69 48l-7 5l-94 64l-51 38q-42 29 -87 59.5t-87 60.5l69 76l79 88l-42 31l-18 12l-10 6l-49 35
l93 106q8 11 17.5 21t17.5 21l44 51l20 23q16 21 32.5 41t33.5 41l29 31l13 15q6 -5 8.5 -7t6.5 -6l7 -6v1l40 -31l-242 -283q2 -3 5.5 -7t5.5 -6q7 -7 11 -9l6 -3l8 -5l31 -22q8 -5 17 -11t17 -11l10 -7l35 -27l33 -22l62 -42t61 -44l25 -18q4 -4 9.5 -7.5t10.5 -6.5
q4 -4 9 -7.5t9 -5.5l9 -7q2 -2 6 -2q-16 -17 -24 -27t-15 -18l-13 -15l-178 122l-11 8l-74 53z" />
    <glyph glyph-name="Charu_Chandan.096" unicode="&#x9c7;" horiz-adv-x="759" 
d="M923 1512v-78h-251q-47 -24 -94.5 -53.5t-91.5 -64.5t-83 -73.5t-70 -80.5q-90 -118 -136.5 -258t-46.5 -300q0 -54 3.5 -112t18.5 -106q25 -114 75 -189.5t116 -120.5q63 -38 139 -38h8q17 0 32.5 0.5t26.5 4.5q27 13 50.5 34.5t28.5 53.5q2 7 2.5 13t0.5 15v9
q0 17 -5.5 36.5t-13.5 39.5q-28 49 -107 49h-18q-3 20 -5.5 41t-3.5 40h12t10 1q2 0 3.5 0.5t3.5 0.5h4q58 0 101 -23.5t69 -68.5q19 -32 26 -61.5t7 -59.5q0 -21 -3 -42q-21 -128 -141 -153h1q-26 -8 -49.5 -11t-42.5 -3q-52 0 -97 13.5t-83 39.5q-42 26 -78.5 61.5
t-63.5 77.5q-26 41 -44.5 86.5t-32.5 93.5q-12 48 -18.5 88t-9.5 74.5t-4 64t-1 55.5q0 167 43.5 305.5t128.5 262.5q23 29 52.5 64t61.5 67q21 22 57.5 53.5t90.5 73.5h-575v78h997z" />
    <glyph glyph-name="Charu_Chandan.097" unicode="&#x9c8;" horiz-adv-x="760" 
d="M824 1512q-1 59 -6 80q-4 20 -9 38t-13 32q-21 38 -63 63t-96 35q-6 2 -20.5 2.5t-25.5 0.5q-38 0 -88 -6t-111 -19h1q-64 -17 -112.5 -24t-77.5 -5q-89 5 -151 37q-29 15 -54 36.5t-42 47.5q-42 60 -42 137q0 20 4 44t15 58q11 -5 23 -9t20 -7l11 -4l21 -8
q-6 -23 -8 -35.5t-2 -22.5v-14q0 -51 28 -95q18 -35 67.5 -54t112.5 -27q29 1 76 7t92 16q137 29 215 29q14 0 31 -1t34 -4q70 -14 125.5 -49t88.5 -89q17 -35 30 -77.5t13 -84.5v-28h12v-78h-251q-48 -24 -95 -54t-90.5 -64.5t-83 -73t-70.5 -80.5q-90 -118 -136.5 -258
t-46.5 -300q0 -54 3 -112t20 -106q26 -115 75.5 -190t114.5 -120q63 -38 139 -38h8q17 0 32.5 0.5t26.5 4.5q27 13 50.5 34.5t28.5 53.5q2 7 2.5 13t0.5 15v9q0 17 -5.5 36.5t-13.5 39.5q-28 49 -107 49h-18q-3 20 -5.5 41t-3.5 40h12t10 1q2 0 3.5 0.5t3.5 0.5h4
q60 0 101.5 -23.5t68.5 -68.5q19 -32 26 -61.5t7 -59.5q0 -21 -3 -42q-21 -128 -141 -153h1q-26 -8 -49.5 -11t-42.5 -3q-52 0 -96.5 13.5t-82.5 39.5q-39 26 -77.5 63.5t-64.5 75.5q-26 41 -45.5 87t-32.5 93q-12 48 -18.5 88t-9.5 74.5t-4 64t-1 55.5q0 167 43.5 305.5
t128.5 262.5q23 29 52.5 64t61.5 67q21 22 57.5 53.5t90.5 73.5h-575v78h898z" />
    <glyph glyph-name="Charu_Chandan.098" unicode="&#x9cb;" horiz-adv-x="2401" 
d="M2489 1512v-78h-268v-1462h-83v1462h-231v78h582zM1547 203q-49 0 -49 45q0 54 49 54q51 0 51 -54q0 -45 -51 -45zM1827 486q-51 0 -51 48t51 48t51 -48t-51 -48zM1870 680q-48 0 -48 50q0 51 48 51q49 0 49 -51q0 -50 -49 -50zM830 680q-48 0 -48 50q0 51 48 51
q50 0 50 -51q0 -50 -50 -50zM1717 312q-49 0 -49 50t49 50q51 0 51 -50t-51 -50zM1717 1050q-52 0 -52 47q0 25 13 39t39 14q24 0 36 -14t12 -39q0 -47 -48 -47zM1150 203q-47 0 -47 45q0 54 47 54q49 0 49 -49q0 -50 -49 -50zM981 1050q-46 0 -46 43q0 57 46 57
q26 0 39 -14t13 -39q0 -47 -52 -47zM1348 161q-48 0 -48 51q0 50 48 50q49 0 49 -50q0 -51 -49 -51zM981 312q-46 0 -46 50t46 50q52 0 52 -50t-52 -50zM1827 881q-51 0 -51 47t53 47q49 0 49 -47t-51 -47zM1348 1200q-48 0 -48 53q0 48 48 48q49 0 49 -48q0 -53 -49 -53z
M870 486q-49 0 -49 48t49 48t49 -48t-49 -48zM1150 1163q-47 0 -47 48t47 48q49 0 49 -48t-49 -48zM1547 1163q-49 0 -49 48t49 48t49 -48t-49 -48zM873 881q-52 0 -52 47t49 47t49 -47t-46 -47zM910 1512v-78h-251q-47 -24 -94 -54t-91 -65.5t-84 -74.5t-72 -79
q-86 -116 -133 -257t-47 -300q0 -54 3 -106t11 -106q26 -99 74 -174.5t116 -119.5q32 -21 67 -30.5t70 -9.5h16q14 0 29 0.5t29 5.5q29 11 47 34.5t25 55.5q3 7 3 14v20q0 14 -5.5 32.5t-13.5 41.5q-17 22 -44 36t-61 14h-15q-4 6 -5 10.5t-2 10.5l-3 18q0 4 -0.5 11.5
t-1.5 12.5v4q0 1 -0.5 2t-0.5 4v9q13 2 21 2h13h4q54 0 97.5 -26.5t70.5 -71.5q15 -27 23.5 -56t8.5 -59q0 -8 -1 -18.5t-3 -24.5q-14 -63 -49 -101.5t-92 -51.5q-49 -13 -92 -13q-53 0 -97.5 13t-83.5 39q-38 25 -72 62.5t-62.5 83.5t-51 99t-35.5 109q-8 57 -13.5 119
t-5.5 109q0 77 12.5 153.5t35 149.5t54.5 140t70 125q18 23 45.5 53t61 63.5t72.5 69.5t81 72h-575v78h997z" />
    <glyph glyph-name="Charu_Chandan.099" unicode="&#x9cc;" horiz-adv-x="2452" 
d="M2538 1434h-288v-1462h-86v1462h-302v78h290v28q0 1 0.5 1.5t0.5 2.5v5l1 3v-1q1 7 1 16v16q0 57 -12.5 108t-35.5 93q-35 54 -86.5 89.5t-117.5 49.5q-11 2 -29.5 3t-36.5 1q-54 0 -122.5 -9.5t-144.5 -26.5q-36 -8 -72 -14.5t-68 -11.5t-59.5 -8t-46.5 -4
q-48 6 -95.5 19.5t-90.5 33.5t-77 44.5t-55 53.5q-51 81 -51 179q0 27 6.5 63.5t18.5 77.5q8 -4 14 -6t8 -2l12 -6q4 -2 8.5 -4.5t11.5 -3.5q8 -2 10.5 -3.5t7.5 -3.5h-1q1 0 2 -1q2 -2 5 -2q-12 -35 -14.5 -60.5t-2.5 -49.5q0 -36 10.5 -70.5t28.5 -63.5q32 -45 95.5 -72.5
t150.5 -35.5q17 0 42.5 2t55 6t61.5 9.5t64 11.5q85 20 164 31t132 11q16 0 35.5 -1t37.5 -5q81 -17 149.5 -64t109.5 -117q28 -48 45.5 -111t17.5 -129v-23v-12t-1 -13q0 -2 -0.5 -4.5t-0.5 -4.5v-14h158q18 0 36 -0.5t36 -0.5h70v-78zM1349 161q-51 0 -51 51q0 50 51 50
q48 0 48 -50q0 -51 -48 -51zM981 1050q-48 0 -48 43q0 57 48 57q27 0 40 -14t13 -39q0 -47 -53 -47zM1150 203q-47 0 -47 45q0 54 47 54q50 0 50 -49q0 -50 -50 -50zM1716 1050q-51 0 -51 47q0 25 13 39t38 14q24 0 36.5 -14t12.5 -39q0 -47 -49 -47zM981 312q-48 0 -48 50
t48 50q53 0 53 -50t-53 -50zM1871 680q-50 0 -50 50q0 51 50 51q48 0 48 -51q0 -50 -48 -50zM1548 203q-49 0 -49 45q0 54 49 54q50 0 50 -54q0 -45 -50 -45zM1349 1200q-51 0 -51 53q0 48 51 48q48 0 48 -48q0 -53 -48 -53zM1716 312q-48 0 -48 50t48 50q52 0 52 -50
t-52 -50zM1827 486q-50 0 -50 48t50 48t50 -48t-50 -48zM831 680q-49 0 -49 50q0 51 49 51t49 -51q0 -50 -49 -50zM1827 881q-50 0 -50 47t52 47q48 0 48 -47t-50 -47zM870 486q-48 0 -48 48t48 48q49 0 49 -48t-49 -48zM1150 1163q-47 0 -47 48t47 48q50 0 50 -48t-50 -48z
M873 881q-51 0 -51 47t48 47q49 0 49 -47t-46 -47zM1548 1163q-49 0 -49 48t49 48q45 0 45 -48t-45 -48zM909 1512v-78h-249q-47 -23 -94.5 -53.5t-92 -66t-84 -74t-70.5 -78.5q-86 -118 -133.5 -259t-47.5 -299q0 -56 3.5 -107.5t11.5 -105.5q23 -100 73 -174t116 -119
q32 -20 67 -30t69 -10q23 0 41 1t36 6q29 11 46.5 34t22.5 54q4 11 4.5 19t0.5 16q0 16 -6 37t-14 39q-17 23 -43.5 35.5t-61.5 12.5h-18l-3 11h1q-1 1 -1.5 3.5t-0.5 4.5q-3 12 -3 18q0 1 -0.5 1t-0.5 2v6l-3 16q0 2 -0.5 4.5t-0.5 4.5v12q14 2 19.5 1.5t7.5 -0.5h11
q56 0 99.5 -26t70.5 -71q14 -26 22 -55.5t8 -60.5q0 -22 -3 -43q-11 -63 -45.5 -101.5t-95.5 -51.5h1q-49 -13 -94 -13q-103 0 -178 52q-40 26 -75 63.5t-63.5 83.5t-50 98.5t-34.5 108.5q-8 57 -13.5 119t-5.5 109q0 76 12.5 152.5t35 149.5t54 140t70.5 126
q19 24 46.5 53.5t61.5 63.5t72.5 69.5t79.5 71.5h-574v78h996z" />
    <glyph glyph-name="Charu_Chandan.100" unicode="&#x9cd;" 
d="M-419 -74l223 -193q22 -17 44.5 -37.5t44.5 -39.5q17 -14 35.5 -30t34.5 -30l-21 -27q-5 -7 -12.5 -16t-16.5 -19q-50 42 -97.5 83.5t-94.5 83.5v-1q-47 41 -94.5 82.5t-96.5 83.5z" />
    <glyph glyph-name="Charu_Chandan.101" unicode="&#x9d7;" horiz-adv-x="502" 
d="M211 1512q0 4 -0.5 8t1.5 6v15q1 5 1 12v11v19q0 57 -12 108.5t-34 92.5q-35 54 -88.5 89.5t-116.5 49.5q-11 2 -28.5 3t-37.5 1q-54 0 -122.5 -9.5t-144.5 -26.5q-72 -17 -139.5 -26.5t-108.5 -11.5q-47 6 -94 19.5t-89 33t-76.5 44.5t-55.5 55q-53 79 -53 178
q0 26 6.5 63.5t18.5 79.5l20 -7l17 -8l39 -18q2 0 3 -0.5t2 -0.5q-11 -35 -15 -61t-4 -49q0 -35 9.5 -69.5t29.5 -64.5q30 -46 95 -73t150 -35q18 0 43.5 2t55.5 6t62 9.5t63 11.5q42 10 84 17.5t80.5 13t72 8.5t58.5 3q17 0 36.5 -1t39.5 -5q85 -17 149 -62.5t109 -118.5
q28 -49 46 -111.5t18 -128.5q0 -9 -0.5 -22.5t-1.5 -25.5v-24h252v-78h-247v-1462h-82v1462h-244v78h233z" />
    <glyph glyph-name="Charu_Chandan.102" unicode="&#x9dc;" horiz-adv-x="1637" 
d="M949 -157q48 0 78 -29.5t30 -79.5q0 -51 -30 -80.5t-78 -29.5q-50 0 -79 29.5t-29 80.5q0 49 29 79t79 30zM1233 1434q-12 -12 -14 -13q-2 -2 -4.5 -3t-6.5 -5l-10 -8l-33 -23q-44 -34 -87.5 -74t-84 -82.5t-76 -85.5t-62.5 -83q-32 -58 -50.5 -102.5t-18.5 -76.5
q0 -14 5 -26.5t12 -23.5q11 -23 60 -23q17 0 35.5 1t44.5 8q90 14 209.5 52.5t258.5 100.5l17 8q6 1 9 3t7 6l13 8v-1l1 1q1 1 5 3l4 -62q5 -37 7.5 -75.5t2.5 -71.5q0 -110 -20.5 -231.5t-52.5 -239.5q-32 -91 -94 -161.5t-146 -103.5q-39 -14 -74 -20.5t-74 -6.5
q-80 0 -172.5 32t-191.5 89q-69 39 -141 105.5t-144 158.5q-142 185 -269 511l72 38q60 -161 122 -282t132 -209q72 -91 140 -155.5t128 -96.5q40 -23 84 -43t87 -34.5t82 -23t70 -8.5q63 0 116 21q66 29 116 85.5t77 128.5q33 107 50.5 225.5t17.5 230.5v75
q-142 -56 -250.5 -90.5t-195.5 -47.5q-24 -5 -45 -7t-37 -2q-44 0 -76.5 15.5t-55.5 43.5q-11 17 -18 40.5t-7 50.5q0 96 83 230q42 66 118.5 148t190.5 182h-1204v78h1866v-78h-528z" />
    <glyph glyph-name="Charu_Chandan.103" unicode="&#x9dd;" horiz-adv-x="1426" 
d="M916 741q12 -20 17.5 -40.5t5.5 -41.5q0 -12 -8 -44q0 -1 -0.5 -1t-0.5 -1v-2q-26 -90 -112 -117q-38 -12 -70 -12q-31 0 -72 11q-73 27 -117.5 75t-58.5 121v-1q-5 17 -6.5 32.5t-1.5 31.5q0 45 16.5 89t49.5 85q50 62 122 101t153 52h4q2 0 3.5 0.5t4.5 0.5q2 1 5 1h6
h18q69 0 137.5 -26.5t128.5 -77.5q50 -43 84.5 -100.5t48.5 -122.5l1 -4q3 -20 5 -39t2 -33q0 -38 -8 -77t-22 -75q-26 -58 -62.5 -112t-82.5 -100.5t-100.5 -83.5t-116.5 -61q-111 -46 -223.5 -70t-223.5 -24q-67 0 -120.5 6.5t-96.5 18.5q-5 1 -8 2.5t-7 2.5q0 -4 -1 -6
l-11 11v1324h-276v78h1597v-78h-1240v-1266q97 -15 170 -15q95 0 203 25t208 66q50 23 97.5 55.5t88.5 72.5t74.5 86.5t55.5 97.5q14 29 19.5 60.5t5.5 60.5q0 11 -1 24.5t-3 22.5q-9 57 -37.5 107.5t-70.5 87.5q-47 38 -101 60t-108 22h-12h-3.5t-4.5 -1q-1 0 -2 -0.5
t-2 -0.5h-13q-66 -10 -124 -43.5t-99 -79.5q-23 -29 -36 -62t-13 -65q0 -11 1 -21t4 -21q18 -106 135 -143h-1q20 -5 43 -5q35 0 62.5 23t44.5 64q5 21 -13 51zM511 -141q49 0 78 -30t29 -81t-29 -80t-78 -29q-51 0 -80.5 29t-29.5 80q0 50 29.5 80.5t80.5 30.5z" />
    <glyph glyph-name="Charu_Chandan.104" unicode="&#x9df;" horiz-adv-x="1386" 
d="M1089 1434h-822q130 -109 210.5 -210.5t128.5 -204.5l-397 -492q68 -61 140.5 -113.5t142.5 -95.5q50 -30 115 -61t141.5 -62t162.5 -61.5t178 -58.5v1359zM1089 -17q-51 15 -101.5 30.5t-97.5 31t-89 31t-76 29.5q-75 31 -144.5 65.5t-132.5 72.5q-116 70 -201 135.5
t-149 139.5l411 512q-42 70 -93.5 133.5t-110.5 116t-123.5 92t-131.5 62.5h-135v78h1549v-78h-290v-1462h-85v11zM399 -1q49 0 78 -30t29 -81t-29 -80t-78 -29q-51 0 -80.5 29t-29.5 80q0 50 29.5 80.5t80.5 30.5z" />
    <glyph glyph-name="Charu_Chandan.105" unicode="&#x9e0;" horiz-adv-x="1800" 
d="M1075 1578h85v-865q167 -28 351 -124v989h82v-66h302v-78h-302v-1462h-82v515q-78 48 -167.5 85t-183.5 58v-658h-66q-26 -32 -52.5 -65t-50.5 -62l-32 -36q-7 -8 -14.5 -16.5t-14.5 -16.5l-49 -57q15 -10 35 -24t41 -28.5t41 -28.5t35 -25l193 -137l36 -25l-18 -19
q-3 -3 -6.5 -7t-6.5 -10l-15 -19l-23 16l-41 28q-19 14 -38 27l-38 26q-7 5 -13.5 10t-14.5 10l-23 16l-31 21q-15 9 -32.5 21t-34.5 26l-20 16q-10 7 -21 14t-21 15l-31 21q-11 7 -21 14.5t-21 14.5l-17 12l6 7l9 11h-1l4 6l11 11h-1l11 13l4 5l18 18h-1l193 223
q-158 47 -301 112.5t-281 150.5q-102 63 -188 129.5t-154 135.5l726 589q-19 76 -65 152t-123 154q-13 -102 -46 -175t-75 -115q-37 -31 -86.5 -48.5t-110.5 -17.5h-22q-52 10 -99.5 39.5t-75.5 73.5q-8 15 -14.5 38t-6.5 38q0 20 5 38.5t13 38.5q20 43 55.5 70.5t83.5 32.5
q1 0 1 0.5t1 0.5q2 1 4 1h3h26q14 0 23.5 -1.5t17.5 -6.5l-15 -45q-5 -11 -7.5 -21t-5.5 -20q-15 9 -28.5 10.5t-28.5 -2.5q-47 -12 -59 -56q-7 -14 -7 -32q0 -13 8 -31t23.5 -35t37.5 -30.5t49 -16.5q45 -2 88.5 10t77.5 41v-1q82 73 82 205q0 24 -1.5 51t-7.5 56
q11 4 18 7t12 6l34 14q5 -2 13 -9l22 -16l16 -10q23 -16 44.5 -33.5t40.5 -35.5q49 -49 90 -113.5t71 -145.5q14 12 34.5 28t37.5 29l48 39q12 9 25 20t24 19v268zM1075 1201q-131 -106 -262 -209.5t-262 -209.5l-231 -186l-92 -72q133 -111 263 -194q143 -82 292.5 -149.5
t291.5 -108.5v1129z" />
    <glyph glyph-name="Charu_Chandan.106" unicode="&#x9e1;" horiz-adv-x="1265" 
d="M261 -288l-5 20l-4 17q-2 10 -2.5 20.5t-0.5 16.5q0 87 67 170q33 36 65.5 59.5t69.5 34.5q33 9 64 9q34 0 69.5 -11t80.5 -39q24 -14 46 -42.5t41 -65.5q22 -44 34.5 -92.5t12.5 -101.5q0 -17 -5 -56.5t-17 -101.5q99 67 165 137t96 130q4 13 8 29.5t7.5 34.5t5.5 35.5
t2 31.5q0 65 -21 138t-63 155q-5 7 -16.5 25t-22.5 39q-83 -60 -163 -88.5t-173 -28.5h-15.5t-22.5 1h-7t-8 1h-8l5 16q1 5 1.5 10t2.5 7v-1q0 1 0.5 2t0.5 2q3 8 6 17t4 14v6q0 3 2 7v-1q6 27 9.5 48t6 37.5t3 31t0.5 29.5q0 33 -4.5 64.5t-15.5 57.5q-41 134 -121 181
q-23 12 -46.5 20t-45.5 8q-38 0 -70 -16t-61 -54q-25 -32 -36.5 -66.5t-11.5 -68.5q0 -20 8 -60h-78q-5 21 -5.5 33.5t-0.5 23.5v5q0 40 14.5 84t39.5 89l9 9h-1q33 40 72 63t81 31q11 2 24 3t22 1q59 0 116 -31q53 -35 92 -83t66 -112q14 -39 22.5 -81t8.5 -87
q0 -21 -6.5 -61.5t-17.5 -100.5q129 20 207.5 70.5t120.5 133.5q21 35 30.5 70.5t9.5 70.5q0 19 -3 40t-11 48q-15 37 -43.5 76.5t-67.5 77.5t-87.5 73.5t-103.5 64.5q-70 34 -133 85.5t-122 129.5q-33 49 -55 115.5t-22 134.5v16q0 10 1.5 25.5t5.5 38.5l28 -10h-1
q3 -1 6.5 -2.5t6.5 -2.5q2 -2 5 -2l24 -7q-2 -17 -1.5 -23.5t1.5 -9.5v-17q0 -75 28 -144.5t88 -132.5q41 -41 83.5 -69.5t90.5 -52.5q138 -72 225.5 -158.5t120.5 -187.5q17 -60 17 -109q0 -48 -15.5 -93.5t-40.5 -90.5q-2 -2 -2 -4q-7 -13 -17 -30t-25 -35
q16 -20 26.5 -37t18.5 -31l5 -8h-1l5 -7q92 -176 92 -325q0 -83 -29 -168q-42 -100 -143 -186t-258 -152l-11 27l-7 17l-1 13l-4 21l8 -7q22 57 32 106t10 90q0 39 -6.5 74t-20.5 60q-13 40 -36 68.5t-49.5 46t-53.5 25.5t-49 8q-80 0 -141 -75q-30 -40 -42 -79t-7 -75v1
l19 -50h-81z" />
    <glyph glyph-name="Charu_Chandan.107" unicode="&#x9e2;" horiz-adv-x="442" 
d="M-301 -403q0 -10 1 -25.5t5 -33.5h-77q-5 20 -5.5 32.5t-0.5 23.5v5q0 83 59 176q35 36 75.5 63t83.5 36q14 3 22.5 4t19.5 1q32 0 61 -9t58 -23q107 -65 154 -195q15 -39 23.5 -81t8.5 -87q0 -20 -6 -61.5t-18 -101.5q119 20 203 77t132 132q17 33 27 69t10 70
q0 23 -2 42t-13 45q-14 39 -42 79t-67 78t-87.5 73t-105.5 64q-31 15 -64.5 37.5t-66.5 49t-63 55.5t-53 56q-38 57 -62 127.5t-24 137.5q0 13 1 30.5t4 43.5l31 -8l20 -6t19 -7q-1 -9 -1 -22.5v-24.5q0 -76 30 -145.5t87 -133.5q37 -35 81.5 -66t92.5 -54q135 -69 224 -156
t118 -185q8 -26 13.5 -58t5.5 -56q0 -43 -14.5 -90t-37.5 -91q-62 -117 -169 -177.5t-259 -60.5q-6 0 -17.5 0.5t-24.5 1.5h-4.5t-3.5 1q-2 0 -4 0.5t-4 0.5q9 33 14.5 56t6.5 34q8 32 12 66t4 64q0 32 -4.5 64.5t-16.5 66.5q-17 62 -48 106t-72 69q-23 12 -47.5 19.5
t-44.5 7.5q-36 0 -68 -15.5t-57 -46.5q-26 -39 -39.5 -75.5t-13.5 -68.5z" />
    <glyph glyph-name="Charu_Chandan.108" unicode="&#x9e3;" horiz-adv-x="1192" 
d="M-307 -395q0 -11 1.5 -24.5t7.5 -36.5h-77q-4 20 -5.5 36t-1.5 27q0 39 15.5 84t44.5 93q30 35 71.5 60.5t84.5 35.5q14 3 24.5 4t17.5 1q30 0 61 -10.5t65 -28.5q48 -29 86.5 -78t60.5 -109q15 -39 23.5 -81t8.5 -88q0 -23 -4.5 -59t-18.5 -105q118 23 201 76t130 129
q17 35 28.5 72.5t11.5 72.5q0 21 -2.5 41t-12.5 46q-14 39 -41.5 79t-66.5 78t-88 73t-106 64q-69 31 -133.5 83t-112.5 113q-38 60 -62.5 129.5t-24.5 137.5q0 10 0.5 27.5t4.5 48.5l10 -5q3 0 7 -2q2 -2 6 -2l13 -4l22 -8l12 -3v-47q0 -151 116 -278q38 -38 79 -66.5
t90 -52.5q3 -2 9.5 -5t13.5 -5l20 -9q7 64 21 114.5t39 87.5l2 1q33 39 73.5 63t80.5 36q13 3 24 3.5t19 0.5q33 0 61.5 -9.5t58.5 -23.5q108 -66 154 -191q13 -39 23 -83t10 -89q0 -23 -6 -65.5t-19 -98.5q124 21 205 72.5t129 136.5q17 32 27 68t10 73q0 16 -3.5 38
t-11.5 48q-15 39 -43 79.5t-67 79t-87 73.5t-104 62q-72 32 -135 85.5t-111 113.5q-18 28 -34 60.5t-28 67t-19 69t-7 66.5q0 15 0.5 34.5t4.5 44.5l17 -7q3 -1 6.5 -2.5t7.5 -2.5h7l9 -3q2 -2 8.5 -4.5t15.5 -5.5q-2 -11 -1.5 -18.5t0.5 -12.5v-16q0 -78 28 -145t90 -132
q75 -76 171 -122q137 -69 226.5 -157.5t119.5 -189.5q8 -29 12.5 -56t4.5 -50q0 -45 -13.5 -92t-39.5 -92q-60 -116 -167 -176t-259 -60h-9h-18.5t-30.5 2q8 31 13 53t7 36q8 33 12.5 68t4.5 66q0 32 -5 65.5t-17 68.5q-33 120 -121 169q-23 12 -46 21t-46 9q-35 0 -69 -19
t-61 -52q-22 -35 -34.5 -69t-12.5 -66q0 -14 1.5 -28t7.5 -28q1 -8 4 -14t7 -13q76 -58 132.5 -128.5t77.5 -142.5q8 -27 12.5 -54.5t4.5 -53.5q0 -91 -52 -181q-62 -118 -169 -179t-259 -61h-21q-7 0 -15 1t-22 3q10 33 14.5 55.5t5.5 33.5q15 66 15 132q0 32 -4 65t-15 67
q-34 122 -122 174q-46 28 -91 28q-33 0 -67.5 -18t-66.5 -53h1q-23 -35 -34 -69.5t-11 -64.5z" />
    <glyph glyph-name="Charu_Chandan.109" unicode="&#x9e6;" horiz-adv-x="1298" 
d="M975 1048q-134 143 -330 143q-193 0 -325 -144q-66 -72 -101.5 -160.5t-35.5 -191.5q0 -109 35.5 -199.5t101.5 -161.5q66 -68 148.5 -103.5t176.5 -35.5q100 0 182 33.5t148 105.5q139 148 139 361q0 205 -139 353zM643 1269q53 0 106 -12.5t103 -35.5t96.5 -54.5
t86.5 -70.5q70 -81 112.5 -185t42.5 -219q0 -249 -161 -416q-80 -82 -175.5 -121.5t-210.5 -39.5q-112 0 -206 39.5t-175 121.5q-158 164 -158 416q0 247 158 411q154 166 381 166z" />
    <glyph glyph-name="Charu_Chandan.110" unicode="&#x9e7;" horiz-adv-x="1025" 
d="M466 44q-48 0 -88 5.5t-75 17.5q-157 77 -195 198q-6 23 -9.5 44t-3.5 43q0 34 8.5 65t22.5 61q31 48 73 74.5t93 31.5q68 6 147 -34l-39 -69q-23 12 -43.5 17.5t-37.5 6.5q-41 2 -76 -23.5t-67 -77.5l2 -2q4 -4 4 -9q-2 -9 -3 -20.5t-1 -25.5q0 -17 1.5 -29.5t7.5 -29.5
q11 -42 46.5 -77.5t91.5 -64.5q33 -11 69.5 -17.5t68.5 -6.5q13 0 26 0.5t27 2.5q88 11 157.5 59.5t117.5 125.5q22 45 34 91t12 91q0 29 -7 67t-21 74q-38 95 -122.5 186.5t-210.5 163.5q-1 0 -1.5 1t-1.5 1l-6 3l-15 10q-63 37 -117.5 78t-83.5 75q-73 84 -73 184
q0 20 4 45.5t12 54.5l46 -14l31 -10q-13 -43 -13 -73q0 -35 13.5 -68t37.5 -62q26 -32 72.5 -68t110.5 -71l27 -17q142 -82 236.5 -184.5t136.5 -214.5q13 -42 20 -80t7 -77q0 -55 -15 -111.5t-42 -112.5q-67 -108 -167.5 -168t-228.5 -60z" />
    <glyph glyph-name="Charu_Chandan.111" unicode="&#x9e8;" horiz-adv-x="1241" 
d="M268 1418q2 -17 5 -28t8 -17q5 -13 11.5 -25t17.5 -20q17 -13 65.5 -31t113.5 -36q118 -32 211 -71.5t152 -84.5q65 -57 101.5 -121.5t36.5 -133.5q0 -5 -0.5 -9.5t-1.5 -10.5v-12q-12 -79 -72.5 -155t-167.5 -139q-49 -23 -122.5 -43.5t-172.5 -37.5
q232 -100 420 -200.5t344 -206.5l-11 -14l-10 -11l-9 -12h1l-16 -26q-250 165 -513.5 289.5t-536.5 200.5h-3q-6 1 -15.5 2.5t-23.5 5.5q4 4 6 15l3 10l20 52l19 -4q7 -3 14 -4q4 -3 7 -3q54 -8 106 -11.5t103 -3.5q91 0 173 17t154 46q100 56 159.5 116.5t64.5 119.5
q14 125 -105 218q-53 45 -141 80.5t-192 64.5q-32 9 -65 20.5t-62.5 23.5t-52.5 23.5t-35 21.5q-29 23 -47.5 61t-23.5 101z" />
    <glyph glyph-name="Charu_Chandan.112" unicode="&#x9e9;" horiz-adv-x="1545" 
d="M959 1272q36 0 70 -8t72 -24q147 -66 244 -212q76 -134 82 -302q2 -97 -22 -185.5t-69 -166.5q-16 -31 -47 -68.5t-75 -75.5q-82 -70 -175 -106.5t-194 -36.5q-87 0 -178 28h1q-36 8 -75.5 26.5t-79.5 44t-79.5 57t-75.5 66.5q-63 71 -114 157t-87 184.5t-55.5 208
t-19.5 228.5v21.5t0.5 27t1 28.5t0.5 26l41 -2q8 -1 19 -1.5t20 -0.5v-18t-1 -23q0 -4 -0.5 -9.5t-0.5 -8.5v-37q0 -226 63 -407t178 -311q66 -63 140.5 -112.5t143.5 -67.5q38 -11 80.5 -16.5t78.5 -5.5q72 0 144 25t135 68q45 33 83.5 75.5t59.5 80.5q38 66 59.5 145
t19.5 160q-2 70 -21.5 137t-50.5 123q-42 58 -95.5 106t-109.5 74q-32 14 -61 20.5t-51 4.5h-4q-8 1 -17.5 1.5t-18.5 0.5q-35 0 -69.5 -7.5t-60.5 -21.5q-19 -9 -36 -23t-36 -33l1 16l-15 -22.5l-15 -22.5l-6 -6h1q-23 -45 -33 -86.5t-8 -76.5q5 -43 22 -76q19 -42 72 -64
q17 -8 34.5 -11t31.5 -3q10 0 20 1.5t23 3.5q2 -19 4.5 -25.5t4.5 -14.5l9 -40q-20 -5 -35.5 -6.5t-26.5 -1.5q-25 0 -48 5t-46 13q-39 17 -70 45.5t-48 66.5q-11 23 -18.5 50t-9.5 56q-4 49 12 105t47 110q32 39 66 67.5t65 44.5q38 17 84 28t94 11h17q10 0 13 -1h1z" />
    <glyph glyph-name="Charu_Chandan.113" unicode="&#x9ea;" horiz-adv-x="1157" 
d="M329 216q60 -42 121.5 -61t124.5 -19q70 0 133 20.5t116 59.5q56 45 87 103.5t31 125.5t-32 125t-86 105q-55 38 -118 60t-131 22q-67 0 -129.5 -22t-117.5 -60q-57 -45 -88 -103.5t-31 -126.5q0 -138 120 -229zM781 1272q-89 69 -206 69q-56 0 -106.5 -19t-95.5 -51
q-45 -34 -70.5 -81.5t-25.5 -101.5q0 -53 25.5 -101.5t71.5 -83.5q44 -29 94 -46.5t107 -17.5q56 0 108.5 18t99.5 47q42 35 68 83t26 101q0 111 -91 180zM957 1088q0 -76 -48 -148t-138 -138q251 -151 251 -357q0 -82 -30 -150t-103 -127q-130 -113 -314 -113
q-91 0 -168 28t-145 88v-1q-132 110 -132 275q0 206 255 357q-92 66 -141 138.5t-49 147.5q0 73 31 132.5t88 108.5q54 46 119 67.5t142 21.5q76 0 142.5 -21.5t120.5 -67.5q59 -52 89 -109t30 -132z" />
    <glyph glyph-name="Charu_Chandan.114" unicode="&#x9eb;" horiz-adv-x="1193" 
d="M1111 1031q-23 -20 -41 -36.5t-35 -33.5l-21 -22q-14 -14 -29 -31t-32 -37q-33 -43 -60.5 -86t-48 -84t-31.5 -79t-11 -71q0 -24 3 -39q17 -67 77.5 -129.5t166.5 -106.5l26 -9q1 0 1.5 -0.5t1.5 -0.5q5 -2 16.5 -6t28.5 -8q-12 -8 -22.5 -15.5t-19.5 -12.5l-23 -14
q-104 -64 -216.5 -98t-231.5 -34q-127 0 -227 51.5t-172 151.5q-105 146 -105 320q0 79 23 167t65 178q13 28 30.5 59t37 62.5t40.5 62.5t41 58q35 47 91 110.5t119 132.5l52 -52l-12 -14l-15 -15h1l-17 -17l-20 -18h1l-21 -26q15 -55 42 -103t58 -79q57 -54 128.5 -82.5
t159.5 -28.5h23h17t15 1l17 17q9 10 19 19.5t17 15.5l10 12l16 15v-1l6 6q-1 -1 -0.5 0.5t1.5 3.5q0 1 7 8zM275 324q129 -181 358 -176q64 2 144 25t177 64q-102 63 -156.5 129t-66.5 138q-2 12 -3.5 25t-1.5 24q0 38 9.5 78.5t30 85.5t52 95t76.5 108q-102 11 -175 38
t-126 75v-1q-68 60 -129 188q-94 -118 -156.5 -227t-92.5 -200q-14 -49 -23 -98t-9 -93q0 -77 23.5 -146t68.5 -132z" />
    <glyph glyph-name="Charu_Chandan.115" unicode="&#x9ec;" horiz-adv-x="1430" 
d="M889 1270q-29 -52 -56 -103.5t-40 -87.5q-12 -40 -19 -76t-7 -62q0 -17 4 -35t12 -36q13 -36 41.5 -67t63.5 -54q21 -11 45.5 -18t51.5 -8q28 0 62.5 11t67.5 29q75 55 112 92l30 32l13 14l24 -58q19 -50 31 -110.5t14 -128.5q3 -128 -45 -237.5t-136 -187.5
q-68 -58 -148.5 -88t-166.5 -30q-17 0 -35 0.5t-33 2.5q-2 0 -3 0.5t-3 0.5q-65 12 -135.5 38.5t-128.5 61.5q-29 20 -57 41.5t-54 47.5q-28 27 -49 52t-38 49q-80 110 -139.5 298t-100.5 456h21t20 1h18q5 0 10.5 0.5t11.5 0.5q38 -260 95 -434.5t132 -275.5
q58 -89 159 -156q54 -36 117.5 -62t123.5 -36q17 -2 34 -3.5t34 -1.5q74 0 140 24.5t124 72.5v-1q63 56 99.5 132t47.5 160q2 13 2.5 28.5t0.5 29.5q0 33 -5 73.5t-14 90.5q-13 -8 -27 -18.5t-26 -18.5l-26 -20q-93 -51 -175 -51q-36 0 -73 10.5t-71 28.5q-46 29 -81 69.5
t-54 89.5q-8 25 -14 48.5t-6 48.5q-2 70 31 165q12 42 36 90t56 102z" />
    <glyph glyph-name="Charu_Chandan.116" unicode="&#x9ed;" horiz-adv-x="1050" 
d="M900 1220q9 -22 15 -42.5t9 -41.5v-1091h-87v613q-122 -26 -218.5 -38t-193.5 -13q-95 -2 -165 27t-112 86q-57 75 -57 181q0 73 27 158q56 144 149.5 228.5t222.5 113.5l4 1q27 7 53.5 9t51.5 2q58 0 105.5 -14.5t84.5 -39.5q32 -26 62 -63t49 -76zM837 1123
q-6 23 -16 46t-22.5 44.5t-27 40t-31.5 32.5q-27 18 -63.5 28.5t-78.5 10.5q-19 0 -41.5 -2t-46.5 -6q-100 -28 -179.5 -102t-128.5 -185q-12 -34 -17 -66.5t-5 -62.5q0 -79 41 -130q56 -76 203 -74q101 1 199 12.5t214 37.5v376z" />
    <glyph glyph-name="Charu_Chandan.117" unicode="&#x9ee;" horiz-adv-x="1408" 
d="M806 813q105 -32 230 -35q66 2 126 28.5t120 83.5q11 -6 20.5 -11.5t19.5 -11.5l16 -9h-1l8 -4q2 -1 6 -3.5t6 -2.5l-28 -28q-17 -17 -30 -26q-27 -23 -60 -42t-67 -32q-37 -9 -72.5 -16t-73.5 -7q-17 -1 -42.5 1t-61.5 9q16 -42 24.5 -80.5t8.5 -68.5q0 -72 -26 -158
q-113 -283 -367 -338l-5 -1q-29 -6 -54.5 -8.5t-48.5 -2.5q-58 0 -105.5 13.5t-83.5 38.5q-32 25 -62 63.5t-48 75.5l-7 19q-5 16 -10 30.5t-7 29.5v1088h80v-614q111 25 213 39t202 15q32 1 60.5 -1.5t54.5 -10.5q4 -2 5.5 -2.5t3.5 -0.5q15 -4 31 -8.5t25 -9.5v-2z
M211 334q10 -51 35.5 -95t61.5 -71q29 -18 66.5 -28t80.5 -10q17 0 39 1.5t44 5.5l8 2q47 15 92.5 42t86 64.5t74 85t56.5 102.5q11 34 16.5 65.5t5.5 59.5q0 77 -42 131q-60 79 -207 78q-104 -3 -206 -15t-211 -37v-381z" />
    <glyph glyph-name="Charu_Chandan.118" unicode="&#x9ef;" horiz-adv-x="1153" 
d="M175 349q2 -11 6.5 -23.5t11.5 -23.5l-60 -54q-29 40 -38 96q-3 12 -3 30q0 74 49 142q37 39 82 63.5t90 32.5q8 1 17 1.5t15 0.5q39 0 77 -14t70 -35q44 -32 75 -82.5t43 -105.5q3 -13 4 -28.5t1 -30.5q0 -40 -13.5 -88t-39.5 -105q54 8 99 18t80 24q54 24 99 61t73 79
q52 101 52 187q0 62 -28 124.5t-81 124t-129 121t-173 115.5q-2 2 -5 3t-5 3q-5 2 -10 4.5t-8 5.5v-1l-24 13q-3 0 -6 3q-64 30 -116 64.5t-82 63.5q-32 37 -51.5 79.5t-19.5 88.5q0 17 3.5 41t13.5 56l78 -22q-15 -51 -15 -74q0 -35 14 -63.5t40 -57.5q23 -23 69 -52
t103 -57l14 -6l12 -7l14 -9q6 -2 18 -11l7 -4q450 -249 450 -542q0 -24 -5 -52.5t-13.5 -58.5t-20 -59.5t-24.5 -56.5q-37 -57 -97.5 -105t-133.5 -75q-57 -18 -125.5 -30.5t-132.5 -12.5h-15t-21 1q-7 1 -14 1.5t-17 0.5q0 11 1.5 19t3.5 16l4 39h10q4 -1 14 4l7 4
q32 52 48 100t16 90v10t-1 9q0 10 -1 12q-6 49 -28 86t-57 64q-26 18 -55.5 26.5t-58.5 7.5q-31 -2 -62.5 -17t-54.5 -38h1q-22 -34 -33.5 -69.5t-7.5 -64.5z" />
    <glyph glyph-name="Charu_Chandan.119" unicode="&#x9f0;" horiz-adv-x="1351" 
d="M1432 1434h-261v-1462h-86v11q-159 33 -315.5 100t-317.5 167q-116 71 -199 137.5t-146 137.5l610 909h-781v78h1496v-78zM216 532q63 -58 134 -109.5t148 -97.5q143 -88 291.5 -152.5t295.5 -103.5v489q-125 56 -246.5 121t-226.5 128q-2 0 -5 1t-5 1v2l-15 10
q-2 1 -2.5 1t-1.5 0.5t-3.5 2.5t-8.5 8v-1l-13 11q-9 7 -19 14t-15 10l-20 12q-6 3 -15 9t-22 17zM514 974l31 -21l29 -20l16 -11q20 -13 38 -25t33 -21q43 -27 93.5 -54.5t105 -55t112 -53.5t113.5 -49v770h-262z" />
    <glyph glyph-name="Charu_Chandan.120" unicode="&#x9f1;" horiz-adv-x="1349" 
d="M1470 1434h-304v-1462h-82v11q-155 35 -311 102t-322 167q-116 71 -199.5 137t-144.5 136l610 909h-791v78h1544v-78zM217 534q76 -70 144.5 -119.5t134.5 -91.5q143 -87 292.5 -151.5t295.5 -104.5v1367h-261q-44 -63 -88 -129t-88 -129q-48 -72 -102 -151.5
t-108.5 -160.5t-108.5 -160.5t-102 -151.5zM175 226q68 -51 124.5 -89t94.5 -61q105 -63 239.5 -126t287.5 -117l-48 -74q-157 54 -284.5 115t-242.5 130q-42 26 -100 65.5t-127 90.5z" />
    <glyph glyph-name="Charu_Chandan.121" unicode="&#x9f2;" horiz-adv-x="1141" 
d="M1050 603q29 64 40 133.5t13 159.5q6 201 -200 409q-40 36 -94.5 72.5t-122.5 68.5q-51 24 -106.5 43t-113.5 32t-115.5 20t-111.5 7q-23 0 -50 -1t-59 -3q-2 7 -2.5 14t-0.5 8l-2 13q0 7 -1 9q0 2 -0.5 3t-0.5 3t-0.5 6.5t-4.5 15.5q32 2 59.5 3t61.5 1q125 0 249 -28
t234 -79q32 -16 65.5 -35.5t64 -40t57.5 -41.5t46 -39q108 -103 164.5 -215t57.5 -232q2 -97 -12.5 -192.5t-42.5 -189.5z" />
    <glyph glyph-name="Charu_Chandan.122" unicode="&#x9f3;" horiz-adv-x="1298" 
d="M897 570l2 -4q1 0 1.5 0.5t1.5 0.5zM900 563q9 -19 12.5 -35.5t3.5 -25.5q0 -5 -1 -11.5t-3 -11.5q0 -2 -0.5 -4t-0.5 -4q-21 -70 -83 -90q-14 -5 -26 -6.5t-22 -1.5q-21 0 -38 4.5t-37 11.5q-14 6 -31.5 20.5t-38.5 34.5q-19 21 -29 44.5t-14 49.5q-5 18 -5 34
q0 32 9.5 65t31.5 66q43 46 94.5 74t108.5 37q5 1 13.5 1.5t21.5 0.5q22 0 47 -6t49.5 -16.5t47.5 -24t41 -28.5q35 -29 62.5 -73t37.5 -91q3 -11 3 -20v-27q0 -61 -23 -115q-20 -39 -48 -77t-61 -71t-70 -60.5t-76 -45.5q-38 -14 -78.5 -26.5t-81.5 -21.5t-81 -14.5
t-75 -5.5q-46 0 -86.5 5.5t-82.5 19.5l-9 4v795h-229v84h232v37q-3 148 -64 221q-56 66 -202 107l3 24q1 5 1.5 10t0.5 10l4 37q92 -29 164 -77t118 -111q26 -34 38 -91t12 -138v-29h223v-84h-223v-738q20 -3 35 -4t27 -1h38q68 0 143.5 15.5t144.5 41.5q146 65 215 216
q8 17 12 40t4 50q-4 42 -25.5 78t-54.5 65q-34 31 -74.5 44.5t-85.5 11.5q-45 -3 -80 -22.5t-59 -53.5q-28 -31 -31 -94q-2 -35 18 -62t58 -44q15 -7 29 -7q22 0 38 16q11 11 13 21t-4 25z" />
    <glyph glyph-name="Charu_Chandan.123" unicode="&#x9f4;" horiz-adv-x="1335" 
d="M1235 1624q26 -88 40 -175t14 -175v-29q-1 -118 -58 -231t-165 -216q-20 -19 -46 -39.5t-56 -41t-63 -39.5t-66 -35q-112 -48 -235.5 -78.5t-248.5 -30.5q-30 0 -61 1t-59 6l9 62q0 1 0.5 2.5t0.5 3.5q27 -2 55 -3t55 -1q111 0 227 27.5t220 76.5q67 32 123.5 67.5
t94.5 72.5q203 208 199 408q-2 88 -15.5 159.5t-36.5 134.5z" />
    <glyph glyph-name="Charu_Chandan.124" unicode="&#x9f5;" horiz-adv-x="1359" 
d="M268 988q25 13 53.5 22.5t63.5 16.5q30 7 48 7q63 0 122 -26q84 -42 133 -146q8 -26 11.5 -50t3.5 -47q0 -44 -10 -86q-17 -61 -63.5 -130.5t-148.5 -167.5q75 -9 102.5 -11t48.5 -2q60 0 115.5 14t103.5 38q40 26 79.5 62.5t76.5 82.5t69.5 101t56.5 118q32 63 66 144.5
t76 190.5q43 107 77.5 224.5t65.5 236.5l49 39q-17 -116 -47.5 -246t-57.5 -223q-19 -56 -37.5 -109t-36.5 -100t-33.5 -86.5t-27.5 -67.5q-30 -77 -68.5 -144.5t-81.5 -124t-91 -100.5t-97 -74q-56 -31 -121 -47t-134 -16q-129 0 -310 61l26 79h23q180 116 227 251
q8 24 13.5 47t5.5 45q0 11 -4 28t-9 36q-24 60 -65 90t-105 30q-25 0 -42 -3q-25 -6 -55.5 -20t-49.5 -25z" />
    <glyph glyph-name="Charu_Chandan.125" unicode="&#x9f6;" horiz-adv-x="1542" 
d="M1307 1195q45 115 80.5 231t63.5 232l45 42q-22 -131 -50 -252.5t-59 -217.5q-40 -125 -75.5 -225t-63.5 -157q-32 -75 -71 -145t-83.5 -129.5t-93.5 -106.5t-101 -76q-57 -28 -125.5 -45t-139.5 -17q-29 0 -65.5 5t-77.5 13t-85 19.5t-87 23.5l9 25l5 17l9 30h20
q97 61 159 128t85 141q9 26 13 51t4 45q0 8 -0.5 16.5t-1.5 15.5l-4 27q-29 66 -74.5 101t-113.5 35q-11 0 -22.5 -0.5t-21.5 -2.5q-49 -11 -90.5 -38t-62.5 -59q-7 -17 -13.5 -40.5t-6.5 -43.5v-11v-14.5t2 -10.5q36 -96 105 -96h20q2 0 2.5 0.5t2.5 0.5q19 11 31 20.5
t14 17.5q1 7 1.5 19t0.5 23l50 26l22 10q6 -21 7.5 -32t1.5 -16q0 -26 -8 -55q-11 -26 -31.5 -46t-53.5 -37v1l-4 -4q-4 0 -6 -2q-12 -3 -21.5 -4.5t-22.5 -1.5q-17 0 -35 4t-38 9q-36 13 -63.5 42.5t-46.5 71.5q-6 29 -10 51.5t-4 39.5q0 32 8.5 62.5t26.5 56.5
q27 46 77.5 80t114.5 49h-1q22 8 37 9t30 1h5q36 0 66 -7t57 -20q44 -25 81.5 -68.5t60.5 -100.5q10 -39 10 -78q0 -40 -13 -88v1q-14 -69 -71 -147.5t-153 -166.5q62 -9 104 -13t65 -4q131 0 230 53q42 24 84 64t81 91t73.5 111.5t63.5 125.5q24 47 53.5 117.5t62.5 153.5z
" />
    <glyph glyph-name="Charu_Chandan.126" unicode="&#x9f7;" horiz-adv-x="511" 
d="M208 1245q-4 44 -27.5 70.5t-73.5 35.5q19 44 39.5 61.5t47.5 21.5q50 -4 72 -43.5t22 -120.5v-13q0 -2 -0.5 -3t-0.5 -4v-951q7 -90 101 -106q-33 -77 -83 -82q-52 0 -75 38.5t-23 119.5v16q0 10 1 13v947z" />
    <glyph glyph-name="Charu_Chandan.127" unicode="&#x9f8;" horiz-adv-x="1072" 
d="M371 581q-12 -15 -27.5 -24.5t-37.5 -11.5q-52 1 -74.5 40t-22.5 119v15v7.5t1 6.5v491q-6 42 -30 70t-72 36q17 41 41 59.5t49 23.5q49 -4 71 -43t22 -120v-18q0 -2 -0.5 -3t-0.5 -2v-508q1 -20 3.5 -40.5t8.5 -49.5l133 173l65 85l181 230q23 42 69 46q51 -2 74.5 -51
t20.5 -141v-609q8 -90 101 -107q-16 -38 -37.5 -59t-44.5 -24q-51 0 -73.5 39t-22.5 121v15v7.5t1 6.5v609q-1 10 -1 20.5v18.5q0 9 0.5 17t3.5 22l-28 12z" />
    <glyph glyph-name="Charu_Chandan.128" unicode="&#x9f9;" horiz-adv-x="1109" 
d="M971 742q0 91 -32 171t-89 146q-61 66 -137.5 100t-164.5 34t-162.5 -35t-133.5 -95q-124 -130 -124 -321q0 -100 30.5 -180.5t93.5 -146.5q120 -126 296 -126q85 0 162 35t135 91q57 66 91.5 150t34.5 177zM546 1266q103 0 190.5 -39t159.5 -113q68 -78 107.5 -173.5
t39.5 -198.5q0 -110 -37.5 -206t-102.5 -169q-75 -72 -165 -113t-192 -41q-100 0 -188 37.5t-161 110.5q-69 76 -106 172.5t-37 208.5q0 108 37 202t106 170q69 75 156.5 113.5t192.5 38.5z" />
    <glyph glyph-name="Charu_Chandan.129" unicode="&#x9fa;" horiz-adv-x="1090" 
d="M1219 1857q-135 -184 -223.5 -296t-130.5 -159q-43 -38 -97.5 -61t-114.5 -23t-116 22.5t-98 59.5q-37 39 -59.5 91t-33.5 111h73q7 -49 24 -80.5t43 -58.5q71 -71 167 -71q47 0 95 21.5t94 59.5v-1q47 43 132 136.5t216 248.5h29zM734 1635q0 -32 -24 -56h1
q-11 -12 -25.5 -18.5t-29.5 -6.5q-36 0 -58 25h1q-13 14 -19 28t-6 28q0 27 25 55q21 21 57 21q14 0 26 -4.5t28 -18.5q24 -21 24 -53z" />
    <glyph glyph-name="Charu_Chandan.130" horiz-adv-x="744" 
d="M921 1512v-78h-249q-47 -23 -94.5 -53.5t-92 -66t-84 -74t-70.5 -78.5q-86 -118 -133.5 -259t-47.5 -299q0 -54 3.5 -112.5t18.5 -108.5q26 -113 75.5 -187.5t115.5 -119.5q31 -18 66 -28t72 -10h9q17 0 31 0.5t25 4.5q29 14 52 36t30 53q2 5 2 11v16v9q0 17 -6 37
t-14 40q-29 48 -105 48h-19l-3 21q-2 17 -4 33t-3 27h13t11 1q2 0 3.5 0.5t3.5 0.5h4q59 0 101.5 -24t67.5 -69q18 -28 26 -59.5t8 -60.5q0 -21 -3 -42q-24 -129 -141 -153h1q-28 -8 -50.5 -11t-43.5 -3q-51 0 -95.5 13.5t-82.5 39.5q-42 26 -79 62t-64 77q-26 39 -45.5 86
t-31.5 95q-18 85 -25.5 157.5t-7.5 123.5q0 161 45.5 304t127.5 264q21 30 50.5 64t61.5 67q24 23 52.5 48.5t53.5 45.5q31 24 66 48l12 8q19 13 37.5 27t37.5 28h311z" />
    <glyph glyph-name="Charu_Chandan.131" horiz-adv-x="752" 
d="M911 1512h12v-78h-251q-48 -24 -95 -54t-90.5 -64.5t-83 -73t-70.5 -80.5q-90 -118 -136.5 -258t-46.5 -300q0 -54 3 -112t20 -106q26 -115 75.5 -190t114.5 -120q63 -38 139 -38h8q17 0 32.5 0.5t26.5 4.5q27 13 50.5 34.5t28.5 53.5q2 7 2.5 13t0.5 15v9
q0 17 -5.5 36.5t-13.5 39.5q-28 49 -107 49h-18q-3 20 -5.5 41t-3.5 40h12t10 1q2 0 3.5 0.5t3.5 0.5h4q60 0 101.5 -23.5t68.5 -68.5q19 -32 26 -61.5t7 -59.5q0 -21 -3 -42q-21 -128 -141 -153h1q-26 -8 -49.5 -11t-42.5 -3q-52 0 -96.5 13.5t-82.5 39.5
q-39 26 -77.5 63.5t-64.5 75.5q-26 41 -45.5 87t-32.5 93q-12 48 -18.5 88t-9.5 74.5t-4 64t-1 55.5q0 167 43.5 305.5t128.5 262.5q23 30 52 63.5t62 67.5q23 23 50 48t54 46q13 10 25.5 19t25.5 18l22 15q20 14 40.5 28.5t40.5 30.5h213q-1 59 -6 80q-4 20 -9 38t-13 32
q-21 38 -63 63t-96 35q-6 2 -20.5 2.5t-25.5 0.5q-38 0 -88 -6t-111 -19h1q-64 -17 -112.5 -24t-77.5 -5q-89 5 -151 37q-29 15 -54 36.5t-42 47.5q-42 60 -42 137q0 20 4 44t15 58q11 -5 23 -9t20 -7l11 -4l21 -8q-6 -23 -8 -35.5t-2 -22.5v-14q0 -51 28 -95
q18 -35 67.5 -54t112.5 -27q29 1 76 7t92 16q137 29 215 29q14 0 31 -1t34 -4q70 -14 125.5 -49t88.5 -89q17 -35 30 -77.5t13 -84.5v-28z" />
    <glyph glyph-name="Charu_Chandan.132" 
d="M-28 2027l-360 -369l-57 58l361 366z" />
    <glyph glyph-name="Charu_Chandan.133" horiz-adv-x="1918" 
d="M195 533q75 -67 144 -118t138 -93q144 -88 292 -152t297 -105v1369h-266q-12 -19 -25.5 -39.5t-27.5 -40.5q-14 -21 -28.5 -42.5t-28.5 -41.5q-16 -23 -31 -46.5t-31 -46.5l-46 -68q-43 -65 -88 -131t-88 -130l-202 -300zM1477 880q-4 11 -8.5 17t-8.5 10q-18 5 -33.5 9
t-25.5 4q-8 0 -17 -1.5t-17 -4.5q-25 -11 -40.5 -30t-17.5 -48q-3 -3 -1 -7q-2 -11 -3 -21t-1 -15q0 -31 13.5 -59t39.5 -55q19 -19 58.5 -29t81.5 -12q54 14 93 41t60 65q29 53 29 125q0 11 -1.5 26t-3.5 29q-4 24 -8.5 46.5t-12.5 46.5q-15 37 -41.5 74.5t-63 72.5
t-80.5 67.5t-93 59.5q-26 13 -58.5 26.5t-69.5 27.5q-6 0 -14 6l-46 16t-40 13v-1408h-81v12q-152 36 -310.5 103t-323.5 166q-116 71 -199 137.5t-144 135.5l611 908h-792v78h2101v-78h-775l91 -30q163 -73 266.5 -164.5t140.5 -195.5q8 -23 15 -52.5t11 -64.5
q2 -14 2.5 -28t0.5 -26q0 -47 -9.5 -89.5t-29.5 -77.5q-30 -51 -88.5 -91.5t-130.5 -58.5l-3 -1h-16q-60 0 -106 17.5t-81 51.5q-75 78 -75 167q0 8 1 18t4 24q7 52 36 94t74 65q14 5 30 8.5t34 3.5t37.5 -3.5t46.5 -11.5q28 -14 56 -48q5 -8 10 -18.5t9 -24.5z" />
    <glyph glyph-name="Charu_Chandan.134" 
d="M-143 943v-1118h-83v404q-45 57 -86.5 97t-83.5 72q-128 84 -245 84q-51 0 -104 -14q-8 -2 -27.5 -9.5t-41.5 -18.5q-50 -32 -87 -65.5t-58 -69.5q-14 -28 -22 -61.5t-8 -64.5q0 -27 3.5 -54.5t11.5 -56.5q16 -66 60.5 -105.5t115.5 -65.5q8 -5 21.5 -6.5t28.5 -1.5
q11 0 26.5 1.5t31.5 4.5q35 6 62.5 15t43.5 24q55 45 55 103q0 23 -4 35q-7 20 -19 42.5t-23 31.5q-18 11 -26.5 14t-13.5 3h-6q-11 0 -20.5 -1t-28.5 -7l-41 73q29 12 49.5 17t40.5 5t40 -7.5t38 -18.5q30 -20 53.5 -57t32.5 -82q6 -29 6 -52q0 -87 -75 -153
q-42 -35 -96 -54t-121 -19q-51 0 -80 10q-53 18 -98.5 52t-78.5 79q-20 26 -31 52t-19 49q-10 32 -16 65t-6 66q0 48 12.5 92t39.5 88q36 64 102.5 112.5t154.5 74.5q30 8 60 12t62 4q50 0 105 -14.5t114 -40.5q41 -20 91.5 -56t104.5 -85v576h83z" />
    <glyph glyph-name="Charu_Chandan.135" 
d="M-348 718q51 -8 100 -34.5t95 -66.5q28 -28 51 -72t34 -94q14 -58 14 -106q0 -25 -3.5 -53t-10.5 -61q-5 -21 -15.5 -45.5t-24 -49t-30 -47t-33.5 -39.5q-59 -47 -137.5 -80t-169.5 -33q-63 0 -123 17.5t-117 53.5q-97 59 -170 164.5t-118 261.5l41 8q20 2 33 7
q42 -136 108 -230.5t154 -145.5q90 -54 186 -54h6q88 0 157 29t117 80q23 26 39.5 57t24.5 60v-1q4 25 6 49t2 53q0 24 -2 44.5t-4 37.5q-10 38 -28.5 73.5t-41.5 58.5q-37 34 -76 55.5t-80 27.5q-23 3 -39 3q-8 0 -17 -0.5t-16 -2.5l-15 -2q-38 -10 -73.5 -37t-57.5 -69
q-7 -13 -9.5 -26.5t-2.5 -23.5q0 -22 9 -40q3 -10 8 -21t12 -21h-1q36 -39 91 -39q8 0 18 1.5t20 4.5l11 4l4 1q7 3 15.5 6t25.5 13l32 -39l18 -23q-33 -20 -60.5 -30.5t-52.5 -14.5h-13q-2 0 -3 -0.5t-2 -0.5h-11q-79 0 -147 65q-18 18 -29 38t-16 46v-1q-7 24 -7 49
q0 22 6 44t16 46q13 27 32 50.5t42 42.5t49 31.5t53 17.5h-1q20 7 36.5 8.5t31.5 1.5q10 0 26.5 -2.5t31.5 -4.5h1z" />
    <glyph glyph-name="Charu_Chandan.136" horiz-adv-x="1317" 
d="M1130 1512h263v-78h-260v-1462h-85v10q-158 35 -313.5 104t-316.5 165q-107 63 -195.5 134t-150.5 136l477 506h-1q9 32 14 59.5t5 56.5q0 43 -10 79q-11 32 -53 100q-42 69 -139 87q-3 1 -13 1q-3 1 -8.5 1h-9.5q-35 0 -67 -11t-58 -31q-18 -18 -34 -49.5t-21 -59.5
q2 -23 10.5 -46t22.5 -40h-1q19 -19 45 -19h4h7t8 1h-1q46 17 60 46v7l39 -3l44 -6l-9 -24l-5 -17q-5 -10 -11.5 -21t-20.5 -25q-18 -18 -35 -27.5t-33 -12.5q-17 -3 -31.5 -4.5t-20.5 -1.5q-27 0 -53.5 13.5t-47.5 38.5h1q-27 28 -39.5 68.5t-14.5 74.5q8 48 30 96.5
t57 81.5q35 26 79.5 40.5t94.5 14.5q13 0 24 -0.5t20 -1.5q77 -13 134.5 -52.5t92.5 -108.5q23 -48 35.5 -93t12.5 -94q0 -77 -32 -162l-5 -9q-1 -2 -3 -4l-3 -3v1l-8 -10l-411 -437q69 -60 139 -109.5t134 -87.5q64 -39 136.5 -76.5t148.5 -71t152 -61.5t148 -47v1510h82
v-66z" />
    <glyph glyph-name="Charu_Chandan.137" horiz-adv-x="1318" 
d="M305 1210h4v3zM1130 1512h263v-78h-260v-1462h-85v10q-158 35 -313.5 104t-316.5 165q-107 63 -195.5 134t-150.5 136l477 506h-1q9 32 14 59.5t5 56.5q0 43 -10 79q-11 32 -53 100q-42 69 -139 87q-3 1 -13 1q-3 1 -8.5 1h-9.5q-35 0 -67 -11t-58 -31q-18 -18 -34 -49.5
t-21 -59.5q2 -23 10.5 -46t22.5 -40h-1q19 -19 45 -19h4h7t8 1h-1q46 17 60 46v7l39 -3l45 -6q-2 -20 -12 -43.5t-37 -50.5q-32 -27 -66 -33q-17 -3 -31.5 -4.5t-20.5 -1.5q-27 0 -53.5 13.5t-47.5 38.5h1q-26 27 -40 66.5t-14 76.5q8 48 30 96.5t57 81.5q35 26 79.5 40.5
t94.5 14.5q13 0 24 -0.5t20 -1.5q77 -13 134.5 -52.5t92.5 -108.5q23 -48 35.5 -93t12.5 -94q0 -77 -32 -162l-5 -9q-1 -2 -3 -4l-3 -3v1l-8 -10l-411 -437q69 -60 139 -109.5t134 -87.5q64 -39 136.5 -76.5t148.5 -71t152 -61.5t148 -47v1510h82v-66z" />
    <glyph glyph-name="Charu_Chandan.138" horiz-adv-x="1349" 
d="M381 1497q13 0 26 6t24 17h-1q23 29 23 56q0 9 -1.5 15t-3.5 12l-1 7q-8 14 -27 28.5t-45 26.5h1q-4 1 -9 1.5t-13 0.5h-21q-20 0 -43.5 -7t-40.5 -15q-29 -23 -53.5 -57.5t-33.5 -70.5q0 -2 -0.5 -3.5t-0.5 -3.5v-7q0 -4 -0.5 -7.5t-0.5 -6.5q-1 -6 -1.5 -11t-0.5 -11
q0 -42 18 -78.5t52 -71.5q48 -47 104.5 -71t119.5 -24q17 0 40.5 2.5t47.5 9.5q45 68 94 138.5t94 139.5h692v-78h-292v-1462h-81v10q-160 36 -314 103.5t-318 164.5q-110 69 -193.5 134t-151.5 139l408 615q-94 7 -170 35t-136 82q-97 90 -97 210q0 14 1 30.5t7 35.5v-1
q5 28 17 54.5t28 50t34.5 43t36.5 33.5q26 20 60 29t72 9q31 0 79 -9q37 -14 68.5 -40.5t45.5 -64.5q5 -15 9 -30.5t4 -36.5q0 -23 -9.5 -46t-33.5 -50q-53 -59 -120 -56l-20 4zM1047 1434h-271l-192 -285l-115 -176q-22 -34 -47.5 -72.5t-52 -78.5t-52.5 -79t-50 -73
l-93 -138q28 -25 64.5 -53.5t74.5 -56t76 -53.5t71 -46q64 -38 138.5 -77t151.5 -74.5t153 -64t144 -46.5v1373z" />
    <glyph glyph-name="Charu_Chandan.139" horiz-adv-x="1062" 
d="M1234 575v-750h-84v402q-42 55 -89 100.5t-95 80.5q-55 34 -114 54t-116 20t-99 -12q-11 -3 -33 -12t-42 -20v1q-2 -2 -5 -2q-43 -29 -81.5 -63.5t-58.5 -67.5q-14 -26 -23 -61.5t-9 -65.5q0 -26 3.5 -52t14.5 -58q17 -66 59.5 -106.5t116.5 -65.5q8 -5 20 -6.5t27 -1.5
q14 0 30.5 1.5t30.5 4.5q32 5 61 16t50 28v-1q47 44 47 99v10.5t-1 9.5v11q-6 23 -17 45t-26 36v-1q-17 10 -27 12.5t-18 2.5q-11 0 -22.5 -1t-26.5 -4q-7 11 -14 23t-12 23q-2 4 -5 9.5t-5 9.5l-2 7q27 12 47 16t38 4q19 0 40 -7.5t38 -18.5q32 -19 55 -56t32 -83
q6 -29 6 -52q0 -91 -75 -154v1q-82 -73 -218 -73q-48 0 -78 10q-111 36 -177 131q-20 26 -32 52t-20 48q-8 33 -14 66.5t-6 65.5q0 42 11.5 85t31.5 80q20 34 48.5 65.5t63 57.5t73 46t78.5 33q32 8 63.5 12t61.5 4q46 0 101.5 -14t103.5 -33q35 -20 92 -59.5t117 -93.5v211
z" />
    <glyph glyph-name="Charu_Chandan.140" 
d="M-749 121q16 -14 36.5 -29t41.5 -30t40.5 -29t34.5 -24q66 -40 143.5 -75t180.5 -67v679zM-188 -233q-54 9 -108.5 25.5t-102.5 34.5q-50 20 -113.5 51t-124.5 62q-19 12 -44.5 31t-55.5 43t-63 52.5t-66 58.5q42 35 80 67.5t83 73.5q25 21 49.5 43.5t49.5 44.5v-1l17 16
q25 21 45.5 39.5t44.5 41.5l31 28l24 24q17 13 33 27t31 28l35 29l61 53h94v-872z" />
    <glyph glyph-name="Charu_Chandan.141" 
d="M-130 698l20 -78v1q11 -44 17 -86t6 -85q0 -72 -13.5 -151t-39.5 -166q-26 -80 -81.5 -142.5t-128.5 -92.5q-28 -11 -58.5 -17t-66.5 -6q-33 0 -71.5 8t-80 22.5t-84 33t-81.5 39.5q-127 81 -259.5 250t-256.5 429q5 2 9 3.5t9 3.5q-1 -1 4 1.5t10 4.5l27 11l18 10
q35 -77 75.5 -148.5t82.5 -135.5t84.5 -120t81.5 -101h-1q43 -44 81 -76.5t69 -50.5q81 -48 152 -73.5t131 -25.5q23 0 46 5t43 13q56 23 98.5 69.5t64.5 106.5q23 78 35.5 149.5t12.5 136.5q0 6 -0.5 17.5t-2.5 22.5v43q-93 -66 -173 -104.5t-146 -52.5q-19 -3 -38 -4
t-34 -1q-52 0 -100.5 17t-90.5 49q-80 66 -84 178q-2 55 14 99t45 78q36 33 80 53t95 20q45 -2 77 -20.5t52 -46.5q14 -20 22.5 -41t8.5 -44q0 -16 -5 -33t-13 -32q-17 -28 -44.5 -49t-57.5 -29q-9 0 -23.5 2t-29.5 7q3 3 1 5l27 73q3 -2 5.5 -2h4.5q26 12 41 32v7
q2 8 2.5 10.5t0.5 4.5q0 11 -2.5 21.5t-6.5 18.5q-10 11 -21.5 18t-29.5 13q-38 -4 -68 -13.5t-46 -29.5q-21 -23 -32.5 -52.5t-9.5 -65.5q0 -72 42 -117v1q29 -23 64.5 -36t73.5 -13q20 0 35 1.5t32 4.5q39 10 81.5 27.5t85 42t83.5 55.5t79 67l34 37z" />
    <glyph glyph-name="Charu_Chandan.142" 
d="M-176 388v-958q-7 0 -12 0.5t-10 0.5h-58q-11 29 -16 39.5t-10 18.5l-2 5v-1l-7 16q-17 32 -51.5 63t-69.5 48q-26 11 -56.5 15.5t-64.5 4.5q-55 0 -130 -21t-157 -58q-29 -17 -72.5 -31t-89.5 -26q-30 -5 -55 -8t-48 -3q-133 1 -294 120v113q81 -76 160 -115.5
t154 -39.5q36 2 67 9q18 5 43 12.5t49 16.5l22 10q22 9 53.5 22.5t67.5 31.5q51 21 110.5 35t117.5 14q38 0 79.5 -9t79.5 -23q46 -18 117 -75v693z" />
    <glyph glyph-name="Charu_Chandan.143" 
d="M-205 -227v494q-36 34 -73 54t-66 24q-17 -6 -43.5 -29t-50.5 -57l7 -12q5 -10 9.5 -20t5.5 -20l-24 -6q-14 -5 -27.5 -8.5t-18.5 -7.5q-18 42 -37.5 69t-42.5 48q-38 35 -82 55.5t-95 20.5q-19 0 -48.5 -5.5t-62.5 -15.5q-29 -11 -56 -34t-50 -50q-26 -38 -40.5 -78.5
t-14.5 -84.5q0 -25 5 -54t13 -58q18 -47 54.5 -81.5t87.5 -46.5q10 -2 22.5 -3t27.5 -1q62 0 101 51q15 19 22 45t5 54q-2 22 -11 36t-29 27q-11 3 -25 4t-26 1l-28 29l-10 9q-4 4 -9 9.5t-13 11.5q46 24 76 24t76 -20q32 -18 50.5 -51t25.5 -71q0 -2 0.5 -3t0.5 -2v-4
q0 -2 0.5 -2.5t0.5 -2.5v-12q0 -80 -52 -141q-26 -32 -67.5 -49.5t-96.5 -17.5q-12 0 -27 1.5t-32 5.5q-71 20 -123.5 62t-78.5 109q-9 35 -14.5 70t-5.5 67q0 50 14 97t38 89q31 49 74 87.5t107 62.5q67 18 121 18q60 0 126.5 -34t128.5 -92q17 17 36.5 33t38 29t36 21
t30.5 9q29 -2 64 -15t76 -39v714h86v-1313h-86z" />
    <glyph glyph-name="Charu_Chandan.144" horiz-adv-x="1914" 
d="M2009 1434h-779l94 -30q164 -72 267.5 -163.5t140.5 -196.5q8 -23 15 -52.5t11 -64.5q2 -14 2.5 -28t0.5 -26q0 -47 -9.5 -89.5t-29.5 -77.5q-30 -55 -77.5 -90t-112.5 -48q-14 -3 -28 -4t-26 -1q-47 0 -93 15.5t-87 44.5q-35 37 -54.5 82.5t-21.5 89.5q-3 19 4 56
q4 20 13 41.5t21 38.5q28 39 77 61q14 5 30 8.5t34 3.5h4q18 0 35.5 -2.5t43.5 -11.5q14 -6 29 -19t28 -30q11 -14 18 -32t10 -36q-5 -1 -9 -1.5t-9 -0.5q0 -1 -2 -1q-1 0 -11 -2l-56 -10q-6 32 -28.5 47t-52.5 15q-8 0 -17 -1.5t-17 -4.5q-24 -11 -40.5 -36t-18.5 -65
q-4 -77 49 -134q17 -17 45 -26.5t64 -9.5h8h14.5t12.5 2q48 7 88 34.5t61 64.5q14 26 21.5 58t7.5 67v29q0 12 -2.5 24.5t-5.5 29.5q0 2 -0.5 3.5t-0.5 3.5q-4 17 -7.5 32t-9.5 26q-14 37 -40.5 74.5t-62.5 72.5t-80.5 67.5t-94.5 59.5q-26 13 -58.5 26t-69.5 27l-10 5
q-23 9 -44.5 17t-45.5 14v-1408h-81v12q-152 36 -310.5 103t-323.5 166q-116 71 -199 137.5t-144 135.5l611 908h-792v78h2101v-78zM195 533q75 -67 144 -118t138 -93q144 -88 292 -152t297 -105v1369h-266q-12 -19 -25.5 -39.5t-27.5 -40.5q-14 -21 -28.5 -42.5
t-28.5 -41.5q-16 -23 -31 -46.5t-31 -46.5l-46 -68q-43 -65 -88 -131t-88 -130l-202 -300z" />
    <glyph glyph-name="Charu_Chandan.145" horiz-adv-x="1423" 
d="M794 945v1l-7 -8h9q5 0 7.5 0.5t3.5 0.5l-5 13zM1218 1512h294v-78h-294v-1462h-82v8q-153 35 -308.5 103.5t-323.5 168.5q-100 63 -187 132t-154 141l578 485q5 21 6 46t1 45q-1 61 -26.5 132.5t-72.5 151.5q-16 -94 -43.5 -155t-62.5 -93q-98 -75 -212 -75h-7
q-7 0 -12 1q-57 7 -103.5 36t-74.5 74q-8 17 -13.5 38.5t-5.5 40.5q-1 18 1.5 36.5t10.5 38.5q9 22 24.5 41t32.5 34q19 14 40 22.5t45 9.5q39 1 67 -9.5t47 -26.5l10 -13h-1q11 -11 17.5 -19t11.5 -16l-38 -18q-4 -2 -10.5 -5t-10.5 -5l-20 -8q-8 17 -26 26t-50 10
q-19 -5 -34 -14t-23 -23q-8 -20 -11 -36t-2 -24q0 -18 10 -35q20 -36 46.5 -51.5t62.5 -17.5q47 -2 92 10.5t78 38.5v-1q82 75 78 206q0 25 -2 51.5t-5 55.5q5 2 10 3t11 2q3 1 9 2.5t3 -0.5l26 9q6 -4 19.5 -17t33.5 -33l9 -9q27 -26 53.5 -66.5t49.5 -91.5t36 -108
t13 -117q0 -55 -9 -112l-32 -32l-507 -419q69 -57 139 -107.5t126 -87.5q145 -87 292.5 -150.5t297.5 -105.5v1508h82v-66z" />
    <glyph glyph-name="Charu_Chandan.146" horiz-adv-x="797" 
d="M1111 803q-53 109 -96.5 187t-80.5 126q-32 44 -63 78.5t-54 52.5q-67 46 -133.5 77t-120.5 31q-24 0 -42 -3q-49 -11 -92.5 -38t-74.5 -75q-24 -36 -50.5 -92t-53.5 -134q97 13 162 19.5t109 6.5h20h9.5t9.5 -1q60 -2 103 -20.5t61 -54.5q14 -26 14 -56
q0 -37 -20.5 -82.5t-58.5 -96.5q-30 -45 -87 -101t-143 -122l-13 25h1l-8 8q-2 5 -2.5 7t-1.5 3l-17 23l-2 5q72 57 124.5 108t83.5 99q28 38 43.5 68.5t15.5 53.5q0 5 -2.5 14t-4.5 14h1q-22 22 -88 22h-29q-81 0 -158.5 -9t-165.5 -26h1l-6 -3l-13 -2l-8 -2
q-4 -2 -10.5 -3t-21.5 -3v10q0 6 3 14l4 32q12 85 43 164t76 147q42 64 102.5 104.5t129.5 55.5q17 3 32.5 4t26.5 1q149 0 303 -127q32 -29 68 -66t67 -79q35 -45 79.5 -120t92.5 -173z" />
    <glyph glyph-name="Charu_Chandan.147" horiz-adv-x="1337" 
d="M1422 1434h-253v-1462h-81v21q-158 36 -313.5 103.5t-316.5 165.5q-99 60 -188.5 130.5t-153.5 137.5l406 424h-23.5t-31.5 -1q-17 0 -32 -0.5t-21 -0.5q-15 -1 -32.5 -1h-25.5h-42q-155 3 -196 87q-17 39 -17 82t18.5 90.5t53.5 98.5q10 14 34 44t70 81h-335v78h1480
v-78zM1088 1434h-683q-53 -45 -93.5 -89t-65.5 -80q-31 -43 -47.5 -79.5t-16.5 -65.5q0 -11 5 -25t13 -31h-1q14 -15 46 -22t70 -9q5 -1 12.5 -1h14.5h25q67 0 143 6t161 20l7 -28l6 -25q0 -4 0.5 -10t2.5 -11q0 -3 3 -6l-9 -1q-5 -2 -9 -2.5t-10 -0.5l-44 -43
q-94 -97 -190.5 -198t-193.5 -203q72 -63 136.5 -109t132.5 -88q143 -87 287 -150.5t298 -104.5v1356z" />
    <glyph glyph-name="Charu_Chandan.148" horiz-adv-x="1198" 
d="M1291 897q4 -32 5.5 -68t1.5 -68q0 -100 -17.5 -210.5t-47.5 -216.5q-28 -88 -84 -151t-141 -96q-30 -9 -64.5 -15.5t-66.5 -6.5q-74 0 -160 29t-175 81q-118 70 -238 204t-235 335l74 40q105 -188 217 -313.5t226 -196.5q81 -46 155 -71t135 -25q25 0 52 3.5t51 13.5
q63 29 110 78t67 116q29 97 44 203t15 227v44q-125 -50 -226.5 -79.5t-167.5 -41.5q-26 -6 -44.5 -7.5t-31.5 -1.5q-45 0 -79.5 14.5t-55.5 39.5q-19 25 -29.5 56.5t-10.5 67.5q0 76 41 183q-12 35 -17 72.5t-5 69.5q0 44 14 94.5t37 107.5l46 101q2 0 11 -4t15 -7
q14 -6 27 -11t26 -9q-23 -48 -33.5 -70.5t-16.5 -36.5l-11 -30l-6 -14l-8 -22v1q-5 -20 -9.5 -47t-6.5 -74q42 32 78.5 46t68.5 15q37 0 70 -13t61 -41q28 -29 41 -62.5t13 -71.5t-13 -72t-40 -62q-31 -26 -61.5 -39t-69.5 -13q-26 0 -68 17.5t-98 65.5v-32q0 -3 -0.5 -6
t-0.5 -6v-13q-1 -7 -1 -15.5v-13.5q0 -37 22 -65q25 -18 64 -18q18 0 33 1.5t27 3.5q94 12 201.5 48.5t228.5 92.5l15 6l6 2h-1l34 16zM926 1058q0 34 -32 77q-38 30 -72 30q-23 0 -43 -9.5t-34 -23.5h1q-13 -18 -20.5 -36t-7.5 -38q0 -41 35 -76q22 -27 69 -27q45 0 76 31
q28 28 28 72z" />
    <glyph glyph-name="Charu_Chandan.149" horiz-adv-x="1291" 
d="M978 777v-1q-28 23 -66.5 39t-84.5 21q-15 3 -29.5 4t-31.5 1q-90 0 -215 -42t-268 -113v-630q35 -5 57.5 -5.5t44.5 -0.5h8q40 0 88 5.5t98 16t100.5 25.5t94.5 34q106 44 184 122.5t121 179.5q16 43 16 88q0 20 -2.5 41t-9.5 44q-13 51 -36.5 90t-53.5 66zM283 1434
v-653q152 69 269.5 102.5t208.5 33.5q20 0 46 -2t48 -6q57 -13 109.5 -38t91.5 -65q12 -12 26.5 -31t29 -42.5t27 -50t21.5 -54.5q8 -30 10 -56.5t2 -51.5q0 -30 -5 -61t-13 -56q-48 -120 -134.5 -206.5t-214.5 -137.5q-94 -41 -201 -64t-216 -23q-46 0 -90 4t-92 14v1444
h-272v78h1475v-78h-1126z" />
    <glyph glyph-name="Charu_Chandan.150" horiz-adv-x="836" 
d="M978 777v-1q-28 23 -66.5 39t-84.5 21q-15 3 -29.5 4t-31.5 1q-90 0 -215 -42t-268 -113v-630q35 -5 57.5 -5.5t44.5 -0.5h8q40 0 88 5.5t98 16t100.5 25.5t94.5 34q106 44 184 122.5t121 179.5q16 43 16 88q0 20 -2.5 41t-9.5 44q-13 51 -36.5 90t-53.5 66zM283 1434
v-653q152 69 269.5 102.5t208.5 33.5q20 0 46 -2t48 -6q57 -13 109.5 -38t91.5 -65q12 -12 26.5 -31t29 -42.5t27 -50t21.5 -54.5q8 -30 10 -56.5t2 -51.5q0 -30 -5 -61t-13 -56q-48 -120 -134.5 -206.5t-214.5 -137.5q-94 -41 -201 -64t-216 -23q-46 0 -90 4t-92 14v1444
h-272v78h1475v-78h-1126z" />
    <glyph glyph-name="Charu_Chandan.151" horiz-adv-x="1398" 
d="M280 1434v-393q149 60 259 90t192 30q20 0 41.5 -1.5t39.5 -4.5q46 -10 92.5 -29t77.5 -43q69 -59 107 -126.5t38 -140.5q0 -36 -8 -73t-22 -75q-7 -15 -20 -41t-39 -64l28 -11l12 -5q24 -13 48 -25t39 -25v1q42 -36 61.5 -81.5t15.5 -91.5q-8 -58 -55.5 -105.5
t-140.5 -89.5q-18 -7 -67 -22t-146 -40q162 -86 302.5 -145t271.5 -95q-5 -22 -6 -25.5t-2 -4.5l-1 -2l-8 -27l-4 -13q-174 49 -344.5 124t-317.5 167q-2 0 -3.5 -0.5t-3.5 -0.5l-8 32l-2 10q-2 4 -3.5 10t-6.5 20q43 8 88 19t88.5 22.5t83.5 24t74 23.5q57 29 91.5 63
t42.5 67q-1 23 -13 51.5t-36 50.5v-1q-54 43 -134 57q-66 -63 -131.5 -104.5t-129.5 -67.5q-91 -32 -201.5 -51t-223.5 -19h-58q-2 0 -3.5 0.5t-3.5 0.5q-5 1 -9 1.5t-6 0.5h-14v1178h-273v78h1582v-78h-1231zM930 1030q-26 20 -61.5 34t-81.5 19q-11 2 -26 2.5t-26 0.5
q-87 0 -199.5 -34t-255.5 -100v-623q65 3 121 8t102 12q47 8 102 20t98 29v-1l7 7q112 38 190 113.5t123 179.5q12 26 17.5 55.5t5.5 58.5q0 57 -31 113t-84 105z" />
    <glyph glyph-name="Charu_Chandan.152" horiz-adv-x="768" 
d="M1594 1077l-34 7l-23 5l-18 3l-31 6l-18 4l-18 4q-85 16 -126 29l-126 34l-14 4l-44 13h1l-16 6l-22 10q-4 1 -8 3l-2 1q-1 1 -3.5 1.5t-4.5 1.5l-10 3q-4 0 -5 1l-28 11l-7 3q-8 3 -14 5l-12 4q-11 4 -20 7.5t-13 7.5v-1l-6 4l-11 5l-6 6v-1q-29 14 -63.5 32.5
t-58.5 34.5q-11 6 -32.5 20.5t-47.5 34.5q-61 -51 -113.5 -104.5t-84.5 -101.5q-18 -33 -28.5 -64.5t-10.5 -60.5v-26q17 -4 27 -4.5t18 -0.5q11 0 22 1t20 3q29 4 65.5 13.5t77.5 23t84.5 30t86.5 34.5v-1l8 7l9 4q1 1 2 1q8 3 19 8t20 10q0 -4 0.5 -6t0.5 -4t1 -3
q0 -2 0.5 -4t0.5 -4l3 -33q2 -26 3.5 -55.5t1.5 -52.5q0 -78 -13 -159.5t-36 -166.5q-17 -53 -46.5 -93.5t-78.5 -69.5q-45 -26 -81.5 -36.5t-73.5 -10.5q-54 0 -118.5 22.5t-138.5 65.5q-89 49 -180 152t-180 255l69 39q78 -141 163 -236t169 -144q122 -73 216 -73
q20 0 37.5 2t34.5 10q44 20 79 56t52 84q18 67 31 156.5t17 188.5q-190 -69 -296 -88q-14 -3 -29 -4.5t-27 -1.5q-70 0 -103 44q-9 14 -14.5 32t-5.5 40q0 31 16.5 74t42.5 91q22 35 69.5 87.5t115.5 121.5h-768v78h1589v-78h-673l66 -41q4 -4 8 -6l6 -4q4 -4 8 -6l4 -4t2 0
l-1 2l23 -13q32 -21 85 -43.5t113 -42.5l20 -7q54 -17 105.5 -33t89.5 -27h-1q22 -5 54.5 -11.5l70 -14t77.5 -14.5t79 -14z" />
    <glyph glyph-name="Charu_Chandan.153" horiz-adv-x="1756" 
d="M1585 1512h260v-78h-260v-1462h-82v515q-78 47 -164.5 84t-179.5 58v-657h-81v10q-158 35 -313.5 101.5t-321.5 167.5q-116 71 -199.5 138t-148.5 137l615 908h-782v78h1231v-801q84 -14 167.5 -44.5t176.5 -77.5v989h82v-66zM814 1434l-300 -447l-306 -455
q63 -57 134 -108t149 -98q145 -92 290 -154.5t297 -102.5v1365h-264z" />
    <glyph glyph-name="Charu_Chandan.154" horiz-adv-x="1893" 
d="M1556 1087q-29 0 -59 -10.5t-58 -28.5q-28 -25 -49 -53v-529l5 -6q11 -14 21.5 -26t16.5 -18q28 -18 60.5 -30t62.5 -12q70 0 115 48q46 45 46 115q0 64 -48 112v-1q-17 15 -39.5 27t-52.5 20v69q32 8 52.5 19.5t40.5 28.5v-1q47 44 47 115q0 68 -46 114q-47 47 -115 47z
M1390 1113q47 26 91 41t81 14q97 0 167 -70q66 -68 66 -165q0 -49 -28 -100t-80 -101q52 -51 80 -101.5t28 -97.5q0 -48 -18 -91t-50 -75q-69 -70 -165 -70q-68 0 -172 55v-380h-95v14q-39 44 -82.5 80t-87.5 64t-86.5 47.5t-79.5 30.5h1q-18 4 -41.5 5t-49.5 1
q-40 0 -92 -3.5t-109 -11.5q-24 -3 -51 -6t-53 -5t-49.5 -3.5t-40.5 -1.5q-48 7 -94.5 23t-89 41.5t-78.5 59.5t-63 77q-39 62 -62 136t-34 164h22.5t20.5 1h4q8 1 17.5 1.5t21.5 0.5q7 -53 19 -103.5t29 -88.5q42 -98 119.5 -157t174.5 -70q15 0 36 1t44.5 2.5t48 3.5
t46.5 4q65 8 119 13t99 5q23 0 49 -2.5t49 -7.5q37 -7 77 -21.5t79 -31.5q32 -14 77 -46.5t101 -83.5v1041q-42 49 -89 90t-95 72.5t-96.5 53t-94.5 31.5l-40 3q-9 1 -18.5 1.5t-20.5 0.5q-26 0 -53.5 -4t-56.5 -13q-92 -34 -154.5 -95.5t-93.5 -143.5q-9 -30 -14 -63
t-5 -63q0 -12 1 -26.5t3 -28.5v1q19 -62 48 -105t71 -66q56 -32 119 -32q20 0 43 4t51 15q104 38 104 128q0 26 -9 61q-11 20 -27.5 35t-32.5 19q-11 3 -32 3q-11 0 -25.5 -2.5t-36.5 -9.5l-2 7v-1l-12 15q-1 2 -1 4.5v3.5l-6 2l-18 30h1l-8 9q34 15 60 21.5t49 6.5
q20 0 50 -6q1 0 2.5 -0.5t2.5 -0.5q61 -19 113 -105q5 -21 8.5 -41t3.5 -39q0 -20 -4 -40.5t-9 -43.5q-16 -51 -50 -83.5t-85 -55.5l-3 -1h1q-25 -9 -54.5 -13t-64.5 -4q-47 0 -90.5 12t-78.5 30q-55 33 -98 92.5t-63 140.5q-2 15 -3 32.5t-1 36.5q0 48 10.5 97.5t28.5 95.5
q20 40 49 77t65 69.5t77.5 58t86.5 43.5q34 9 68.5 14.5t63.5 5.5q20 0 47 -2.5t56 -7.5q121 -24 235.5 -97.5t210.5 -202.5v-58z" />
    <glyph glyph-name="Charu_Chandan.155" horiz-adv-x="1399" 
d="M864 638q7 26 -8 54l70 45q12 -20 16 -38.5t4 -39.5q0 -12 -8 -44q0 -1 -0.5 -1t-0.5 -1v-2q-26 -90 -112 -117q-38 -12 -70 -12q-31 0 -72 11q-73 27 -117.5 75t-58.5 121v-1q-5 17 -6.5 32.5t-1.5 31.5q0 25 4 47t11 44q8 18 20.5 40t29.5 42q50 62 122 101.5t154 52.5
h4q2 0 3.5 0.5t4.5 0.5q2 1 5 1h6h18q69 0 137.5 -26.5t128.5 -77.5q50 -43 84.5 -100.5t48.5 -122.5l1 -4q3 -20 5 -39t2 -33q0 -38 -8 -77t-22 -75q-26 -58 -62.5 -112t-82.5 -100.5t-100.5 -83.5t-116.5 -61q-111 -46 -223.5 -70t-223.5 -24q-67 0 -120.5 6.5t-96.5 18.5
q-5 1 -8 2.5t-7 2.5q0 -4 -1 -6l-11 11v1324h-276v78h1176q14 60 21.5 104t7.5 79q0 49 -13 99.5t-36 95.5q-48 68 -133 119t-191 73q-29 5 -64 7t-64 3q-125 -11 -251.5 -59t-242.5 -133q-7 8 -13.5 14.5t-11.5 13.5q-12 18 -25 31q63 42 132 80t136 67q72 29 150.5 45
t160.5 14q26 0 51.5 -3t55.5 -9q131 -24 228 -83.5t151 -146.5q26 -51 41.5 -107.5t15.5 -117.5q0 -29 -5 -73t-22 -113h342v-78h-1240v-1266q97 -15 170 -15q95 0 203 25t208 66q50 23 97.5 55.5t88.5 72.5t74.5 86.5t55.5 97.5q14 29 19.5 60.5t5.5 60.5q0 11 -1 24.5
t-3 22.5q-9 57 -37.5 107.5t-70.5 87.5q-47 38 -101 60t-108 22h-12h-3.5t-4.5 -1q-1 0 -2 -0.5t-2 -0.5h-13q-66 -10 -124 -43.5t-99 -79.5q-23 -29 -36 -62t-13 -65q0 -11 1 -21t4 -21q18 -106 135 -143h-1q20 -5 43 -5q72 0 104 79z" />
    <glyph glyph-name="Charu_Chandan.156" horiz-adv-x="1275" 
d="M884 1038q-58 88 -145.5 174t-210.5 177q87 -231 87 -377q0 -39 -5.5 -79t-15.5 -73q-15 -42 -38.5 -83t-56 -77.5t-72 -67.5t-85.5 -54l-128 -52q3 -95 31 -162q11 -20 26 -45.5t33 -45.5q18 -19 41.5 -37t48 -33.5t50 -26.5t48.5 -17q24 -5 49 -7t48 -2q69 0 138.5 25
t129.5 64q46 38 87.5 94t68.5 122q17 42 24.5 85t7.5 85q0 93 -41 198t-117 214zM1364 1434h-763q55 -43 107.5 -89.5t98 -93t84 -91t65.5 -83.5q79 -113 122.5 -227t43.5 -221q0 -52 -11.5 -106t-29.5 -103q-30 -76 -75.5 -140t-102.5 -103q-69 -50 -149.5 -77.5
t-162.5 -27.5q-28 0 -55 2.5t-56 7.5q-69 14 -129.5 48t-105.5 88h1q-23 26 -42 55.5t-31 60.5q-17 42 -27.5 86t-10.5 95v17.5t1 17.5v8q0 1 0.5 1t0.5 2q1 3 1 8.5v10.5l175 72q159 79 207 231q9 33 14 66.5t5 72.5q0 87 -32 192.5t-90 219.5h-512v78h454
q-126 154 -126 294q0 58 20 121q17 54 50.5 101.5t79.5 89.5q51 46 120.5 75.5t151.5 45.5l7 -70v-8q-73 -11 -129 -36.5t-98 -63.5q-37 -35 -63.5 -75t-43.5 -85q-10 -26 -13 -50t-3 -47q0 -42 12 -83.5t34 -80.5q20 -35 50.5 -68t62.5 -60h893v-78z" />
    <glyph glyph-name="Charu_Chandan.157" horiz-adv-x="1637" 
d="M1236 1434l-19 -15q1 1 -4.5 -3t-8.5 -6l-20 -14q0 1 -8.5 -4.5t-12.5 -8.5q-44 -34 -88 -73.5t-84.5 -81.5t-76 -85t-61.5 -84q-32 -58 -50.5 -103.5t-18.5 -77.5q0 -15 4.5 -27.5t11.5 -23.5q6 -14 22.5 -18.5t39.5 -4.5q17 0 35 1.5t38 6.5q98 13 215.5 51.5
t258.5 101.5q41 21 51 28l5 -60q5 -37 7.5 -75.5t2.5 -71.5q0 -110 -20.5 -231.5t-52.5 -239.5q-32 -92 -94 -161.5t-150 -104.5q-35 -12 -70 -18.5t-73 -6.5q-80 0 -172.5 32t-191.5 89q-66 38 -140.5 105t-143.5 158q-70 91 -136.5 218.5t-133.5 295.5l30 15l11 7
q11 2 21 9l8 5q60 -163 123 -283t132 -211q72 -91 139.5 -155t130.5 -97q42 -24 85.5 -44t85 -34t80 -22t71.5 -8q63 0 116 21q31 15 60.5 37t55 50t45.5 60.5t33 67.5q33 107 50.5 225.5t17.5 230.5v76q-143 -56 -251.5 -90.5t-195.5 -47.5q-24 -5 -45 -7t-37 -2
q-44 0 -77 16t-54 42q-11 17 -18 40.5t-7 50.5q0 45 21.5 103t59.5 124q44 70 120.5 152.5t188.5 180.5h-1202v78h1864v-78h-523z" />
    <glyph glyph-name="Charu_Chandan.158" horiz-adv-x="1381" 
d="M923 741q12 -20 17.5 -40.5t5.5 -41.5q0 -12 -8 -44q0 -1 -0.5 -1t-0.5 -1v-2q-26 -90 -112 -117q-38 -12 -70 -12q-31 0 -72 11q-73 27 -117.5 75t-58.5 121v-1q-5 17 -6.5 32.5t-1.5 31.5q0 45 16.5 89t49.5 85q50 62 122 101t153 52h4q2 0 3.5 0.5t4.5 0.5q2 1 5 1h6
h18q69 0 137.5 -26.5t128.5 -77.5q50 -43 84.5 -100.5t48.5 -122.5l1 -4q3 -20 5 -39t2 -33q0 -38 -8 -77t-22 -75q-26 -58 -62.5 -112t-82.5 -100.5t-100.5 -83.5t-116.5 -61q-111 -46 -223.5 -70t-223.5 -24q-67 0 -120.5 6.5t-96.5 18.5q-5 1 -8 2.5t-7 2.5q0 -4 -1 -6
l-11 11v1324h-276v78h1597v-78h-1240v-1266q97 -15 170 -15q95 0 203 25t208 66q50 23 97.5 55.5t88.5 72.5t74.5 86.5t55.5 97.5q14 29 19.5 60.5t5.5 60.5q0 11 -1 24.5t-3 22.5q-9 57 -37.5 107.5t-70.5 87.5q-47 38 -101 60t-108 22h-12h-3.5t-4.5 -1q-1 0 -2 -0.5
t-2 -0.5h-13q-66 -10 -124 -43.5t-99 -79.5q-23 -29 -36 -62t-13 -65q0 -11 1 -21t4 -21q18 -106 135 -143h-1q20 -5 43 -5q35 0 62.5 23t44.5 64q5 21 -13 51z" />
    <glyph glyph-name="Charu_Chandan.159" horiz-adv-x="824" 
d="M1195 1135q-8 -9 -14 -14.5t-8 -6.5l-4 -4q-2 -1 -6.5 -4.5t-6.5 -5.5l-24 -16q-63 84 -120.5 140.5t-115.5 100.5q-74 49 -149.5 74.5t-156.5 25.5q-68 0 -135 -16h1l-6 -4q-20 -6 -25 -11l-19 -8q-17 -7 -29.5 -12t-17.5 -9q-62 -35 -106 -77.5t-70 -85.5
q-19 -36 -29 -77.5t-10 -84.5q0 -32 5.5 -68.5t16.5 -74.5q22 -78 80.5 -135t148.5 -89q14 -5 32 -7.5t36 -2.5q15 0 32 1.5t34 3.5q43 8 80 24t63 39q32 26 49.5 60t17.5 69q0 29 -4 42q-10 34 -29 64.5t-46 51.5q-14 5 -25.5 7.5t-21.5 2.5q-9 0 -24.5 -4t-44.5 -12
q-3 4 -3 8l-2 4q-1 2 -2 3l-4 9l-8 13l-3 6l-12 23l-4 12q68 26 105 26q24 0 45 -7t40 -18q97 -47 118 -161v1q8 -21 10 -39.5t2 -32.5q0 -25 -7.5 -51t-20.5 -51t-30.5 -48.5t-36.5 -43.5q-49 -41 -116.5 -63.5t-148.5 -22.5q-28 0 -53 3.5t-45 8.5q-109 38 -183 109.5
t-100 172.5v-1q-13 45 -20 86.5t-7 80.5q0 109 52 204q51 93 134 155.5t196 91.5h-1q42 11 79.5 16t73.5 5q55 0 118.5 -19t128 -51.5t126 -75t113.5 -89.5z" />
    <glyph glyph-name="Charu_Chandan.160" unicode="&#x9ce;" horiz-adv-x="1077" 
d="M902 1179q6 -23 10 -47.5t4 -47.5q0 -80 -40 -148q-63 -91 -158 -106q-8 -1 -14.5 -1h-12.5q-30 0 -58 7t-55 21q-37 27 -57.5 60.5t-24.5 67.5q-2 32 9.5 69.5t38.5 76.5q5 -6 42 -38l23 -22q-15 -23 -22.5 -44t-5 -41t12 -31.5t26.5 -24.5v1q31 -19 75 -19q67 0 112 77
q22 48 22.5 69.5t0.5 32.5v4q0 15 -1 26t-9 31q-14 45 -50.5 83t-93.5 70q-55 22 -114 22h-28q-5 0 -8 -0.5t-7 -1.5q-74 -12 -136 -57t-108 -117q-40 -66 -40 -133q0 -17 2 -33t4 -27q21 -78 92 -165t185 -166q23 -14 48.5 -33t51.5 -41.5t51 -46.5t46 -49q54 -66 84 -139
t30 -145q0 -22 -2 -44t-10 -61q-2 1 -4.5 2t-4.5 0l-32 10q-2 0 -3 2v-1l-9 4q-3 0 -5 2l-18 7q4 21 5.5 40.5t1.5 35.5q0 133 -114 259q-42 42 -83 74t-84 55q-136 88 -211.5 186.5t-95.5 206.5q-4 20 -6 37t-2 34q0 45 13 87.5t36 78.5q25 39 56.5 73t66.5 61.5t72 47
t75 29.5q26 6 51 10t47 4q30 0 66.5 -8.5t70.5 -18.5q158 -86 196 -206v-1z" />
    <glyph glyph-name="Charu_Chandan.161" horiz-adv-x="1317" 
d="M1130 1512h263v-78h-260v-1462h-85v10q-158 35 -313.5 104t-316.5 165q-107 63 -195.5 134t-150.5 136l477 506h-1q9 32 14 59.5t5 56.5q0 38 -10 77.5t-30 74.5q-46 100 -163 114q-3 1 -12 1q-3 1 -8.5 1h-9.5q-35 0 -67 -11t-58 -31q-18 -18 -34 -49.5t-21 -59.5
q2 -23 10.5 -46t22.5 -40h-1q19 -19 45 -19q16 0 21 4q37 14 47.5 27t10.5 31q8 2 17 3t21 2l43 3q2 -4 2 -7q0 -4 4 -14l2 -8l-7 1q-8 -31 -25.5 -55.5t-40.5 -41t-49 -25t-51 -8.5q-27 0 -53.5 13.5t-47.5 38.5h1q-27 28 -39.5 68.5t-14.5 74.5q8 48 30 96.5t57 81.5
q35 26 79.5 40.5t94.5 14.5q13 0 24 -0.5t20 -1.5q77 -13 134.5 -52.5t92.5 -108.5q23 -48 35.5 -93t12.5 -94q0 -77 -32 -162l-5 -9q-1 -2 -3 -4l-3 -3v1l-8 -10l-410 -437q68 -57 140 -108t131 -89q63 -38 136.5 -76t150 -72t153.5 -62t146 -46v1510h82v-66z" />
    <glyph glyph-name="Charu_Chandan.162" horiz-adv-x="842" 
d="M956 587v413q-85 -105 -169.5 -182t-170.5 -130q-98 -60 -204.5 -96t-213.5 -47v889h-264v78h1431v-78h-1079v-796q141 42 258.5 109.5t220.5 171.5q66 66 118 134t90 134l9 -4q16 -7 34 -15t34 -14l-1 -4l-4 -2l-4 -3v-558h-85z" />
    <glyph glyph-name="Charu_Chandan.163" horiz-adv-x="1329" 
d="M381 1497q13 0 26 6t24 17h-1q23 29 23 56q0 13 -5 30q0 1 -0.5 1.5t-0.5 2.5q-8 15 -26.5 28.5t-45.5 26.5h1q-4 1 -9 1.5t-13 0.5h-21q-20 0 -43.5 -7t-40.5 -15q-29 -23 -53.5 -57.5t-33.5 -70.5q0 -2 -0.5 -3.5t-0.5 -3.5v-7q0 -4 -0.5 -7.5t-0.5 -6.5
q-1 -6 -1.5 -11t-0.5 -11q0 -42 18 -78.5t52 -71.5q48 -47 104.5 -71t119.5 -24q17 0 40.5 2.5t47.5 9.5q45 68 94 138.5t94 139.5h692v-78h-292v-1462h-81v10q-160 36 -314 103.5t-318 164.5q-110 69 -193.5 134t-151.5 139l408 615q-94 7 -170 35t-136 82q-97 90 -97 210
q0 14 1 30.5t7 35.5v-1q5 28 17 54.5t28 50t34.5 43t36.5 33.5q26 20 60 29t72 9q31 0 79 -9q37 -14 68.5 -40.5t45.5 -64.5q5 -15 9 -30.5t4 -36.5q0 -23 -9.5 -46t-33.5 -50q-25 -26 -57 -40.5t-63 -15.5q-3 0 -5 2v-1l-12 4zM1047 1434h-271l-192 -285l-115 -176
q-22 -34 -47.5 -72.5t-52 -78.5t-52.5 -79t-50 -73l-93 -138q28 -25 64.5 -53.5t74.5 -56t76 -53.5t71 -46q64 -38 138.5 -77t151.5 -74.5t153 -64t144 -46.5v1373z" />
    <glyph glyph-name="Charu_Chandan.164" horiz-adv-x="731" 
d="M936 634q-53 54 -110 102t-116 89q-113 73 -232 73q-28 0 -53 -3t-50 -8q-8 -1 -23 -7t-34 -17l-13 -6l-9 -6q-44 -29 -79.5 -61t-56.5 -66q-15 -28 -23.5 -60.5t-8.5 -67.5q0 -23 4 -49.5t15 -56.5q13 -69 57.5 -110t117.5 -67q14 -7 49 -7q12 0 28.5 1.5t30.5 3.5
q30 6 59 18.5t52 29.5q21 19 34.5 44t13.5 51v5q0 6 -0.5 14t-2.5 17v-1q-7 24 -18 44t-26 34v-1q-16 12 -23.5 14t-18.5 2q-10 0 -23.5 -2.5t-27.5 -4.5l-8 14q-2 3 -4.5 7.5t-4.5 6.5h1q-3 1 -3 6q-4 6 -8 14l-7 14h1q-2 2 -3.5 5.5t-2.5 5.5q30 12 50.5 16t36.5 4
q34 0 78 -25q33 -20 55 -57.5t33 -83.5q6 -29 6 -52q0 -87 -75 -153v1q-82 -73 -217 -73q-23 0 -42.5 3t-39.5 8q-51 18 -98 53t-79 77q-16 23 -28.5 49.5t-19.5 49.5q-9 34 -15.5 67.5t-6.5 64.5q0 43 12 85.5t31 79.5q88 157 264 202q66 15 123 15q115 0 246.5 -68
t285.5 -210zM975 1434h-1083v78h1187z" />
    <glyph glyph-name="Charu_Chandan.165" horiz-adv-x="986" 
d="M1512 1434h-259v-891h-83v307q-14 37 -32.5 80t-35.5 79q-113 -44 -216.5 -131.5t-191.5 -203.5q-42 -63 -80 -130.5t-68 -136.5l-40 15l-39 15q20 45 44 90.5t51 96.5v33q0 184 -81 268q-24 26 -59 39t-77 15q-61 -7 -123 -23t-118 -42l-12 -6l-39 -20l-20 -9
q2 11 2.5 21.5t2.5 18.5l4 34q14 96 51.5 194.5t95.5 178.5q54 78 132.5 128t169.5 66q17 3 34 3.5t34 0.5q86 0 180.5 -40t181.5 -106q57 -47 121 -126.5t128 -188.5v516h83v-67h259v-78zM541 979q36 -37 59.5 -94t40.5 -141q97 125 200.5 208.5t218.5 131.5
q-51 80 -98.5 137.5t-89.5 89.5q-78 58 -160 94.5t-156 36.5q-12 0 -25.5 -1.5t-27.5 -3.5q-74 -15 -138.5 -56.5t-108.5 -101.5q-35 -51 -65.5 -115.5t-53.5 -142.5q63 23 115 33t93 9q121 -1 196 -84z" />
    <glyph glyph-name="Charu_Chandan.166" horiz-adv-x="1923" 
d="M1537 778l5 -3v1l31 -21l-68 -55q-21 7 -38 7q-28 0 -50 -9q-23 -12 -40.5 -37t-25.5 -55q-2 -7 -2.5 -16.5t-0.5 -17.5q0 -54 53 -105q55 -49 107 -49q18 0 30 3h-1q51 14 90.5 39t62.5 66q19 35 29 75t10 82q0 29 -3.5 59t-17.5 72q-34 130 -168 219.5t-381 139.5
v-1201h-85v15q-99 28 -190.5 58.5t-172.5 63t-150.5 65.5t-123.5 67q-110 70 -194.5 135t-153.5 140l407 520q-54 100 -128.5 180t-155.5 134q-46 28 -92 49.5t-82 34.5h-160v78h2123v-78h-1749q66 -51 114 -95.5t81 -84.5q45 -55 82.5 -113t66.5 -117l-396 -501
q74 -67 142.5 -117.5t134.5 -94.5q103 -60 249.5 -118t347.5 -117v1193q43 -6 89.5 -14.5t91.5 -18.5t85.5 -21.5t73.5 -23.5q73 -30 135 -68t110 -84t81 -98.5t48 -110.5v1q12 -42 18.5 -78.5t6.5 -72.5q0 -23 -3.5 -48t-10 -50.5t-15.5 -49t-19 -42.5q-32 -53 -86.5 -92
t-117.5 -58q-10 -2 -20 -3t-21 -1q-42 0 -89 20t-82 46q-18 19 -37.5 44.5t-25.5 45.5q-9 25 -14.5 48t-5.5 43q0 12 6 41q20 106 112 151q45 16 82 16q16 0 31 -2t29 -5l10 -5z" />
    <glyph glyph-name="Charu_Chandan.167" horiz-adv-x="1363" 
d="M217 534q76 -70 144.5 -119.5t134.5 -91.5q143 -87 292.5 -151.5t295.5 -104.5v1367h-261q-44 -63 -88 -129t-88 -129q-48 -72 -102 -151.5t-108.5 -160.5t-108.5 -160.5t-102 -151.5zM1470 1434h-304v-1462h-82v11q-155 35 -311 102t-322 167q-116 71 -199.5 137
t-144.5 136l610 909h-791v78h1544v-78z" />
    <glyph glyph-name="Charu_Chandan.168" horiz-adv-x="1670" 
d="M-67 1512h1820v-78h-1820v78zM976 950q10 -2 19 -3t22 0q35 6 46 38v-1q4 15 5 27t1 22q0 57 -56 92q-44 29 -87 29q-16 0 -34 -3q-51 -11 -89.5 -41.5t-58.5 -81.5q-9 -26 -13 -54t-2 -54q3 -45 24 -81.5t52 -62.5q35 -26 78 -39.5t93 -13.5q17 0 35.5 1t38.5 4
q196 42 381 222l49 48l20 -68q14 -53 20.5 -104.5t6.5 -106.5q0 -86 -16.5 -170.5t-48.5 -178.5q-8 -26 -24 -56.5t-38 -60.5q-43 -54 -107 -92.5t-139 -59.5q-51 -13 -111 -13q-96 0 -188 30.5t-179 85.5q-47 32 -104 84.5t-116 117.5q-53 60 -103.5 130t-96 147t-85 158.5
t-71.5 164.5q27 10 51 18l28 9q63 -168 150 -312t194 -265h-1q54 -57 104 -104.5t97 -77.5q64 -42 130.5 -66.5t131.5 -32.5q30 -3 59 -3q23 0 47.5 2.5t44.5 6.5h-1q58 14 110.5 48.5t89.5 76.5q20 26 32.5 48.5t17.5 45.5q29 81 42.5 159t13.5 156q0 22 -1 52.5t-6 72.5
q-94 -77 -190.5 -124.5t-182.5 -68.5q-23 -4 -45.5 -6t-41.5 -2q-131 0 -218 71q-22 16 -40 39t-32 50t-23 56.5t-13 58.5q-1 8 -1.5 18t-0.5 17q0 76 35 146q30 55 80.5 90.5t118.5 47.5q11 2 22.5 3t20.5 1q31 0 66 -11t69 -30q42 -28 72 -76q22 -41 22 -87q0 -18 -2 -37
t-9 -38q-3 -11 -8.5 -20.5t-12.5 -18.5q-22 -23 -46.5 -36.5t-53.5 -15.5q-11 -2 -24 -0.5t-28 3.5z" />
    <glyph glyph-name="Charu_Chandan.169" horiz-adv-x="1519" 
d="M973 846q68 7 119 35t75 73q12 23 18.5 51t6.5 63q0 29 -5.5 64t-18.5 80l-5 16v-1q-16 48 -35.5 99.5t-48.5 107.5h-767q79 -86 136 -167t83 -147q65 -23 123.5 -65t106.5 -93q53 -50 107 -82t100 -34h5zM566 706q-9 -32 -20.5 -53.5t-29.5 -40.5q-53 -53 -168 -53
q-19 0 -34 2t-28 4q-62 21 -106 65.5t-64 103.5q-14 54 -14 97q0 33 7 62.5t24 61.5q29 55 77.5 92.5t113.5 57.5q17 5 42.5 11t65.5 11q-55 97 -128.5 173t-158.5 134h-198v78h1701v-78h-464q51 -122 76.5 -211t25.5 -155q0 -49 -8.5 -87.5t-24.5 -73.5q-16 -32 -42 -60.5
t-60 -50.5q-65 -42 -154 -50q-60 3 -124.5 34t-126.5 79q-43 37 -75 62.5t-53 42.5l-29 23q-40 26 -79.5 39.5t-73.5 13.5q-21 0 -39.5 -3t-44.5 -12q-50 -16 -86.5 -44.5t-59.5 -66.5q-9 -17 -15 -38.5t-6 -47.5q0 -27 11 -71v1q13 -41 41.5 -69t73.5 -42q17 -7 37 -7
q24 0 49 5q34 3 56 25q8 8 14.5 20t14.5 28z" />
    <glyph glyph-name="Charu_Chandan.170" horiz-adv-x="1372" 
d="M1102 1434h-822q130 -109 210.5 -210.5t128.5 -204.5l-398 -492q66 -59 141 -113t144 -96q49 -29 114.5 -61t143 -63.5t163 -62t175.5 -56.5v1359zM1102 -17q-106 29 -200.5 61t-163.5 61q-76 31 -146 67t-131 72q-113 70 -198.5 135t-151.5 139l411 512
q-42 70 -93.5 133.5t-110.5 116t-123.5 92t-131.5 62.5h-135v78h1549v-78h-290v-1462h-85v11z" />
    <glyph glyph-name="Charu_Chandan.171" 
d="M-28 2027l-360 -369l-57 58l361 366z" />
    <glyph glyph-name="Charu_Chandan.172" horiz-adv-x="1666" 
d="M1743 1434h-264v-1462h-83v859q-29 47 -58.5 85.5t-59 66t-58 42.5t-53.5 15q-34 -1 -72.5 -39.5t-77.5 -109.5q11 -21 21 -41t17 -40l-76 -21q-23 55 -51.5 95.5t-63.5 74.5q-57 57 -128 90t-149 33q-30 0 -68 -5.5t-74 -15.5q-20 -11 -42.5 -25.5t-45 -32t-44 -37
t-39.5 -39.5q-40 -53 -62.5 -115.5t-22.5 -135.5q0 -41 6 -81t20 -85q29 -69 85.5 -118t129.5 -66q20 -3 38 -5t38 -2q43 0 87.5 29.5t89.5 85.5q19 42 19 83q0 8 -0.5 15t-1.5 15v4q-8 53 -55 94q-38 11 -65 11q-8 0 -18 -0.5t-21 -4.5l-52 52l-9 10q26 17 51.5 23.5
t49.5 7.5q32 2 65.5 -9t62.5 -36q64 -53 73 -142q2 -8 2.5 -19t0.5 -22q0 -51 -17.5 -97.5t-52.5 -87.5q-34 -47 -89.5 -72t-133.5 -25q-19 0 -39 2t-41 7q-63 16 -119.5 51t-94.5 83q-47 65 -65 110q-14 45 -21 93.5t-7 96.5q0 68 19.5 133t54.5 125q45 71 102 122.5
t137 83.5q51 14 93.5 20.5t87.5 6.5q185 0 368 -195q54 79 100.5 114t95.5 37q51 -1 110 -34t123 -96v440h-1485v78h1832v-78z" />
    <glyph glyph-name="Charu_Chandan.173" horiz-adv-x="1020" 
d="M854 1021q-13 63 -74 93l43 71q43 -19 66.5 -50.5t34.5 -77.5v1q5 -17 7 -30.5t2 -23.5q0 -19 -5 -39t-13 -40q-22 -52 -62 -92q-36 -34 -77.5 -51.5t-89.5 -17.5q-21 0 -36 5h1q-90 22 -178 124q-45 -45 -94 -80t-94 -46h1q-5 -3 -11 -3h-19q-43 0 -88 19.5t-81 48.5
q-14 17 -29.5 40.5t-29.5 50.5q-8 20 -12.5 39.5t-4.5 41.5q0 12 1.5 23.5t8.5 26.5v-1q8 48 36 80t76 54l20 -35l20 -34q-9 -3 -12 -6q-27 -11 -45.5 -35t-25.5 -54q0 -14 2 -35.5t7 -35.5q6 -17 14 -32t21 -26q35 -29 70.5 -41.5t67.5 -7.5q48 11 83 36.5t54 55.5
q14 29 21.5 57.5t7.5 54.5t-6 56t-20 65q-51 127 -153 191.5t-245 74.5h-16v76q88 -4 165.5 -23t131.5 -46q48 -30 95.5 -82.5t83.5 -121.5q129 181 282 181h9q88 -11 182.5 -71t179.5 -172v401h83v-66h286v-78h-286v-794h-83v342q-14 46 -41 98t-57 97q-54 74 -122.5 119.5
t-143.5 45.5q-79 0 -137.5 -47t-93.5 -125q-5 -14 -9 -30t-7.5 -32.5t-5.5 -32t-2 -27.5q0 -26 8 -56t19 -57q18 -27 54.5 -51.5t84.5 -41.5q36 2 71 13.5t62 34.5v-1q60 56 47 132z" />
    <glyph glyph-name="Charu_Chandan.174" horiz-adv-x="802" 
d="M849 881q-97 62 -202.5 123.5t-214.5 118.5l-25 -33l-45 -56l-16 -20l-15 -19q-20 -25 -43 -54t-43 -55q129 -106 278 -171t324 -95zM843 1434h-552q62 -66 104.5 -125.5t63.5 -113.5q27 -15 56 -31.5t56 -30.5l110 -59l162 -90v450zM856 539q-81 11 -158 29t-135 38
q-63 26 -117 51.5t-96 53.5q-51 34 -103.5 74t-105.5 87q-7 -6 -7 -4t8 13q3 4 7 7.5t4 6.5l12 15l12 15l24 30l18 23q36 47 79 101.5t78 102.5q-46 81 -103 147t-123 105h-239v78h1014v-974h-15q-4 0 -8 0.5t-11 0.5h-35z" />
    <glyph glyph-name="Charu_Chandan.175" horiz-adv-x="956" 
d="M1265 1434h-244v-778h-81v66q-86 88 -191 136.5t-220 58.5q-10 -38 -20 -64t-22 -39h1q-32 -45 -76 -66.5t-96 -28.5h-11q-43 0 -85.5 23t-80.5 64q-10 13 -18 30.5t-14 45.5v-1q-7 27 -7 45q0 15 2.5 30t7.5 29q11 29 34 56t58 48l8 -29q1 -5 1.5 -9t5.5 -11l3 -9
q3 -3 3 -7q0 -3 4 -10q-15 -13 -25.5 -27t-13.5 -25v-6q-4 -8 -5 -15t-1 -12q0 -20 3 -29q5 -19 10.5 -32.5t13.5 -23.5h-1q26 -29 53.5 -40.5t50.5 -6.5q32 7 60 21.5t46 34.5h-1q49 61 49 156q0 20 -1.5 43t-5.5 43q-24 107 -100.5 194.5t-191.5 144.5h-221v78h1319v-78z
M937 1434h-603q90 -78 138.5 -158t64.5 -169q2 -17 3 -44t2 -65q54 -5 100 -14.5t83 -23.5q35 -14 88.5 -42t123.5 -70v586z" />
    <glyph glyph-name="Charu_Chandan.176" horiz-adv-x="871" 
d="M-72 1512h1464v-78h-1464v78zM564 936q-5 0 -11.5 -0.5t-15.5 -3.5l-3 82q7 2 13 2h13h7q82 0 134 -71q19 -26 30.5 -57t11.5 -60q0 -24 -9 -54q-25 -85 -136 -135l-7 -1q-57 -17 -101 -17q-26 0 -56.5 6.5t-57.5 14.5q-66 25 -119.5 78t-81.5 133q-6 25 -8.5 46t-2.5 38
q0 34 7.5 71t19.5 71q30 71 89 129.5t144 94.5q38 13 80 20.5t90 7.5q22 0 48.5 -2t49.5 -7q43 -10 88.5 -28t88 -44t81 -59.5t68.5 -73.5q33 -51 50 -110.5t20 -127.5q1 -7 1 -14.5v-15.5q0 -82 -31 -157t-89 -147q-81 -88 -202 -144t-292 -82l-6 -28q98 -38 189.5 -74.5
t156.5 -64.5q37 -15 81 -34t89.5 -39.5t90.5 -41.5t84 -40l-35 -71q-143 65 -273.5 122.5t-252.5 108.5t-236 95t-223 83l10 34q2 10 6 21t6 21q60 -10 109 -14t98 -4q88 0 177.5 19t166.5 51q66 31 117.5 63t82.5 67h-1q100 115 100 260q0 14 -1 30.5t-3 30.5
q-7 42 -20.5 84t-30.5 71q-64 81 -144 129.5t-176 55.5q-3 1 -8.5 1h-11.5h-17q-42 0 -78 -4.5t-70 -18.5q-78 -32 -126.5 -86.5t-71.5 -120.5q-8 -23 -10.5 -45.5t-2.5 -42.5q0 -30 3 -51v1q59 -152 183 -180q14 -2 30 -3.5t34 -1.5q22 0 42.5 2.5t38.5 7.5q35 17 58 40
t33 49v-1q1 5 1.5 11t0.5 14q0 20 -7 38.5t-19 35.5q-26 37 -75 37z" />
    <glyph glyph-name="Charu_Chandan.177" horiz-adv-x="1637" 
d="M965 -169q49 0 79 -30t30 -81t-30 -81t-79 -30q-51 0 -81.5 30t-30.5 81q0 50 30.5 80.5t81.5 30.5zM1236 1434l-19 -15q1 1 -4.5 -3t-8.5 -6l-20 -14q0 1 -8.5 -4.5t-12.5 -8.5q-44 -34 -88 -73.5t-84.5 -81.5t-76 -85t-61.5 -84q-32 -58 -50.5 -103.5t-18.5 -77.5
q0 -15 4.5 -27.5t11.5 -23.5q6 -14 22.5 -18.5t39.5 -4.5q17 0 35 1.5t38 6.5q98 13 215.5 51.5t258.5 101.5q41 21 51 28l5 -60q5 -37 7.5 -75.5t2.5 -71.5q0 -110 -20.5 -231.5t-52.5 -239.5q-32 -92 -94 -161.5t-150 -104.5q-35 -12 -70 -18.5t-73 -6.5q-80 0 -172.5 32
t-191.5 89q-66 38 -140.5 105t-143.5 158q-70 91 -136.5 218.5t-133.5 295.5l30 15l11 7q11 2 21 9l8 5q60 -163 123 -283t132 -211q72 -91 139.5 -155t130.5 -97q42 -24 85.5 -44t85 -34t80 -22t71.5 -8q63 0 116 21q31 15 60.5 37t55 50t45.5 60.5t33 67.5
q33 107 50.5 225.5t17.5 230.5v76q-143 -56 -251.5 -90.5t-195.5 -47.5q-24 -5 -45 -7t-37 -2q-44 0 -77 16t-54 42q-11 17 -18 40.5t-7 50.5q0 45 21.5 103t59.5 124q44 70 120.5 152.5t188.5 180.5h-1202v78h1864v-78h-523z" />
    <glyph glyph-name="Charu_Chandan.178" horiz-adv-x="1395" 
d="M520 -111q49 0 79.5 -29.5t30.5 -80.5t-30.5 -82t-79.5 -31q-51 0 -81 31t-30 82q0 49 30 79.5t81 30.5zM865 640q6 22 -6 46l22 14l46 31q19 -38 19 -72q0 -5 -2.5 -18.5t-6.5 -31.5q-26 -89 -112 -115q-38 -12 -70 -12q-31 0 -72 11q-73 27 -118 77t-60 128v-1
q-4 13 -5 26.5t-1 28.5q0 25 4 47t11 44q8 18 20.5 40t29.5 42q50 62 122 101.5t154 52.5h4q2 0 3.5 0.5t4.5 0.5q2 1 5 1h6h18q69 0 137.5 -26.5t128.5 -77.5q50 -43 84.5 -100.5t48.5 -122.5l1 -4q3 -20 5 -39t2 -33q0 -38 -8 -77t-22 -75q-26 -58 -62.5 -112
t-82.5 -100.5t-100.5 -83.5t-116.5 -61q-111 -46 -223.5 -70t-223.5 -24q-67 0 -120.5 6.5t-96.5 18.5q-5 1 -8 2.5t-7 2.5q0 -4 -1 -6l-11 11v1324h-276v78h1597v-78h-1240v-1266q97 -15 170 -15q95 0 203 25t208 66q50 23 97.5 55.5t88.5 72.5t74.5 86.5t55.5 97.5
q14 29 19.5 60.5t5.5 60.5q0 11 -1 24.5t-3 22.5q-9 57 -37.5 107.5t-70.5 87.5q-47 38 -101 60t-108 22q-7 0 -14 -0.5t-12 -1.5h-11q-66 -11 -124 -43.5t-100 -81.5q-23 -29 -35.5 -61.5t-12.5 -63.5q0 -11 1 -21t4 -21q18 -105 142 -145q10 -3 35 -3q72 0 104 79z" />
    <glyph glyph-name="Charu_Chandan.179" horiz-adv-x="1358" 
d="M415 5q50 0 80 -30.5t30 -80.5q0 -51 -30 -81.5t-80 -30.5q-51 0 -82 30.5t-31 81.5q0 50 31 80.5t82 30.5zM1102 1434h-822q130 -109 210.5 -210.5t128.5 -204.5l-398 -492q66 -59 141 -113t144 -96q49 -29 114.5 -61t143 -63.5t163 -62t175.5 -56.5v1359zM1102 -17
q-106 29 -200.5 61t-163.5 61q-76 31 -146 67t-131 72q-113 70 -198.5 135t-151.5 139l411 512q-42 70 -93.5 133.5t-110.5 116t-123.5 92t-131.5 62.5h-135v78h1549v-78h-290v-1462h-85v11z" />
    <glyph glyph-name="Charu_Chandan.180" 
d="M-28 2027l-360 -369l-57 58l361 366z" />
    <glyph glyph-name="Charu_Chandan.181" horiz-adv-x="1369" 
d="M1470 1434h-304v-1462h-82v11q-155 35 -311 102t-322 167q-116 71 -199.5 137t-144.5 136l610 909h-791v78h1544v-78zM217 534q76 -70 144.5 -119.5t134.5 -91.5q143 -87 292.5 -151.5t295.5 -104.5v1367h-261q-44 -63 -88 -129t-88 -129q-48 -72 -102 -151.5
t-108.5 -160.5t-108.5 -160.5t-102 -151.5zM175 258q77 -58 129 -94t90 -60q103 -63 234 -123.5t283 -114.5l-2.5 -5t-0.5 -2q0 -2 -2 -4h1l-8 -16l-3 -5l-6 -7h1l-3 -6q-1 -3 -5 -7h1l-12 -24q-149 52 -283 115t-243 129q-36 22 -93 60.5t-133 94.5z" />
    <glyph glyph-name="Charu_Chandan.182" horiz-adv-x="1408" 
d="M1198 1512h294v-78h-294v-1462h-82v8q-153 35 -308.5 103.5t-323.5 168.5q-100 63 -187 132t-155 141l579 484q3 19 4.5 44t1.5 48q-1 61 -26 132.5t-72 151.5q-16 -93 -45.5 -155.5t-67.5 -97.5q-91 -70 -205 -70h-7q-7 0 -12 1q-57 7 -103.5 36t-74.5 74
q-8 17 -13.5 38.5t-5.5 40.5q-1 18 1.5 36.5t10.5 38.5q9 21 23.5 40.5t33.5 34.5q19 14 40 22.5t45 9.5q39 1 69 -11t50 -32q20 -23 38 -80h-82q-6 10 -14 18.5t-19 21.5v-11q-9 5 -20.5 7t-23.5 3q-19 -5 -35 -15.5t-24 -24.5q-8 -19 -10.5 -34.5t-1.5 -23.5q0 -19 10 -34
q19 -36 46 -51.5t63 -17.5q45 -2 90.5 10.5t79.5 38.5v-1q82 75 78 206q0 25 -2 49.5t-5 54.5q4 0 5 1q2 0 3 0.5t2 0.5q2 0 1.5 0.5t1.5 0.5q6 2 8 2t4 2q5 0 6 1l15 5q1 3 5 3q3 0 10 4l15 -14l7 -6q90 -91 140 -198.5t50 -224.5q0 -55 -9 -112l-25 -25l-515 -426
q70 -57 139.5 -107t126.5 -88q143 -87 292 -151t298 -105v1508h82v-66z" />
    <glyph glyph-name="Charu_Chandan.183" horiz-adv-x="1936" 
d="M1560 660h2h-2zM2001 1434h-1749q66 -51 114 -95.5t81 -84.5q45 -55 82.5 -113t66.5 -117l-396 -501q74 -67 142.5 -117.5t134.5 -94.5q103 -60 249.5 -118t347.5 -117v1193q43 -6 89.5 -14.5t91.5 -18.5t85.5 -21.5t73.5 -23.5q73 -30 135 -68t110 -84t81 -98.5
t48 -110.5v1q12 -42 18.5 -78.5t6.5 -72.5q0 -23 -3.5 -48t-10 -50.5t-15.5 -49t-19 -42.5q-32 -53 -86.5 -92t-117.5 -58q-10 -2 -20 -3t-21 -1q-42 0 -89 20t-82 46q-18 19 -37.5 44.5t-25.5 45.5q-9 25 -14.5 48t-5.5 43q0 12 6 41q20 106 112 151q45 16 82 16
q27 0 62 -8l8 -4q30 -18 53.5 -46.5t30.5 -76.5l-18 1q-2 0 -5 0.5t-5 0.5q-8 1 -19 1.5t-13 0.5q-5 2 -11 2q-2 0 -2.5 0.5t-2.5 0.5q-8 0 -13 2q-5 14 -10.5 20.5t-13.5 12.5q0 1 -5 6v-1q-8 2 -17.5 3t-17.5 1q-28 0 -50 -9q-23 -11 -41 -34t-23 -52q-2 -4 -2 -6
q-2 -7 -2.5 -16.5t-0.5 -17.5q0 -54 53 -105q54 -51 107 -51q18 0 30 3h-1q51 14 90.5 39.5t62.5 67.5q19 35 29 75t10 82q0 29 -3.5 59t-17.5 72q-34 130 -168 219.5t-381 139.5v-1201h-85v15q-99 28 -190.5 58.5t-172.5 63t-150.5 65.5t-123.5 67q-110 70 -194.5 135
t-153.5 140l407 520q-54 100 -128.5 180t-155.5 134q-46 28 -92 49.5t-82 34.5h-160v78h2123v-78z" />
    <glyph glyph-name="Charu_Chandan.184" horiz-adv-x="956" 
d="M217 534q76 -70 144.5 -119.5t134.5 -91.5q143 -87 292.5 -151.5t295.5 -104.5v1367h-261q-44 -63 -88 -129t-88 -129q-48 -72 -102 -151.5t-108.5 -160.5t-108.5 -160.5t-102 -151.5zM1470 1434h-304v-1462h-82v11q-155 35 -311 102t-322 167q-116 71 -199.5 137
t-144.5 136l610 909h-791v78h1544v-78z" />
    <glyph glyph-name="Charu_Chandan.185" horiz-adv-x="981" 
d="M771 1434v-1462h-85v683q-48 66 -108 126.5t-118 101.5q-74 49 -152.5 75.5t-155.5 26.5q-32 0 -71.5 -6t-90.5 -25l-19 -8q-11 -4 -27.5 -12t-25.5 -13q-54 -34 -98.5 -74.5t-71.5 -88.5q-41 -71 -41 -168q0 -29 6.5 -68t15.5 -75q12 -36 34.5 -69t52.5 -60.5t66 -50
t76 -38.5q26 -10 67 -10q17 0 34.5 1t34.5 4q42 8 82 26t63 38q28 26 46.5 60.5t18.5 69.5q0 11 -0.5 22.5t-1.5 19.5q-8 38 -25 65.5t-46 45.5l-8 6v-1q-14 7 -22.5 8.5t-19.5 1.5t-28.5 -4.5t-38.5 -13.5l-19 29h1l-4 6l-5 14v-1l-5 7l-6 18q-2 0 -4.5 -0.5t-4.5 -0.5
l-1 4q36 15 61.5 22t51.5 7t51.5 -9t51.5 -26q34 -21 59.5 -63.5t37.5 -101.5q0 -5 2 -11q7 -27 7 -47q0 -112 -91 -193v1q-97 -86 -264 -86q-34 0 -59 3t-47 8q-105 35 -178.5 109t-104.5 175q-4 17 -8 38t-7.5 42.5t-5.5 42t-2 37.5q0 114 53 209q53 93 136.5 155.5
t189.5 92.5q39 10 80.5 15.5t73.5 6.5q137 -14 273.5 -82.5t258.5 -191.5v637h-1209v78h1596v-78h-302z" />
    <glyph glyph-name="Charu_Chandan.186" horiz-adv-x="1027" 
d="M825 1434v-1462h-86v683q-47 66 -104 125.5t-115 102.5q-73 50 -150 76t-158 26q-32 0 -63 -4.5t-65 -10.5l-4 -2h1q-11 -5 -23.5 -10.5t-24.5 -9.5q-23 -10 -36.5 -17t-21.5 -12q-55 -34 -99 -76t-70 -85q-20 -36 -30.5 -78.5t-10.5 -87.5q0 -31 6 -67t17 -78
q24 -73 82.5 -129.5t142.5 -85.5q17 -7 36 -8.5t40 -1.5q14 0 35.5 1t38.5 4q42 7 81 24.5t74 55.5q37 42 42 113v21v5t-1 5q-10 37 -31.5 74t-48.5 57q-8 4 -14 4q-5 1 -11 1h-8h-7q-11 0 -28.5 -4t-40.5 -13l-8 12q-5 9 -8.5 14.5t-6.5 12.5l-1 22h-8l-4 15q37 18 63 23.5
t45 5.5q22 0 44 -6t41 -16q40 -27 68.5 -71.5t42.5 -104.5l1 -3q0 -2 0.5 -4.5t0.5 -4.5q2 -14 3.5 -26t1.5 -20q0 -52 -23.5 -101.5t-68.5 -92.5q-84 -84 -263 -86q-29 0 -54.5 3.5t-48.5 9.5q-51 18 -96.5 45.5t-82.5 63t-63 79t-38 93.5v-1q-12 45 -18.5 84t-6.5 81
q0 57 13 106.5t38 97.5q84 157 315 245q-45 121 -127.5 218.5t-202.5 169.5h-242v78h1644v-78h-295zM739 1434h-850q51 -48 88 -89t60 -78q13 -21 26.5 -46.5t26.5 -52.5t24 -54t19 -51q17 3 29.5 4t20.5 1h29q122 0 256 -64t271 -203v633z" />
    <glyph glyph-name="Charu_Chandan.187" horiz-adv-x="575" 
d="M385 1434q-38 -11 -78 -45.5t-69 -81.5q-21 -41 -33.5 -87.5t-12.5 -93.5q0 -37 10.5 -84t27.5 -91q25 -56 50 -110.5t51 -98.5l65 -123q66 -132 66 -250q0 -48 -10 -90t-30 -84q-26 -48 -63.5 -89t-88.5 -74q-32 -20 -66 -33t-67 -20l-9 74q26 6 50.5 18.5t49.5 29.5
q44 28 74 61t50 69q15 32 23.5 67t8.5 71q0 48 -14 101.5t-43 113.5l-5 9l-8 16l-21 41l-14 28t-15 28q-31 57 -60.5 113.5t-46.5 101.5q-22 54 -33.5 104t-11.5 100q0 57 15.5 111.5t44.5 108.5q9 15 19.5 30.5t24.5 33.5l17 25h-318v78h764v-78h-294z" />
    <glyph glyph-name="Charu_Chandan.188" horiz-adv-x="1919" 
d="M1142 1434h-265q-11 -15 -22 -32t-22 -32q-17 -25 -34 -50.5t-34 -49.5l-14 -20q-24 -35 -47.5 -71t-45.5 -70l-180 -266q-48 -73 -99.5 -149.5t-99.5 -148.5q0 -4 -1 -8.5t-1 -7.5q73 -67 139.5 -116t137.5 -90q148 -92 292 -154t296 -104v1369zM1557 871l-4 8
q-4 11 -8 18t-11 11q-16 5 -31.5 8.5t-26.5 3.5q-18 0 -33 -6q-26 -11 -40.5 -31t-16.5 -47q-3 -3 -1 -7q-2 -11 -3 -21t-1 -15q0 -60 52 -114q19 -19 59 -29t81 -12q49 14 90 42t63 64q14 26 21.5 58t7.5 67q0 11 -1 26t-3 29q-4 26 -8.5 48.5t-13.5 44.5q-14 37 -41 74
t-63.5 72.5t-81 67.5t-93.5 60q-26 14 -57.5 27t-69.5 27l-8 4q-21 8 -47 17t-44 14v-1694h-79q-7 18 -12 29.5t-8.5 19.5t-6.5 14t-6 13q-17 33 -50.5 63.5t-72.5 47.5q-23 11 -54.5 17t-63.5 6q-56 0 -123 -18.5t-152 -56.5l-8 -3q-35 -18 -77.5 -32t-87.5 -25
q-26 -5 -52 -7.5t-50 -2.5q-67 0 -137 27t-155 88v112q44 -42 83.5 -71t77.5 -47t75 -26t75 -8q17 1 34.5 3t33.5 6q18 5 42 11.5t50 16.5q21 8 57 23.5t85 39.5q50 24 105.5 37t121.5 13q39 0 77 -8.5t80 -25.5q23 -10 52 -27t64 -46v115q-154 36 -311.5 103.5
t-321.5 165.5q-118 72 -201 137.5t-144 135.5l612 908h-792v78h2101v-78h-764l79 -30q162 -72 266.5 -164t141.5 -196q8 -23 15 -52.5t10 -63.5q2 -14 2.5 -28.5t0.5 -26.5q0 -45 -10 -88.5t-28 -78.5q-30 -52 -87.5 -92.5t-131.5 -57.5l-3 -1h-17q-116 0 -185 69
q-75 75 -75 167q0 8 1 18t4 24q7 51 36.5 93.5t71.5 65.5q14 5 30 8.5t34 3.5t39 -4t45 -11q14 -5 28.5 -18t27.5 -30q16 -22 22 -54z" />
    <glyph glyph-name="Charu_Chandan.189" horiz-adv-x="1917" 
d="M1142 1434h-265q-11 -15 -22 -32t-22 -32q-17 -25 -34 -50.5t-34 -49.5l-14 -20q-24 -35 -47.5 -71t-45.5 -70l-180 -266q-48 -73 -99.5 -149.5t-99.5 -148.5q0 -4 -1 -8.5t-1 -7.5q73 -67 139.5 -116t137.5 -90q148 -92 292 -154t296 -104v1369zM1557 871l-4 8
q-4 11 -8 18t-11 11q-16 5 -31.5 8.5t-26.5 3.5q-18 0 -33 -6q-26 -11 -40.5 -31t-16.5 -47q-3 -3 -1 -7q-2 -11 -3 -21t-1 -15q0 -60 52 -114q19 -19 59 -29t81 -12q49 14 90 42t63 64q14 26 21.5 58t7.5 67q0 11 -1 26t-3 29q-4 26 -8.5 48.5t-13.5 44.5q-14 37 -41 74
t-63.5 72.5t-81 67.5t-93.5 60q-26 14 -57.5 27t-69.5 27l-8 4q-21 8 -47 17t-44 14v-1694h-79q-7 18 -12 29.5t-8.5 19.5t-6.5 14t-6 13q-17 33 -50.5 63.5t-72.5 47.5q-23 11 -54.5 17t-63.5 6q-56 0 -123 -18.5t-152 -56.5l-8 -3q-35 -18 -77.5 -32t-87.5 -25
q-26 -5 -52 -7.5t-50 -2.5q-67 0 -137 27t-155 88v112q44 -42 83.5 -71t77.5 -47t75 -26t75 -8q17 1 34.5 3t33.5 6q18 5 42 11.5t50 16.5q21 8 57 23.5t85 39.5q50 24 105.5 37t121.5 13q39 0 77 -8.5t80 -25.5q23 -10 52 -27t64 -46v115q-154 36 -311.5 103.5
t-321.5 165.5q-118 72 -201 137.5t-144 135.5l612 908h-792v78h2101v-78h-774l89 -30q162 -72 266.5 -164t141.5 -196q8 -23 15 -52.5t10 -63.5q2 -14 2.5 -28.5t0.5 -26.5q0 -45 -10 -88.5t-28 -78.5q-30 -52 -87.5 -92.5t-131.5 -57.5l-3 -1h-17q-116 0 -185 69
q-75 75 -75 167q0 8 1 18t4 24q7 51 36.5 93.5t71.5 65.5q14 5 30 8.5t34 3.5t39 -4t45 -11q14 -5 28.5 -18t27.5 -30q16 -22 22 -54z" />
    <glyph glyph-name="Charu_Chandan.190" horiz-adv-x="1419" 
d="M326 1325l-8 11q-9 5 -24.5 7.5t-33.5 3.5q-17 -5 -32 -14.5t-23 -22.5q-6 -14 -11 -33t-3 -30q0 -17 10 -34q18 -33 45 -49t63 -18q48 -2 93 10t77 38v-1q82 73 79 209q0 27 -2 53t-5 55l62 17l14 -14l2 3l9 -7q91 -93 142.5 -202.5t51.5 -227.5q0 -26 -2.5 -55
t-7.5 -58l-23 -24l-522 -434q75 -64 141 -110.5t128 -86.5q146 -87 290.5 -151t302.5 -106v1525h82v-67h304v-78h-304v-1748h-81q-10 18 -11 28q-1 3 -2.5 7t-2.5 6v-1l-14 31q-18 34 -52.5 64.5t-73.5 47.5q-23 11 -53.5 17t-62.5 6q-58 0 -130 -20.5t-154 -58.5
q-32 -18 -76.5 -32t-89.5 -25q-53 -10 -102 -10q-65 0 -136.5 28t-154.5 88v112q43 -42 82.5 -71t77 -47t74.5 -26t75 -8q40 2 67 9q23 5 45 11.5t47 16.5q20 7 41.5 16t47.5 22l54 25q51 23 107.5 36.5t122.5 13.5q39 0 77 -8.5t80 -25.5q23 -10 52.5 -27t63.5 -46v94
q-155 35 -311.5 104.5t-326.5 173.5q-48 30 -95.5 64t-92.5 70t-85.5 72t-72.5 70l583 490q4 23 6 48t2 45q-5 124 -97 279q-17 -90 -44 -149t-63 -92q-48 -37 -102 -57.5t-114 -20.5h-7q-3 0 -9 2h1q-63 5 -110 35t-77 78q-8 16 -14 38t-6 40q-1 17 2 35.5t11 39.5
q10 22 24 41.5t33 35.5q23 15 43.5 23.5t44.5 9.5q43 1 74 -12t52 -37h-1q7 -7 10.5 -12.5t7.5 -13.5z" />
    <glyph glyph-name="Charu_Chandan.191" horiz-adv-x="1390" 
d="M1117 893q-57 146 -126 250t-139 162q-57 42 -107 70t-88 37t-66.5 14t-45.5 5q-15 0 -27.5 -0.5t-20.5 -2.5q-61 -14 -128.5 -71.5t-132.5 -154.5q-17 -32 -35 -82t-39 -121q114 20 198.5 29t140.5 9h21h9.5t9.5 -1q68 -2 115 -20.5t70 -59.5q13 -33 13 -64
q0 -45 -22.5 -95t-65.5 -108q-38 -54 -103.5 -120t-159.5 -139l-28 37l-8 12t-10 13q85 63 144 124t97 116q38 48 58.5 89.5t20.5 70.5q0 19 -6 31q-11 16 -39.5 25t-74.5 9q-44 1 -96.5 -2.5t-108 -9.5t-112 -14t-108.5 -16h1l-7 -2l-4 -2l-1 -1q-1 0 -1.5 -0.5t-1.5 -0.5
h-6q-2 0 -3 -0.5t-4 -0.5l-20 -3l3 25q1 6 1 12t2 14q14 98 50 191.5t90 169.5q24 34 55 63.5t65 53.5t71 41t73 26q17 3 35.5 5t29.5 3q95 -10 181 -41t152 -81q26 -17 59 -51t68 -72q21 -24 50 -66.5t62 -99.5v481h83v-67h295v-78h-295v-1464q-11 0 -21.5 0.5t-20.5 0.5
h-41v6l-1 6l-3 7q-10 22 -15 33.5t-11 23.5q-19 32 -52 64t-71 47q-25 11 -55.5 15.5t-63.5 4.5q-57 0 -123 -17.5t-151 -56.5v1q-2 -2 -4 -2q-35 -18 -80 -33t-90 -26q-27 -7 -53 -9.5t-49 -2.5q-67 1 -138.5 30t-151.5 89v112q80 -72 159 -112.5t150 -40.5q19 1 35.5 3.5
t31.5 6.5q22 5 43.5 10.5t48.5 15.5q20 6 55 22t88 42q51 23 106.5 36.5t120.5 13.5q40 0 79 -9t81 -25q21 -10 50.5 -28t63.5 -45v740z" />
    <glyph glyph-name="Charu_Chandan.192" horiz-adv-x="1349" 
d="M1104 -15q-159 36 -313.5 103t-319.5 164q-103 66 -189.5 135t-153.5 139l411 430q-18 -1 -44 -2.5t-51 -2.5t-45.5 -2t-29.5 -1h-43q-157 3 -197 88q-8 18 -12.5 38t-4.5 45q0 43 19 90.5t51 97.5l6 7h-1l5 7q4 5 8.5 10.5t9.5 11.5q3 5 8 11t10 11l8 9l51 60h-335v78
h1488v-78h-254v-1739q-8 0 -13.5 0.5t-9.5 0.5h-16l-41 2q-4 3 -4.5 5t-0.5 3l-3 8l-10 25l-15 32q-16 35 -50.5 64t-72.5 46q-23 11 -53.5 16.5t-62.5 5.5q-57 0 -128.5 -19.5t-153.5 -57.5q-35 -20 -78 -33t-82 -24q-30 -5 -55 -7.5t-51 -2.5q-67 0 -136.5 27t-153.5 88
v111q43 -42 82.5 -70.5t77 -46.5t74 -26t74.5 -8q37 1 67 9q21 3 45.5 10.5t48.5 16.5q16 6 41 18t57 27l11 5l32 14q48 23 104 36t122 13q38 0 77 -8.5t79 -24.5q22 -10 51.5 -27.5t64.5 -47.5v110zM1104 1434h-686q-52 -45 -94 -89.5t-66 -80.5q-31 -43 -47.5 -79.5
t-16.5 -65.5q0 -12 4.5 -26t12.5 -31h-1q15 -15 46 -22.5t71 -9.5q5 -1 12.5 -1h14.5h25q67 0 143.5 6.5t164.5 20.5l4 -27q4 -11 5 -20l2 -10q0 -2 2 -7l2 -17q-2 -1 -2.5 -1.5t-5.5 -0.5q-3 -1 -11 -2h-8l-111 -112l-201 -210l-117 -124q40 -34 75 -61.5t68 -51.5
t63.5 -45t61.5 -41q145 -87 289.5 -150.5t300.5 -104.5v1363z" />
    <glyph glyph-name="Charu_Chandan.193" horiz-adv-x="1298" 
d="M1077 269l-31 -31l-33 -29v1q-17 -16 -34 -30t-28 -22q-35 -28 -72 -50t-71 -36q-95 -41 -200 -63.5t-213 -22.5q-49 0 -85.5 4.5t-65.5 12.5l-30 12v1419h-268v78h1460v-78h-1114v-646q152 69 267 102t206 33q46 0 93 -10q57 -12 106 -35.5t86 -63.5v1q36 -31 64 -75.5
t44 -101.5q8 -32 11.5 -59t3.5 -50q0 -13 -1 -26.5t-3 -28.5l-3 -16l-7 -31v-741h-78q-8 25 -13 36t-10 18l-10 23q-19 35 -52.5 64.5t-71.5 46.5q-23 11 -55 17t-64 6q-57 0 -122.5 -18.5t-150.5 -55.5l-7 -2h1q-34 -20 -78.5 -34t-89.5 -25q-27 -5 -53.5 -7.5t-46.5 -2.5
q-70 0 -140.5 27.5t-150.5 87.5v113q82 -79 157.5 -115.5t150.5 -37.5q37 1 67 9h-1q20 5 44.5 12t49.5 16q23 8 58 24.5t83 39.5q51 24 107 36.5t121 12.5q39 0 79 -9.5t79 -23.5q20 -10 51 -29t64 -45v399zM978 782q-10 10 -27 19.5t-37 17.5t-42 14t-42 11q-13 2 -30 3
t-31 1q-42 0 -95.5 -11t-115 -31.5t-129 -48.5t-137.5 -61v-625q35 -6 58 -6.5t43 -0.5h8q45 0 90.5 5t93.5 13q50 9 98.5 25.5t93.5 36.5q105 45 183 123.5t120 176.5q8 19 12 42.5t4 43.5q0 17 -2 37.5t-11 49.5q-26 94 -83 141z" />
    <glyph glyph-name="Charu_Chandan.194" horiz-adv-x="1360" 
d="M1078 -127q-41 20 -87 43t-84 43q-44 23 -89.5 49t-90.5 54h-7l-6 35l-6 36q96 18 175 39t142 45q62 30 98 63.5t41 68.5q3 23 -7 48t-36 49v-1q-29 24 -64 39t-73 20q-63 -60 -128.5 -102.5t-128.5 -63.5q-100 -34 -207.5 -52t-215.5 -18h-54q-5 1 -15.5 1.5t-22.5 0.5
v1164h-270v78h1524v-78h-1178v-389q68 32 127 52.5t110 34.5q57 14 112.5 22.5t98.5 8.5q20 0 40.5 -1.5t39.5 -4.5q48 -7 93.5 -24.5t90.5 -55.5q28 -26 51 -56.5t40 -61.5q17 -32 26.5 -66.5t9.5 -69.5q0 -73 -28 -150q-7 -14 -21 -40t-37 -61q46 -18 75.5 -34t48.5 -30
q39 -35 58 -80.5t19 -87.5q-12 -54 -60.5 -106t-132.5 -91q-20 -7 -72.5 -22t-139.5 -38q158 -83 296 -140.5t269 -95.5l-11 -40l-6 -19q-2 -5 -5 -20l-107 34l-113 39v-314q-6 0 -11.5 0.5t-9.5 0.5h-59l-15 39l-6 12l-13 28q-19 30 -52 61t-69 48q-49 20 -119 20
q-57 0 -121.5 -17.5t-149.5 -56.5l-4 -1q-2 0 -5 -1.5t-4 -2.5q-31 -17 -74.5 -30.5t-88.5 -24.5q-56 -12 -101 -12q-66 1 -138 30t-152 89v109q42 -41 81.5 -70t77 -47t74.5 -26t75 -8q18 1 35 2.5t29 6.5q20 5 44.5 12t50.5 17q42 16 142 63q99 49 227 49q40 0 81 -9
t76 -23q20 -9 49.5 -27t67.5 -46v161zM930 1036v-1q-22 20 -61.5 33.5t-84.5 19.5h-4q-5 1 -11.5 1h-10.5h-19q-48 0 -101 -8.5t-110 -24.5q-53 -14 -115 -39t-125 -59v-617q118 4 222.5 21.5t199.5 50.5q2 0 5 3q108 37 186 112t123 177q11 27 18 57t7 55q0 119 -111 211z
" />
    <glyph glyph-name="Charu_Chandan.195" horiz-adv-x="2004" 
d="M1650 417q3 -51 8.5 -97.5t13.5 -84.5v-549h-81l-7 19q-2 6 -6 14.5t-7 13.5t-6.5 13t-5.5 13q-17 35 -51 65t-72 47q-25 11 -55.5 17t-64.5 6q-55 0 -126.5 -21t-156.5 -58q-29 -17 -74 -31.5t-90 -24.5q-53 -10 -102 -10q-67 0 -138.5 27.5t-151.5 87.5v113
q82 -80 156.5 -116t151.5 -37q38 1 67 9q22 5 45.5 11.5t46.5 16.5q22 8 43.5 17.5t46.5 20.5h-1q3 3 8 4.5t11 3.5q2 2 6.5 3t6.5 3l23 11q50 23 106.5 36.5t119.5 13.5q40 0 79 -8.5t79 -25.5q47 -17 117 -73v393q-8 38 -11 80t-4 87q-8 320 182 627q-174 39 -308 102
t-215 148q-33 41 -54 74t-37 56h-48q-44 -36 -83 -72.5t-69 -68.5q-36 -39 -71 -84t-64 -90q-31 -57 -50 -104t-19 -77q0 -14 5.5 -27.5t12.5 -24.5q8 -14 22 -17.5t37 -3.5q20 0 37.5 1.5t36.5 6.5q95 13 215.5 52.5t257.5 100.5l52 26l7 -58q4 -38 5.5 -76t1.5 -71
q0 -110 -19.5 -231.5t-51.5 -239.5q-32 -94 -95 -162t-151 -106q-32 -11 -67 -17t-74 -6q-81 0 -173 31.5t-191 88.5q-33 19 -69 46.5t-72.5 61.5t-72 73t-68.5 81q-73 94 -143 223.5t-131 288.5l71 39q58 -159 122.5 -282t132.5 -211q34 -43 69 -81.5t70 -71t68.5 -58
t63.5 -41.5q86 -48 171 -78.5t151 -30.5q31 0 61 5.5t54 14.5q31 15 60.5 37.5t55 51t45.5 60.5t33 67q34 107 51.5 226t17.5 231v75q-144 -55 -252.5 -89.5t-196.5 -47.5q-24 -5 -44.5 -7t-37.5 -2q-86 0 -128 56q-27 37 -27 92q0 45 21.5 103.5t59.5 124.5q18 26 44.5 61
t68.5 83h-1q10 12 25 28.5t31 34.5t32 35.5t27 29.5h-1055v78h2198v-78h-864q20 -36 43 -65.5t43 -49.5q70 -71 207 -121t267 -80l41 -79q-201 -290 -201 -571q0 -11 0.5 -25.5t1.5 -25.5z" />
    <glyph glyph-name="Charu_Chandan.196" horiz-adv-x="1446" 
d="M945 706l6 -18v1q6 -20 6 -42q0 -5 -2.5 -20t-7.5 -33q-28 -87 -114 -116q-37 -13 -71 -13q-37 0 -73 12q-72 28 -117.5 76.5t-59.5 123.5v-1q-7 22 -8 36t-1 30q0 91 67 176q52 66 124 104t159 52q2 0 3.5 0.5t4.5 0.5q3 1 12 1h17q72 0 141 -27.5t130 -79.5
q49 -42 84.5 -101t49.5 -122l3 -20q2 -16 4 -32.5t2 -26.5q0 -38 -9 -79t-22 -76q-2 -7 -6 -15.5t-7 -14.5v-796h-80q-9 17 -13 26t-7 16l-16 35q-17 29 -48.5 57.5t-72.5 45.5q-25 11 -56 16t-63 5q-57 0 -127.5 -19t-153.5 -57q-32 -19 -77.5 -33t-90.5 -25
q-61 -11 -102 -11q-66 0 -136.5 28t-155.5 89v112q84 -84 159 -118.5t151 -34.5q17 1 34.5 3.5t31.5 6.5l8 2h-1q20 5 42.5 11.5t44.5 14.5q20 7 41 16t48 21l54 26q50 23 106.5 36.5t121.5 13.5q78 0 159 -34q23 -10 51.5 -27.5t64.5 -45.5v489l-51 -57q-45 -43 -103 -82
t-118 -62q-114 -47 -226.5 -71.5t-225.5 -24.5q-70 0 -124 7t-97 19l-29 9l1 -1v1346h-279v78h1194q0 2 0.5 4t0.5 6v10l5 15q5 11 7.5 26.5t4.5 29.5q0 2 0.5 4t0.5 4q4 21 6 45.5t2 41.5q0 53 -11.5 103t-37.5 95q-23 34 -57.5 64.5t-77 55t-92.5 43.5t-104 31
q-29 5 -64.5 7.5t-64.5 3.5q-126 -11 -255.5 -61.5t-246.5 -135.5l-19 19q-8 10 -16 19.5t-16 20.5q64 45 134.5 84t138.5 68q74 29 154 45.5t161 14.5q26 0 52 -2t56 -8q134 -26 233 -86.5t152 -148.5q28 -51 43 -109t15 -120q0 -17 -1.5 -40.5t-5.5 -46.5q0 -2 -1 -5
t-1 -5q-2 -14 -7 -38t-13 -54h351v-78h-1258v-1284q49 -8 92 -12t80 -4q97 0 205.5 25.5t211.5 66.5q105 48 190.5 128t130.5 187q14 32 20 63.5t6 61.5q0 10 -1.5 23.5t-3.5 24.5q-10 57 -37 108.5t-72 88.5q-48 39 -101.5 60t-110.5 21h-12h-6t-9 -2h-12
q-63 -10 -122.5 -42.5t-103.5 -82.5q-23 -29 -35.5 -62t-12.5 -64q0 -28 4 -44q18 -103 144 -147q5 -1 14 -1.5t22 -0.5q37 0 64 22.5t44 64.5q3 11 -1 27z" />
    <glyph glyph-name="Charu_Chandan.197" horiz-adv-x="1281" 
d="M895 1028q-60 91 -149 179.5t-215 180.5q45 -119 66.5 -215t21.5 -168q0 -82 -21 -154q-30 -87 -97 -163t-159 -124l-130 -52q3 -48 10 -90.5t21 -73.5q10 -22 26 -48t35 -46q38 -40 89.5 -71.5t100.5 -42.5q49 -9 98 -9q72 0 141.5 24.5t131.5 66.5q22 19 44.5 44t43 53
t38.5 58.5t31 61.5q17 44 24.5 87t7.5 85q0 97 -40.5 202t-116.5 215h-2zM1027 277q-34 -42 -63.5 -72.5t-52.5 -46.5q-70 -51 -151.5 -79t-165.5 -28q-28 0 -55.5 3t-56.5 8q-68 14 -130.5 49t-108.5 89h1q-25 27 -43.5 57t-30.5 59q-18 44 -29 88.5t-11 95.5q0 7 0.5 14
t1.5 13v41l185 74q76 39 129 98.5t76 134.5q9 33 14 67t5 73q0 88 -32.5 196t-90.5 223h-520v78h459q-66 81 -96.5 155.5t-30.5 143.5q0 62 20 125q35 103 133 190q54 48 124.5 78.5t151.5 45.5l6 -67q0 -7 2 -11q-141 -24 -231 -103v1q-38 -33 -65 -74.5t-44 -88.5
q-10 -27 -13 -51t-3 -47q0 -42 12.5 -84.5t34.5 -82.5q22 -35 51.5 -68t63.5 -62h908v-78h-776q57 -45 110 -92t99.5 -93.5t85 -91.5t65.5 -86q81 -117 125 -233t44 -223q0 -26 -3 -52t-8 -53l-13 -50v-774h-81q-6 10 -9 16l-5 10l-8 16l-12 29q-17 33 -51 62.5t-73 46.5
q-24 11 -54.5 16t-63.5 5q-56 0 -130.5 -21t-155.5 -57q-29 -17 -73.5 -31t-89.5 -25q-29 -5 -54.5 -8t-49.5 -3q-66 0 -136.5 28t-155.5 89v112q86 -83 161 -118t151 -35q17 1 34 3.5t34 6.5t40 11t52 17q17 6 41 16t50 23l52 24q51 24 107 37t121 13q40 0 78.5 -8.5
t79.5 -25.5q24 -10 53.5 -27.5t64.5 -46.5v416z" />
    <glyph glyph-name="Charu_Chandan.198" horiz-adv-x="1643" 
d="M1027 7q-85 2 -177 33.5t-189 88.5q-66 39 -140.5 106t-146.5 159q-72 94 -139 223.5t-134 296.5l5 2.5t6 2.5q11 6 14.5 8t6.5 5l7 4l4 2h-1l27 13q62 -162 124.5 -285t135.5 -214q72 -91 141 -155.5t132 -98.5q87 -50 173 -80.5t152 -30.5q31 0 61.5 5.5t56.5 16.5
q63 30 116 88t79 129q15 54 28 112t22 117.5t14 118.5t5 115v77q-145 -57 -256 -93t-196 -48q-24 -5 -45.5 -7t-37.5 -2q-44 0 -76.5 15.5t-55.5 43.5q-11 17 -18.5 42t-7.5 50q0 46 22 104.5t60 124.5q45 69 121.5 152t192.5 186h-1217v78h1907v-78h-550l-12 -9
q-15 -12 -32.5 -24t-34.5 -23q-43 -34 -86 -73.5t-83.5 -82t-76 -86t-62.5 -83.5q-32 -58 -51 -104t-19 -78q0 -15 5.5 -28t10.5 -24q8 -13 23.5 -17.5t38.5 -4.5q17 0 36 1t39 6q45 7 100.5 21t117 34t127 45t131.5 55q6 2 14.5 5.5t9.5 5.5q3 0 5 2q1 1 2 1l15 10v-1l8 6
l8 -61q4 -39 6 -76.5t2 -72.5q0 -26 -1.5 -56.5t-4.5 -61.5t-6.5 -61t-7.5 -56q-6 -38 -14.5 -84.5t-22.5 -93.5v-679h-80q-6 13 -9.5 22.5t-6.5 16.5t-6 12.5t-6 12.5l-2 5l-1 4v-1q-17 35 -52 65.5t-73 47.5q-51 23 -119 23q-57 0 -122 -18t-152 -56q-4 -2 -6 -2l-2 -1
q-33 -20 -77 -34t-89 -25q-27 -5 -52 -7.5t-48 -2.5q-69 0 -139 27.5t-154 88.5v112q43 -42 82.5 -71t77 -47t75 -26t76.5 -8q36 2 66 9q17 4 41 11t51 16q19 7 43 17.5t53 25.5l47 21q76 36 174 48l44 2q45 0 85 -8.5t82 -25.5q24 -10 54 -28.5t62 -45.5v298
q-48 -51 -93.5 -82t-88.5 -50l-21 -6q-14 -4 -26 -6.5t-24 -5.5l-31 -5z" />
    <glyph glyph-name="Charu_Chandan.199" horiz-adv-x="1426" 
d="M942 694q1 -6 1 -13.5v-14.5l-6 -42q0 -2 -0.5 -3t-0.5 -3l-3 -5h1q-28 -90 -116 -115q-27 -8 -64 -8q-35 0 -73 11q-69 26 -114 78t-61 122q-2 14 -4 29.5t-2 26.5q0 43 17 89t46 84q24 28 55.5 53.5t68 45t75.5 33.5t78 20q9 1 20.5 1.5t19.5 0.5q67 0 134.5 -26.5
t127.5 -76.5q53 -42 86 -97.5t47 -121.5q10 -43 10 -80q0 -17 -1.5 -36t-5.5 -39l-6 -19l-5 -18l-5 -17q0 -1 -0.5 -1.5t-0.5 -1.5v-864h-80q-7 17 -11 26t-6 14l-5 8l-13 29q-19 30 -52.5 60t-68.5 47q-25 11 -56.5 17t-63.5 6q-53 0 -125.5 -21t-157.5 -58
q-30 -17 -75 -31t-91 -26q-27 -5 -52.5 -7.5t-47.5 -2.5q-68 0 -138 27.5t-154 88.5v113q82 -79 158 -115.5t152 -37.5q17 1 34.5 3t31.5 6q2 0 2.5 0.5t2.5 0.5q20 5 42.5 11.5t45.5 15.5q26 8 59 23.5t84 39.5t106.5 37t120.5 13q38 0 79 -9t81 -25q21 -10 51 -28t63 -44
v519q-81 -81 -152.5 -133t-131.5 -75q-109 -43 -221 -67.5t-221 -24.5q-66 0 -121 7t-97 21q-2 0 -4.5 0.5t-4.5 0.5l-16 7v1312h-275v78h1597v-78h-1241v-1254q49 -9 92 -13t77 -4q44 0 95 6.5t104.5 18.5t106.5 29t101 37q51 22 97 54t86.5 72t73.5 86.5t57 96.5
q11 26 17 59t6 60q0 32 -4 45q-7 58 -35.5 108.5t-70.5 88.5q-48 38 -99.5 59t-106.5 21h-18h-11t-8 -1q-68 -9 -125.5 -42.5t-98.5 -81.5q-18 -28 -32 -61.5t-14 -62.5q0 -9 0.5 -19t3.5 -21q8 -51 45.5 -87.5t85.5 -56.5l23 -4q5 -1 10.5 -1.5t10.5 -0.5q35 0 60.5 19.5
t40.5 54.5z" />
    <glyph glyph-name="Charu_Chandan.200" horiz-adv-x="1491" 
d="M1278 -26h-79q-38 45 -73.5 77.5t-72.5 56.5q-40 26 -71 42t-53 22q-47 11 -98 11q-34 0 -78.5 -3.5t-93.5 -10.5l-160 -14q-43 4 -84.5 18t-78.5 36.5t-68.5 53.5t-54.5 70q-29 45 -48.5 110.5t-28.5 146.5l76 2q5 -55 16.5 -94t25.5 -73q16 -45 42.5 -78.5t59 -57.5
t70.5 -38t77 -20q23 1 63 3.5t83 8.5q54 8 102.5 12.5t85.5 4.5q39 0 90 -10.5t117 -39.5q32 -15 68.5 -40t83.5 -67v878q-33 42 -72.5 77.5t-81 62.5t-83.5 46t-81 28q-7 0 -17 0.5t-18 1.5q-6 1 -14 1h-11q-23 0 -47 -4t-45 -12q-84 -32 -137.5 -83t-73.5 -120
q-6 -11 -9 -30t-4 -41t-1 -41v-33q15 -50 40.5 -87.5t54.5 -57.5q32 -14 54.5 -20.5t53.5 -6.5q16 0 35 3t42 8h-1q87 34 87 114q0 5 -1.5 13.5t-6.5 22.5q-11 35 -52 57h-22q-19 0 -66 -17l-16 32q-5 9 -10 19t-9 19q34 14 56.5 21t44.5 7q8 0 19.5 -2t27.5 -5
q67 -26 99 -94q6 -16 10 -32.5t4 -32.5q0 -41 -13 -69q-17 -43 -46 -77t-74 -50q-53 -13 -103 -13q-45 0 -84.5 11.5t-73.5 33.5q-41 21 -72.5 71t-48.5 113q-2 11 -3.5 29t-1.5 38q0 38 8 77.5t22 84.5q36 78 97 132.5t142 82.5q24 8 52 13.5t63 5.5q38 0 85 -12
q106 -21 202.5 -85.5t181.5 -171.5v-1035zM-54 1512h1608v-78h-1608v78z" />
    <glyph glyph-name="Charu_Chandan.201" horiz-adv-x="1728" 
d="M-34 1512h1881v-78h-1881v78zM1467 294q-56 -60 -112 -102.5t-109 -66.5q-63 -26 -136.5 -41t-154.5 -15h-10q-41 0 -85 7.5t-90 21.5t-91 33.5t-87 42.5q-149 94 -261 256t-175 392l78 14q1 0 5 2q57 -218 158 -366.5t247 -235.5q152 -87 302 -82q147 0 252.5 42
t185.5 129h-1q41 47 65.5 96t35.5 93q8 35 11.5 75t3.5 82q0 69 -11 133q-14 63 -45 117.5t-68 91.5q-57 56 -119.5 90t-125.5 41q-15 5 -31.5 6.5t-34.5 1.5q-23 1 -61.5 -6.5t-80.5 -28t-81.5 -56t-66.5 -90.5q-12 -24 -16 -48.5t-4 -44.5q0 -34 12.5 -68t35.5 -63
q37 -30 77.5 -47.5t78.5 -17.5q17 0 35.5 3.5t33.5 9.5l20 9q15 7 33 15.5t39 20.5l11 -15q1 -1 2 -2.5t3 -2.5l15 -14l7 -9l10 -13l1 -4l6 -6q-45 -29 -91.5 -48t-86.5 -26q-12 -3 -21 -3.5t-17 -0.5q-116 0 -212 90q-26 26 -41 54.5t-23 55t-10 50t0 39.5q2 60 28 129
q22 39 53.5 73.5t68 61.5t77.5 47t83 31q52 9 78 9q27 0 71 -7t86 -18q45 -17 102.5 -49t111.5 -80q45 -56 80.5 -124t51.5 -127q9 -43 13.5 -85t4.5 -76q0 -39 -4 -80t-14 -88l-12 -45q0 -2 -1 -3.5t-1 -3.5v-764h-77q-8 23 -11.5 31t-8.5 16l-15 35q-18 36 -51.5 65
t-70.5 46q-25 11 -55.5 17t-64.5 6q-57 0 -128.5 -20.5t-150.5 -57.5q-29 -17 -75 -31.5t-91 -25.5q-53 -10 -101 -10q-66 0 -137 27t-153 88v111q85 -83 159 -117t149 -34q17 1 34.5 3t31.5 6l8 2q19 5 40.5 11t44.5 15q21 8 56 24t86 39q51 24 106 36.5t119 12.5
q40 0 80 -8.5t78 -23.5q47 -22 116 -76v421z" />
    <glyph glyph-name="Charu_Chandan.202" horiz-adv-x="1340" 
d="M276 1167q9 6 19 13t17 14l83 -14q-12 -31 -37 -58.5t-63 -41.5q-14 -4 -28 -6.5t-29 -2.5q-27 0 -52 13.5t-49 38.5q-13 13 -22.5 30.5t-16 37t-10 38.5t-4.5 35q7 48 29.5 96t54.5 80q35 26 78.5 41t94.5 15q8 0 19.5 -0.5t26.5 -3.5q72 -12 130.5 -51.5t94.5 -104.5
q20 -48 33 -93t13 -95q0 -37 -9 -78t-24 -86l-5 -8q-1 -2 -7 -8l-6 -7l-50 -61q-75 -72 -151 -151t-151 -160l-55 -58q72 -58 141 -107.5t132 -87.5q66 -41 138 -78.5t146 -70.5t148.5 -59.5t145.5 -45.5v1496h80v-66h292v-78h-289v-1748h-79l-24 56l-6 13l-4 8
q-19 33 -52.5 64t-69.5 48q-52 22 -119 22q-54 0 -127 -20.5t-157 -57.5q-30 -17 -74.5 -31.5t-89.5 -25.5q-28 -5 -53 -7.5t-47 -2.5q-69 0 -139.5 28t-151.5 88v111q43 -42 82 -70.5t77 -46.5t75 -26t75 -8q34 1 66 9h-1l9 2q17 4 39 10t47 15q21 8 57.5 25t82.5 39
q51 24 107 37t121 13q39 0 78.5 -9t78.5 -25q22 -10 50.5 -27.5t65.5 -45.5v126q-153 35 -312.5 105.5t-314.5 164.5q-212 124 -338 269l469 498h-1q9 29 13.5 56t4.5 56q0 39 -10 78.5t-28 74.5q-26 47 -66 75.5t-91 35.5q-4 1 -9.5 1h-10.5h-15q-71 0 -123 -40
q-21 -20 -36 -47.5t-17 -66.5q0 -23 6.5 -42t23.5 -36q8 -9 19 -15t27 -6q5 0 14.5 2.5t17.5 5.5z" />
    <glyph glyph-name="Charu_Chandan.203" horiz-adv-x="1237" 
d="M946 1004q-174 -210 -342 -313q-44 -26 -94 -47.5t-103 -39.5t-106.5 -31t-102.5 -20v881h-265v78h1398v-78h-1047v-776q137 24 253.5 93.5t219.5 171.5q134 135 206 271q20 -9 36 -17t33 -17q0 -2 -0.5 -7t-1.5 -7q0 -1 -0.5 -2t-0.5 -2v-1170h-79q-7 17 -11.5 28.5
t-8.5 19.5t-7 15t-7 15q-18 32 -51 57t-71 41q-26 11 -56 16t-63 5q-56 0 -126.5 -19t-148.5 -56q-32 -17 -78 -32.5t-94 -28.5q-27 -5 -52.5 -7.5t-47.5 -2.5q-65 1 -137 29t-153 89v109q42 -41 81.5 -69.5t77.5 -46.5t74.5 -26t74.5 -8q20 1 37 3t30 6q21 5 44 12t49 17
q21 8 57 23.5t84 38.5q50 23 105.5 36t120.5 13q39 0 79.5 -9.5t78.5 -23.5q23 -10 51.5 -28t63.5 -44v860z" />
    <glyph glyph-name="Charu_Chandan.204" horiz-adv-x="1311" 
d="M376 1497q12 0 24 6t23 17h-1q11 14 17.5 27.5t6.5 28.5q0 9 -1.5 15t-4.5 12l-1 7q-8 14 -27 28.5t-45 26.5h1q-4 1 -9 1.5t-13 0.5h-20q-22 0 -44 -6.5t-39 -14.5q-30 -23 -55 -58t-33 -71q0 -2 -0.5 -3.5t-0.5 -3.5v-7q-3 -20 -3 -36q0 -42 17.5 -78.5t52.5 -71.5
q48 -47 105 -71t120 -24q18 0 40 2t47 9q45 68 93.5 139t93.5 140h694v-78h-292v-1748h-77q-12 31 -18.5 43.5t-13.5 23.5h-1l-2 6v-1q-17 33 -51 64t-72 49q-24 11 -54.5 17t-63.5 6q-54 0 -128 -21.5t-158 -58.5q-32 -17 -74.5 -31t-87.5 -25q-28 -5 -54 -7.5t-49 -2.5
q-66 0 -136 27.5t-155 88.5v113q164 -152 311 -153q36 2 67 9q21 5 44 11.5t48 16.5q24 8 59.5 24t83.5 39q51 24 106.5 37t120.5 13q39 0 79 -9t79 -25q21 -11 50.5 -29t64.5 -44v115q-159 35 -314 102.5t-319 165.5q-110 69 -193.5 134t-151.5 139l409 615q-96 7 -171 35
t-135 82q-98 92 -98 210q0 15 1 32t6 34v-1q13 61 43.5 107.5t73.5 73.5q29 20 61.5 29t71.5 9q30 0 78 -9q41 -14 71 -40t44 -65q5 -15 9 -30.5t4 -36.5q0 -23 -10 -46.5t-34 -50.5h1q-25 -29 -56 -43t-65 -12q-5 0 -14 3zM1040 1434h-272l-305 -461q-26 -41 -54.5 -82.5
t-57.5 -83.5l-70 -103q-11 -17 -22.5 -34.5t-23.5 -34.5q-17 -26 -35 -52.5t-34 -50.5q30 -26 65.5 -54.5t74 -56t76.5 -53t72 -45.5q64 -38 137 -76.5t149.5 -73t152.5 -63.5t147 -48v1372z" />
    <glyph glyph-name="Charu_Chandan.205" horiz-adv-x="1427" 
d="M1157 666q-49 67 -106.5 123.5t-117.5 100.5q-74 49 -149 74.5t-155 25.5q-28 0 -61.5 -3.5t-63.5 -11.5q-11 -5 -24.5 -10.5t-29.5 -10.5l-28 -14q-5 -3 -13 -6.5t-13 -5.5q-51 -31 -95.5 -75t-73.5 -89q-18 -38 -28 -78.5t-10 -86.5q0 -27 5.5 -64t17.5 -75
q23 -78 79 -133.5t147 -84.5q15 -6 31 -7.5t34 -1.5q17 0 33.5 1t33.5 3q43 10 81.5 27.5t64.5 37.5v-1q27 26 44.5 58.5t17.5 70.5v11.5t-1 10.5v9t-1 8q-10 42 -29.5 72t-48.5 45q-18 9 -43 9q-23 0 -66 -15q-2 9 -4 11l-4 5q-3 3 -3 6l-18 31h1l-8 10l-2 4q0 1 -1 3
q-2 4 -2 6q69 27 105 27q52 0 100 -34q35 -20 62 -62.5t38 -98.5q8 -38 8 -60q0 -51 -25.5 -100t-67.5 -94q-50 -38 -114.5 -61t-143.5 -23q-32 0 -56.5 3.5t-45.5 10.5q-51 18 -96 46t-81 63.5t-62.5 78t-41.5 90.5q-11 42 -18 82.5t-7 76.5q0 56 14.5 107.5t38.5 99.5
q52 91 135.5 153.5t189.5 91.5q34 8 76.5 14.5t73.5 8.5q175 -8 297 -78.5t230 -195.5v632h-1220v78h1582v-78h-280v-1748h-76q-8 22 -15 36.5t-12 25.5l-9 16q-17 33 -50.5 63.5t-71.5 47.5q-25 11 -56.5 17t-63.5 6q-54 0 -124 -19t-153 -56q-30 -18 -76 -33.5t-93 -26.5
q-27 -5 -53 -7.5t-48 -2.5q-68 0 -139 27.5t-151 87.5v113q81 -74 158 -112.5t150 -39.5q17 1 34.5 2.5t31.5 5.5q21 5 44.5 12t49.5 16l20 9q21 9 53.5 23.5t67.5 31.5q48 21 106.5 35t119.5 14q38 0 79.5 -9.5t78.5 -23.5q22 -10 50.5 -27.5t65.5 -45.5v794z" />
    <glyph glyph-name="Charu_Chandan.206" horiz-adv-x="1427" 
d="M1157 666q-49 67 -106.5 123.5t-117.5 100.5q-74 49 -149 74.5t-155 25.5q-28 0 -61.5 -3.5t-63.5 -11.5q-11 -5 -24.5 -10.5t-29.5 -10.5l-28 -14q-5 -3 -13 -6.5t-13 -5.5q-51 -31 -95.5 -75t-73.5 -89q-18 -38 -28 -78.5t-10 -86.5q0 -27 5.5 -64t17.5 -75
q23 -78 79 -133.5t147 -84.5q15 -6 31 -7.5t34 -1.5q17 0 33.5 1t33.5 3q43 10 81.5 27.5t64.5 37.5v-1q27 26 44.5 58.5t17.5 70.5v11.5t-1 10.5v9t-1 8q-10 42 -29.5 72t-48.5 45q-18 9 -43 9q-23 0 -66 -15q-2 9 -4 11l-4 5q-3 3 -3 6l-18 31h1l-8 10l-2 4q0 1 -1 3
q-2 4 -2 6q69 27 105 27q52 0 100 -34q35 -20 62 -62.5t38 -98.5q8 -38 8 -60q0 -51 -25.5 -100t-67.5 -94q-50 -38 -114.5 -61t-143.5 -23q-32 0 -56.5 3.5t-45.5 10.5q-51 18 -96 46t-81 63.5t-62.5 78t-41.5 90.5q-11 42 -18 82.5t-7 76.5q0 56 14.5 107.5t38.5 99.5
q52 91 135.5 153.5t189.5 91.5q34 8 76.5 14.5t73.5 8.5q175 -8 297 -78.5t230 -195.5v632h-1220v78h1582v-78h-280v-1748h-76q-8 22 -15 36.5t-12 25.5l-9 16q-17 33 -50.5 63.5t-71.5 47.5q-25 11 -56.5 17t-63.5 6q-54 0 -124 -19t-153 -56q-30 -18 -76 -33.5t-93 -26.5
q-27 -5 -53 -7.5t-48 -2.5q-68 0 -139 27.5t-151 87.5v113q81 -74 158 -112.5t150 -39.5q17 1 34.5 2.5t31.5 5.5q21 5 44.5 12t49.5 16l20 9q21 9 53.5 23.5t67.5 31.5q48 21 106.5 35t119.5 14q38 0 79.5 -9.5t78.5 -23.5q22 -10 50.5 -27.5t65.5 -45.5v794z" />
    <glyph glyph-name="Charu_Chandan.207" horiz-adv-x="1427" 
d="M559 990q34 -37 57.5 -94t40.5 -140q95 123 197.5 204.5t216.5 129.5q-50 79 -96.5 136t-89.5 89q-79 60 -158.5 94.5t-150.5 34.5q-14 0 -28 -1t-27 -4q-75 -13 -137 -52.5t-105 -105.5q-39 -48 -68.5 -112t-49.5 -142q131 45 205 43q119 -1 193 -80zM1178 861
q-14 36 -32.5 78.5t-35.5 77.5q-227 -89 -401 -330q-45 -63 -81.5 -127.5t-65.5 -134.5l-25 11q-12 5 -25.5 10t-25.5 10q20 42 43.5 88t49.5 94v33q0 183 -79 263q-25 25 -59.5 38.5t-74.5 15.5q-57 -8 -121 -25.5t-117 -40.5l-66 -31q2 8 2 9.5v3.5q1 3 1 4.5v7.5
q0 5 0.5 11t1.5 12l3 23q7 47 19.5 95.5t30.5 95.5t41.5 91.5t51.5 83.5q53 78 130.5 126.5t168.5 64.5q14 3 31 4t34 1q87 0 176.5 -36.5t178.5 -108.5q60 -45 114 -109.5t101 -149.5l31 -70v528h80v-66h256v-78h-256v-1462l-80 3l-16 37l-16 34q-9 15 -22.5 31.5
t-29.5 31.5t-34 27.5t-35 20.5q-26 11 -56 16t-62 5t-63 -4.5t-65 -12.5h1q-33 -9 -72.5 -25.5t-75.5 -33.5q-20 -10 -41 -19t-37 -14q-14 -5 -39.5 -11.5t-51.5 -12.5q-26 -7 -51.5 -9.5t-48.5 -2.5q-67 1 -137 28.5t-151 88.5v109q43 -42 81.5 -70.5t75.5 -46t73.5 -25
t75.5 -7.5q17 1 33 2t31 6q16 3 40 11t53 18q23 8 57.5 23.5t83.5 38.5q51 23 106 35.5t120 12.5q37 0 76.5 -9t78.5 -23q22 -10 52 -28.5t66 -41.5v706z" />
    <glyph glyph-name="Charu_Chandan.208" horiz-adv-x="1957" 
d="M1575 706q-15 5 -22 6t-14 1q-11 0 -22.5 -1.5t-21.5 -6.5q-29 -14 -46 -33t-19 -44l-5 -21q-1 -5 -1.5 -12t-0.5 -15q0 -29 13 -54t36 -48q54 -51 111 -51h6q8 0 12.5 0.5t10.5 3.5q53 12 90 39.5t60 65.5q19 34 29 73.5t10 81.5q0 29 -4.5 61t-15.5 64
q-36 128 -172.5 218t-376.5 139v-1487h-80q-13 32 -19.5 47t-14.5 28q-18 32 -52 63t-71 48q-49 23 -120 23q-57 0 -124 -18.5t-150 -56.5l-10 -3q-33 -19 -77 -33.5t-89 -23.5q-53 -10 -102 -10q-66 0 -138.5 27t-154.5 88v113q165 -151 311 -153q37 2 68 9q2 0 2 0.5
t2 0.5q20 5 42.5 11.5t45.5 15.5q20 7 41.5 16t47.5 22l55 25q49 23 106 36.5t122 13.5q79 0 159 -34q23 -9 52.5 -26.5t64.5 -46.5v129q-96 28 -186 59t-171.5 63t-152 66t-126.5 68q-109 64 -194.5 131t-154.5 140l408 517q-54 97 -128 177t-158 133q-22 13 -45 25.5
t-45 24t-42 20t-35 13.5h-205v78h2140v-78h-1725q128 -106 214 -205.5t133 -201.5l-396 -497q71 -62 141 -112.5t138 -93.5q97 -58 245.5 -117t344.5 -118v76v268t1 273q0 64 0.5 137.5t0.5 148.5v147v133q90 -12 177.5 -31.5t160.5 -45.5q148 -60 244 -150t130 -207
q14 -42 19.5 -79t5.5 -72q0 -49 -14.5 -97.5t-36.5 -93.5q-32 -52 -86 -91.5t-120 -57.5q-11 -2 -19 -2.5t-16 -0.5q-46 0 -91 17.5t-80 45.5q-21 22 -40 50.5t-27 48.5q-8 26 -13 47t-5 39q0 5 1.5 15.5t3.5 19.5q11 56 39 96t76 60q21 7 40.5 11t38.5 4q14 0 29 -2t30 -5
l5 -4q3 -3 10 -3q15 -8 30 -21z" />
    <glyph glyph-name="Charu_Chandan.209" horiz-adv-x="1355" 
d="M823 1434l-193 -284q-104 -155 -207.5 -307.5t-206.5 -301.5q67 -58 138.5 -111.5t143.5 -96.5q146 -89 294 -153.5t292 -103.5v1358h-261zM1084 -7q-75 18 -155 46t-161 63t-161.5 76t-156.5 85q-52 33 -102 67t-94.5 68t-82.5 68t-66 66l610 902h-779v78h1524v-78h-292
v-1748h-82l-3 10l-17 40l-11 24q-19 33 -52 63t-73 47q-51 23 -119 23q-56 0 -128 -21t-157 -58q-30 -17 -74 -31t-92 -25q-27 -5 -53 -7.5t-48 -2.5q-67 0 -139 27t-154 88v113q165 -151 311 -153q17 1 34.5 3t31.5 6l8 2h-1q20 5 42.5 11t44.5 14q17 5 45 18t64 31l34 16
q51 23 107.5 36t121.5 13q40 0 80.5 -9t78.5 -24q43 -18 116 -76v129z" />
    <glyph glyph-name="Charu_Chandan.210" horiz-adv-x="1501" 
d="M-77 1512h1635v-78h-1635v78zM725 975q16 -5 32.5 -7.5t30.5 0.5q43 12 54 70q5 31 -10.5 56.5t-44.5 48.5q-51 34 -99 34q-14 0 -29 -3q-53 -11 -91.5 -43t-55.5 -80q-8 -26 -14 -56t-4 -50q4 -43 26.5 -81.5t53.5 -67.5q32 -26 71 -40.5t82 -14.5q14 0 31.5 1.5
t32.5 4.5q57 12 115 33t104 46q44 28 94 65.5t93 77.5l51 50q19 -55 29.5 -114.5t10.5 -122.5v-21t-1 -20v-765l-81 2q-2 6 -4.5 13t-5.5 14l-17 42q-20 38 -51.5 68.5t-73.5 47.5q-48 19 -116 19q-55 0 -126 -18t-149 -52q-35 -20 -79.5 -36t-86.5 -27q-26 -5 -51 -9
t-51 -4q-65 0 -134.5 27.5t-150.5 88.5v103q87 -78 159.5 -113t143.5 -35l17 2h5q2 0 2.5 0.5t2.5 0.5l15 3q4 1 9.5 1.5t10.5 1.5t7 1.5t-1 0.5q24 5 45 10t46 14t57.5 24t78.5 40q54 26 109 37t118 11q67 0 137.5 -26t136.5 -83v730q-97 -76 -194.5 -126.5t-185.5 -74.5
q-47 -9 -87 -9q-57 0 -113.5 18t-104.5 50q-94 81 -102 203q0 3 -0.5 5.5t-0.5 4.5q-1 6 -1 13.5v13.5q0 77 35 144q32 49 82.5 85t114.5 47q13 2 23 3.5t18 1.5q67 0 132 -38q22 -13 41 -34.5t33 -49.5q8 -15 14 -35.5t6 -40.5q0 -25 -9 -59q-8 -20 -16.5 -34.5
t-16.5 -23.5h1q-21 -23 -43 -34t-47 -13q-34 -3 -59 4q-5 0 -6 1q-4 0 -8 3z" />
    <glyph glyph-name="Charu_Chandan.211" horiz-adv-x="1703" 
d="M-75 1512h1851v-78h-1851v78zM966 866l5 32q2 12 3 25t3 25q14 -4 26.5 -6t22.5 -1q15 3 28 14.5t21 32.5v-1q5 22 5 40q0 61 -57 93q-47 30 -89 30q-6 0 -13.5 -0.5t-15.5 -2.5q-115 -20 -156 -123q-11 -27 -14 -55t-1 -56q3 -43 24.5 -80t52.5 -66q35 -26 79 -39.5
t95 -13.5q34 0 75 6q102 20 198.5 77t189.5 147l24 23q6 5 13 11t14 13l19 -67q28 -100 28 -214q0 -83 -17.5 -172.5t-49.5 -180.5q-6 -21 -17 -45t-26 -47v-579h-82l-8 19q-5 14 -13 31t-14 31q-16 28 -50 57t-70 46q-25 11 -55.5 17t-64.5 6q-54 0 -128.5 -21.5
t-159.5 -58.5q-27 -17 -72 -30.5t-90 -24.5q-27 -5 -53 -7.5t-50 -2.5q-66 0 -137 27.5t-155 87.5v112q43 -42 82.5 -71t77.5 -47t75.5 -26t76.5 -8q39 2 67 9q20 5 42.5 11t49.5 17q21 7 51.5 20.5t64.5 30.5l28 13q51 23 108 36t120 13q40 0 79 -8.5t80 -24.5
q24 -8 53.5 -27t63.5 -47v305l-45 -26q-63 -38 -143 -60h1q-28 -8 -56.5 -11t-55.5 -3q-95 0 -192 31.5t-183 87.5q-48 31 -104.5 83t-118.5 118q-112 127 -203 280.5t-158 326.5l21 7q8 2 12 4t9 4l14 5h-1q7 3 12.5 5t12.5 4q63 -168 152.5 -316t195.5 -267
q25 -27 52 -53.5t53.5 -50.5t52 -44t46.5 -35q62 -41 133 -67.5t134 -34.5h4q7 -1 13 -1.5t14 -0.5h30q23 0 47 1.5t48 6.5h-1q60 15 111 47.5t89 79.5q20 27 33.5 52t18.5 43q29 84 43 161t14 158q0 20 -2 51.5t-6 73.5q-96 -76 -193.5 -124.5t-185.5 -69.5q-23 -4 -46 -6
t-42 -2q-126 0 -222 72q-46 36 -74.5 90.5t-35.5 115.5q-1 8 -1.5 18t-0.5 18q0 40 9.5 76t26.5 71q30 57 82.5 92.5t120.5 47.5q11 2 22.5 3t20.5 1q66 0 138 -40q21 -14 40 -33t33 -45q22 -43 22 -89q0 -16 -2 -36t-9 -39q-8 -23 -25 -43q-20 -20 -46 -33.5t-52 -16.5
q-13 -1 -28.5 0t-30.5 5z" />
    <glyph glyph-name="Charu_Chandan.212" horiz-adv-x="1432" 
d="M1165 661q-102 140 -219 227q-151 101 -307 101q-32 0 -75 -7.5t-83 -21.5l-16 -6h1q-16 -6 -32.5 -13.5t-28.5 -14.5q-54 -32 -97 -74t-72 -89q-21 -34 -31 -75.5t-10 -89.5q0 -29 5.5 -67t15.5 -75q12 -35 34 -67t51.5 -59.5t65 -49.5t74.5 -38q18 -6 37.5 -8.5
t38.5 -2.5q17 0 37 1t40 6q38 5 64.5 17.5t43.5 24.5v-5q86 86 86 153v22.5t-2 14.5q-10 39 -29 71t-45 49q-16 7 -24 7q-5 1 -12 1.5t-10 0.5q-25 0 -70 -16q-6 7 -7.5 11t-2.5 6q-2 2 -3 5t-3 5l-7 21h1l-4 4q0 2 -4 7l-1 12q-1 0 -1 -0.5t-1 -0.5h-2l-1 4q31 14 59.5 22
t49.5 8q24 0 44.5 -5.5t42.5 -16.5q37 -23 66.5 -69t44.5 -106l2 -12q2 -14 3.5 -26t1.5 -20q0 -51 -25 -102t-72 -96q-38 -37 -104 -59t-155 -22q-30 0 -56 4t-46 11q-53 16 -97.5 43t-80 62.5t-61 78.5t-39.5 91q-14 45 -20.5 86.5t-6.5 77.5q0 55 13.5 106.5t36.5 96.5
q84 154 315 243q-42 124 -125.5 219t-202.5 167h-244v78h1611v-78h-266v-1748h-82l-3 10l-17 40l-11 24q-19 32 -52.5 62.5t-71.5 47.5q-25 11 -56.5 17t-63.5 6q-54 0 -129 -21.5t-160 -58.5q-28 -17 -72.5 -30.5t-89.5 -24.5q-27 -5 -53 -7.5t-48 -2.5q-67 0 -139 27
t-154 88v112q43 -42 82.5 -71t77.5 -47t75.5 -26t75.5 -8q17 1 34.5 3t31.5 6l8 2h-1q20 5 42.5 11t44.5 14q17 5 44.5 18t64.5 31l34 16q51 23 107.5 36t121.5 13q38 0 79.5 -9.5t80.5 -23.5q20 -10 51 -29t64 -45v795zM1165 1434h-854q99 -97 160.5 -190t91.5 -178
q23 2 44.5 4t32.5 2q65 -5 133 -24t135.5 -52t132.5 -80.5t124 -109.5v628z" />
    <glyph glyph-name="Charu_Chandan.213" horiz-adv-x="1377" 
d="M1111 1434h-820q122 -109 209 -211.5t132 -201.5l-397 -503q30 -26 65 -53.5t72 -54.5t74 -52t71 -46q100 -59 251 -120.5t343 -118.5v1361zM1111 -16q-93 25 -184 55.5t-174 63.5t-155 67t-127 66q-105 65 -197 135.5t-154 141.5l410 520q-81 149 -199.5 251t-256.5 150
h-156v78h1538v-78h-261v-1748h-79l-14 31q-2 3 -3 7t-3 6l-5 9l-12 25q-16 32 -50 60.5t-72 45.5q-25 11 -56 17t-63 6q-54 0 -127.5 -21t-158.5 -58q-29 -17 -74 -31t-90 -25q-28 -5 -54 -7.5t-50 -2.5q-66 0 -136.5 27.5t-155.5 87.5v112q43 -41 82.5 -70t77.5 -47
t75.5 -26.5t76.5 -8.5q36 1 66 9q23 5 46.5 11.5t48.5 16.5q47 17 143 64q51 24 107 36.5t121 12.5q38 0 79 -9.5t80 -23.5q20 -10 49.5 -28t66.5 -47v119z" />
    <glyph glyph-name="Charu_Chandan.214" horiz-adv-x="1418" 
d="M823 1184q92 -41 108 -118v1q8 -21 10 -37.5t2 -31.5q0 -21 -4.5 -39.5t-12.5 -38.5q-11 -26 -28 -50t-37 -44q-36 -34 -77.5 -51.5t-92.5 -17.5q-25 0 -37 4h1q-90 21 -181 125q-45 -46 -95.5 -80.5t-95.5 -47.5v1q-2 -2 -10 -2h-19q-45 0 -88 16.5t-76 45.5
q-21 22 -39 48t-29 49q-8 21 -12.5 40.5t-4.5 41.5q0 14 1.5 26t7.5 28v-1q8 46 34.5 79t74.5 51q2 0 3.5 0.5t6.5 2.5l39 -71l-12 -2q-28 -12 -47.5 -37.5t-26.5 -57.5q-2 -25 3 -50t16 -46q75 -98 166 -83h-1q48 14 84.5 37.5t56.5 61.5q14 26 20.5 54.5t6.5 54.5t-7 59.5
t-19 63.5q-54 121 -157 189.5t-247 78.5h-17v77q97 -2 170 -21t133 -50q49 -30 96.5 -83t85.5 -122q130 183 287 183h8q118 -11 200.5 -67.5t170.5 -176.5v403h84v-67h291v-78h-291v-1462h-84v8l-2 8l-15 29l-5 13l-8 19q-9 16 -22.5 32.5t-30 31.5t-35 27.5t-37.5 20.5
q-24 11 -55 16t-63 5q-57 0 -124 -18t-153 -57v1q-2 -2 -4 -2q-32 -19 -75 -32t-85 -24l-9 -2q-27 -5 -53.5 -8.5t-49.5 -3.5q-67 2 -138.5 29.5t-154.5 88.5v112q82 -75 159.5 -114t152.5 -39l13 2q14 2 27.5 3.5t25.5 4.5q23 5 46.5 11.5t48.5 16.5q21 7 51 20t64 30
l28 13q50 23 108 36t121 13q38 0 77 -8.5t81 -25.5q23 -9 52 -26.5t64 -44.5v812q-18 52 -46 107t-57 97q-55 75 -125 120.5t-145 45.5q-83 0 -142.5 -47t-91.5 -126q-10 -29 -17.5 -63.5t-7.5 -59.5q0 -28 9 -60t21 -58q17 -26 53 -50t86 -41q38 2 73 13.5t62 34.5v-1
q60 54 48 134q-8 32 -28.5 57.5t-52.5 39.5z" />
    <glyph glyph-name="Charu_Chandan.215" horiz-adv-x="1408" 
d="M285 510q27 -23 59.5 -48.5t67.5 -51t71.5 -50.5t71.5 -46q104 -59 254.5 -120.5t341.5 -118.5v499q-70 105 -195.5 213t-309.5 214q-48 -60 -93 -120t-93 -120q-35 -46 -71.5 -92t-74.5 -94l-34 -43zM1151 1434h-823q103 -85 181 -169t126 -161q119 -60 250.5 -156
t265.5 -224v710zM1151 -17q-197 54 -361.5 119.5t-281.5 135.5q-106 66 -196.5 135t-158.5 141l414 525q-84 152 -200 251t-254 144h-192v78h1568v-78h-255v-1748h-79l-13 28l-4 7l-6 14l-5 10q1 -1 -1.5 5t-4.5 9q-9 16 -23 32t-30.5 30.5t-34.5 27t-36 21.5
q-26 11 -56.5 17t-63.5 6q-56 0 -128.5 -21t-157.5 -58q-29 -17 -74 -31t-90 -25q-27 -5 -53 -7.5t-49 -2.5q-66 0 -138 27.5t-154 87.5v113q82 -79 158 -115.5t152 -37.5q18 1 35.5 3t31.5 6q22 5 46 11.5t47 16.5q24 8 51.5 21t68.5 32l24 11q51 23 108 36t120 13
q38 0 80 -9.5t79 -23.5q21 -9 50 -26t67 -49v118z" />
    <glyph glyph-name="Charu_Chandan.216" horiz-adv-x="1562" 
d="M1300 327q-96 150 -238.5 231.5t-328.5 82.5q-17 -59 -35.5 -103t-38.5 -73q-20 -24 -47.5 -45t-59.5 -37.5t-67.5 -28t-71.5 -16.5h-9q-67 0 -122 28t-104 85q-16 22 -33 57t-26 64q-6 20 -8 38t-2 33q0 45 13 78q17 47 48.5 85t90.5 64l6 -13q0 -2 6 -30v1l6 -21l4 -21
q-25 -17 -46.5 -41.5t-31.5 -47.5v-6q-6 -15 -8 -27t-2 -23q0 -12 0.5 -23t1.5 -18q0 -2 0.5 -2t0.5 -2v-6q7 -22 19 -45t24 -38q32 -39 75 -62t90 -25q53 8 103.5 31.5t83.5 64.5q35 48 55 110.5t20 139.5q0 30 -2.5 63t-8.5 65q-18 82 -56.5 159.5t-97 146.5t-137 128.5
t-177.5 105.5h-240v78h1703v-78h-270v-1462h-79q-11 29 -16.5 42.5t-12.5 27.5q-3 3 -3 6q-18 32 -52.5 63.5t-71.5 48.5q-24 11 -56 16t-64 5q-58 0 -128.5 -19t-153.5 -58q-32 -17 -78.5 -31.5t-90.5 -25.5q-28 -5 -53.5 -8.5t-48.5 -3.5q-67 1 -139 29.5t-153 88.5v112
q85 -81 160 -117t150 -36q20 1 36.5 3.5t30.5 6.5q23 5 46 11.5t46 16.5q15 5 38.5 14t47.5 20l36 17l23 11q50 23 107 36.5t122 13.5q74 0 159 -34q46 -16 116 -71v170zM1300 1434h-926q150 -115 238.5 -249t127.5 -280q5 -26 6.5 -50.5t1.5 -49.5v-38q0 -3 -0.5 -6.5
t-0.5 -7.5v-28q164 -8 299.5 -68.5t253.5 -175.5v953z" />
    <glyph glyph-name="Charu_Chandan.217" horiz-adv-x="1567" 
d="M1300 327q-96 150 -238.5 231.5t-328.5 82.5q-17 -59 -35.5 -103t-38.5 -73q-20 -24 -47.5 -45t-59.5 -37.5t-67.5 -28t-71.5 -16.5h-9q-67 0 -122 28t-104 85q-16 22 -33 57t-26 64q-6 20 -8 38t-2 33q0 45 13 78q17 47 48.5 85t90.5 64l6 -13q0 -2 6 -30v1l6 -21l4 -21
q-25 -17 -46.5 -41.5t-31.5 -47.5v-6q-6 -15 -8 -27t-2 -23q0 -12 0.5 -23t1.5 -18q0 -2 0.5 -2t0.5 -2v-6q7 -22 19 -45t24 -38q32 -39 75 -62t90 -25q53 8 103.5 31.5t83.5 64.5q35 48 55 110.5t20 139.5q0 30 -2.5 63t-8.5 65q-18 82 -56.5 159.5t-97 146.5t-137 128.5
t-177.5 105.5h-240v78h1703v-78h-270v-1462h-79q-11 29 -16.5 42.5t-12.5 27.5q-3 3 -3 6q-18 32 -52.5 63.5t-71.5 48.5q-24 11 -56 16t-64 5q-58 0 -128.5 -19t-153.5 -58q-32 -17 -78.5 -31.5t-90.5 -25.5q-28 -5 -53.5 -8.5t-48.5 -3.5q-67 1 -139 29.5t-153 88.5v112
q85 -81 160 -117t150 -36q20 1 36.5 3.5t30.5 6.5q23 5 46 11.5t46 16.5q15 5 38.5 14t47.5 20l36 17l23 11q50 23 107 36.5t122 13.5q74 0 159 -34q46 -16 116 -71v170zM1300 1434h-926q150 -115 238.5 -249t127.5 -280q5 -26 6.5 -50.5t1.5 -49.5v-38q0 -3 -0.5 -6.5
t-0.5 -7.5v-28q164 -8 299.5 -68.5t253.5 -175.5v953z" />
    <glyph glyph-name="Charu_Chandan.218" horiz-adv-x="1254" 
d="M-88 1512h1462v-78h-1462v78zM544 946q-5 0 -11.5 -0.5t-15.5 -3.5l-3 82q7 2 13 2h13h7q82 0 134 -71q42 -53 42 -117q0 -24 -9 -54q-25 -85 -136 -135l-7 -1q-27 -8 -52.5 -12t-48.5 -4q-26 0 -56.5 6t-57.5 14q-66 25 -119.5 78t-81.5 133q-6 25 -8.5 45.5t-2.5 38.5
q0 36 7.5 72t19.5 70q30 71 89 129.5t144 94.5q38 13 80 20.5t90 7.5q22 0 48.5 -2t49.5 -7q43 -10 88.5 -28t88 -44t81 -59.5t68.5 -73.5q33 -51 50 -110.5t20 -127.5q1 -7 1 -14.5v-15.5q0 -84 -31 -158.5t-89 -144.5q-158 -176 -494 -226l-56 1q97 -48 145.5 -67
t93.5 -37t85.5 -35t71.5 -30q37 -15 81 -34t89.5 -39.5t90.5 -41.5t84 -40l-22 -44q-2 -5 -6 -13.5t-7 -13.5l-47 20v-270h-81l-31 73q-20 32 -53.5 63t-69.5 48q-51 23 -122 23q-56 0 -127.5 -21t-155.5 -58q-31 -17 -75 -31t-92 -25q-27 -5 -53 -7.5t-49 -2.5
q-65 0 -137.5 27.5t-154.5 87.5v113q165 -151 311 -153q17 1 34.5 3t31.5 6l8 2h-1q20 5 42.5 11t44.5 14q20 6 55 22.5t89 42.5q51 24 106.5 36.5t120.5 12.5q39 0 81 -9.5t80 -23.5q20 -9 50 -27t65 -47v128q-50 22 -102 46t-103.5 46.5t-101 44t-93.5 39.5
q-121 50 -234.5 94t-220.5 82l10 33q2 10 6 21t6 21q60 -9 109 -13.5t98 -4.5q86 0 177 20t167 51q63 29 116.5 62t83.5 67h-1q100 115 100 260q0 14 -1 30.5t-3 30.5q-7 42 -20.5 84t-30.5 71q-64 81 -144 129.5t-176 55.5q-3 1 -8.5 1h-11.5h-17q-42 0 -78 -4.5t-70 -18.5
q-78 -32 -126.5 -86.5t-71.5 -120.5q-8 -23 -10.5 -45.5t-2.5 -42.5q0 -30 3 -51v1q59 -152 183 -180q14 -2 30 -3.5t34 -1.5q22 0 42.5 2.5t38.5 7.5q34 17 56.5 40.5t33.5 45.5q4 12 4 27q0 19 -8 38t-19 36q-13 17 -32 27t-43 10z" />
    <glyph glyph-name="Charu_Chandan.219" horiz-adv-x="1338" 
d="M514 977q10 -8 25.5 -18t32 -21t33.5 -21.5t31 -19.5q7 -5 13 -9t11 -6q42 -27 92.5 -55t106 -55.5t113 -53t112.5 -46.5v762h-261zM1084 -7q-75 18 -155 46t-161 63.5t-161 76t-156 84.5q-104 65 -194.5 134t-151.5 137l610 900h-778v78h1492v-78h-262v-1748h-79l-13 28
l-4 7l-5 11l-7 19q-1 2 -2.5 4.5t-1.5 3.5q-18 32 -52.5 63t-71.5 48q-51 23 -121 23q-56 0 -127.5 -21t-156.5 -58q-30 -17 -74 -31t-92 -25q-27 -5 -53 -7.5t-49 -2.5q-66 0 -138 27.5t-154 87.5v112q43 -42 82.5 -71t77.5 -47t75.5 -26t75.5 -8q37 1 67 9l7 2h-1
q20 5 42.5 11t44.5 14q20 6 55 22.5t88 42.5q51 24 107 36.5t121 12.5q39 0 80.5 -9.5t80.5 -23.5q20 -9 50 -27t65 -47v127zM1084 564q-125 56 -246 120t-224 128q-5 1 -8.5 2.5t-6.5 3.5l-10 6l-27 18l-27 20q-12 7 -22 15q-8 6 -18.5 13t-27.5 17l-125 -181
q-31 -45 -62.5 -92.5t-62.5 -92.5q66 -58 137 -112t143 -96q143 -87 290.5 -150t296.5 -105v486z" />
    <glyph glyph-name="Charu_Chandan.220" horiz-adv-x="1333" 
d="M1167 -314h-79l-13 28l-4 7l-5 11l-7 19q-1 2 -2.5 4.5t-1.5 3.5q-18 32 -52.5 63t-71.5 48q-51 23 -121 23q-56 0 -127.5 -21t-156.5 -58q-30 -17 -74 -31t-92 -25q-27 -5 -53 -7.5t-49 -2.5q-66 0 -138 27.5t-154 87.5v112q43 -42 82.5 -71t77.5 -47t75.5 -26t75.5 -8
q37 1 67 9l7 2h-1q20 5 42.5 11t44.5 14q20 6 55 22.5t88 42.5q51 24 107 36.5t121 12.5q39 0 80.5 -9.5t80.5 -23.5q20 -9 50 -27t65 -47v127q-75 18 -155 46t-161 63.5t-161 76t-156 84.5q-104 65 -194.5 134t-151.5 137l610 900h-778v78h1492v-78h-262v-1748zM1084 1434
h-261l-606 -893q66 -58 137 -112t143 -96q143 -87 290.5 -150t296.5 -105v1356zM444 -41l-18 11q-7 4 -15 9t-15 8l-26 12l-11 7l-16 11q-40 24 -97.5 62t-125.5 92q6 10 17.5 25t26.5 33l8 12q31 -24 64 -47t64 -44.5t59 -40t50 -32.5l82 -44l7 -5l5 -3v1q1 -1 2 -1.5
t4 -3.5v1l9 -5z" />
    <glyph glyph-name="Charu_Chandan.221" horiz-adv-x="2000" 
d="M1212 0q-107 29 -207.5 69t-192 87t-171.5 100.5t-146 109.5q-41 -17 -68.5 -23.5t-53.5 -8.5q-40 0 -71 9q-32 11 -57.5 25.5t-42.5 31.5l-6 6h1l-18 18l-7 8q-9 12 -26 56l8 1l18 4q2 0 2.5 0.5t2.5 0.5q2 1 7 1l8 3q2 0 3.5 0.5t3.5 0.5l13 4q1 0 11 2h-1l20 7
q2 -14 10 -28t16 -26q5 -3 9 -5.5t6 -6.5q21 -10 44 -16t42 -4q21 1 46 5.5t45 15.5q11 3 34 24l34 34h-1l26 43q4 4 4 7l6 12v-1q1 3 2.5 6t2.5 6q22 80 19 120q0 19 -4 44.5t-13 54.5l-4 10q-4 9 -7.5 18t-6.5 15l2 3q10 -8 4 3.5t-36 48.5l-29 44v-5l-6 4l-4 -7l-8 -5
l-12 -11q-14 -10 -29.5 -18t-30.5 -14l-4 -1h1q-23 -8 -48.5 -12.5t-56.5 -4.5q-9 0 -18.5 1t-20.5 3q-29 9 -51 20.5t-36 22.5l-16 16q-7 7 -11.5 11t-5.5 6q-5 6 -9 13.5t-7 12.5l-3 6l-4 7q-4 13 -6.5 32.5t-3.5 48.5q12 -5 20 -6.5t13 -2.5q7 -4 17 -6q1 0 3 -0.5
t4 -0.5q3 -1 6 -1q2 -2 4 -2h5l13 -7q5 -17 9 -22q5 -14 22 -29.5t38 -28.5q10 -7 44 -7h14t16 1h4q1 0 1.5 0.5t2.5 0.5q22 6 43.5 16t35.5 23q12 10 26.5 29.5t30.5 50.5v-1q2 11 3.5 29.5t0.5 40.5q-1 20 -6 44t-14 41l-4.5 9t-4.5 8l-18 32l-16 23l-23 29l-21 17l-37 27
l-20 9l-25 12l-45 21q-5 2 -21.5 8t-40.5 11h-71q-18 0 -36 0.5t-35 0.5h-130v78h2188v-78h-804v-366q74 16 126.5 23t85.5 7q170 0 280 -92q65 -49 97 -110.5t36 -137.5t-24 -137.5t-80 -107.5q-26 -23 -62.5 -36t-82.5 -13q-26 0 -56 6q-109 28 -163 144q-6 17 -10 34.5
t-4 37.5t5.5 41.5t18.5 53.5l29 -17l10 -6l10 -3l1 -4q1 -1 4 -1l23 -14q-8 -18 -11.5 -33t-3.5 -23t2 -18t7 -22q28 -75 101 -87q11 -4 22.5 -4.5t25.5 -0.5q20 0 38 5.5t32 15.5q41 35 63 83t20 105q-2 51 -27.5 97.5t-71.5 84.5q-95 75 -231 75q-83 0 -210 -36v-1292h-82
l-7 19q-6 13 -15 31t-14 31q-17 29 -50.5 57.5t-68.5 45.5q-25 11 -55.5 17t-64.5 6q-56 0 -128.5 -21t-157.5 -58q-29 -17 -74.5 -31t-89.5 -25q-28 -5 -54 -7.5t-49 -2.5q-69 0 -139 27t-155 88v113q86 -83 161 -118t152 -35q35 2 68 9q17 4 41 11.5t51 16.5q21 8 52.5 21
t63.5 30l27 13q51 23 107.5 36t121.5 13q40 0 79 -8.5t79 -24.5q24 -8 53.5 -27t64.5 -47v134zM1212 963q-134 4 -224.5 37t-144.5 96h1q-93 105 -93 274v21v8t2 9v26h-358q15 -15 32.5 -33t34.5 -37.5t33.5 -39.5t29.5 -38q4 -5 6.5 -10.5t4.5 -10.5l4 -8q20 -52 25 -114
q2 -15 1 -31.5t-5 -33.5l-17 -69q8 -11 15 -22t15 -21l7 -9l5 -7l8 -14l1 1q19 -24 35 -53.5t24 -56.5q11 -32 18 -64t9 -64q1 -27 -5 -61t-18 -69q0 -1 -0.5 -1.5t-0.5 -1.5q-2 -11 -5 -18.5l-5 -12.5t-4.5 -11t-4.5 -11l-3 -6q-5 -11 -14 -25t-29 -37l-4 -4q-7 -7 -22 -29
q124 -106 283.5 -184.5t362.5 -138.5v874zM1212 1434h-373q-2 -14 -2.5 -21.5t-0.5 -14.5v-20q0 -72 17.5 -129.5t52.5 -99.5h-1q39 -45 115.5 -71.5t191.5 -28.5v385z" />
    <glyph glyph-name="Charu_Chandan.222" horiz-adv-x="1661" 
d="M1287 1060q23 -14 44 -39l-67 -37l-22 10t-19 5q-5 0 -12 -2.5t-12 -4.5q-63 -25 -61 -96q0 -44 42 -84v1q26 -20 53 -29t56 -4h-1q40 11 72 31.5t51 53.5q13 23 20.5 51t7.5 54q0 21 -7 51.5t-17 57.5q-20 47 -57 90.5t-92 81t-130 69t-172 54.5v-662
q102 -30 188.5 -67.5t154 -81.5t113.5 -94.5t67 -105.5q13 -37 20 -71.5t7 -70.5t-8 -68.5t-22 -65.5q-27 -43 -76 -75t-104 -45q-2 0 -3 -0.5t-3 -0.5h-4q-2 0 -3 -0.5t-2 -0.5q-2 -1 -6 -1h-6q-42 -3 -79.5 10.5t-66.5 39.5q-70 67 -70 137q0 8 0.5 19t4.5 27
q9 42 32.5 73t65.5 46q14 5 29 9t33 4q17 0 35 -4.5t23 -7.5q28 -14 51 -39l6 -12q-8 -3 -15 -6.5t-12 -5.5l-25 -10l-19 -7l-7 5q-25 10 -35 10q-20 0 -45 -13t-36 -39q-5 -11 -7 -21.5t-2 -14.5v-13q0 -44 41 -82v1q20 -16 42 -25t48 -9q17 0 29 3q2 0 2.5 0.5t2.5 0.5
q33 9 62 29.5t46 51.5q13 22 20.5 49.5t7.5 53.5q0 22 -6.5 53.5t-17.5 58.5q-20 42 -58.5 83.5t-95 79t-131 70t-166.5 57.5v-912q-32 5 -58 9.5t-47 9.5q-109 29 -233.5 82.5t-248.5 126.5q-91 54 -161 110t-123 113l333 485l-27 18q-56 36 -106.5 70.5t-80.5 59.5
q-29 23 -59 50.5t-61 59.5l355 526h-518v78h1828v-78h-715l94 -30q10 -4 18 -10q129 -55 215.5 -128t117.5 -160q12 -35 19.5 -71t7.5 -71t-7.5 -67t-21.5 -64q-15 -19 -35 -37.5t-41.5 -35t-43 -28.5t-39.5 -17q-19 -5 -34 -8.5t-22 -3.5q-78 0 -139 55q-35 32 -52.5 67
t-17.5 70q0 8 8 46q7 42 32 73t64 46q15 8 31 11t30 3q12 0 27.5 -4t33.5 -10zM203 917q57 -51 112 -89.5t106 -71.5q104 -62 221 -113.5t235 -84.5v876h-323zM205 174q22 -18 49 -38.5t55 -42t56.5 -42.5t54.5 -39q102 -59 219 -110t238 -88v656q-88 25 -183 61t-192 84z
" />
    <glyph glyph-name="Charu_Chandan.223" horiz-adv-x="2007" 
d="M490 1434l-330 -488q22 -20 48.5 -41t54 -41.5t55 -38.5t51.5 -33q52 -31 110.5 -60t118.5 -55.5t120 -48.5t115 -38v844h-343zM1486 511q2 11 2 19.5t-6 20.5l67 40q8 -14 12.5 -29t4.5 -34q0 -12 -1.5 -25.5t-6.5 -33.5q-15 -43 -44 -70.5t-67 -41.5q-27 -10 -70 -10
t-69 10q-67 27 -116 76.5t-63 121.5v-1q-7 27 -7 57q0 42 17 89t42 85q54 60 122 101t134 52q17 2 32 3t30 1q66 0 125 -18t113 -53q56 -38 95 -87.5t59 -112.5q6 -29 10 -56t4 -47q0 -38 -7 -75.5t-24 -75.5q-49 -112 -138.5 -195t-219.5 -136q-110 -35 -227.5 -57.5
t-242.5 -22.5q-47 0 -91 4t-85 11q-7 0 -17 1t-20 4v487q-129 26 -253.5 80t-253.5 129q-79 51 -146.5 104.5t-124.5 109.5l336 498h-479v78h1817q0 2 0.5 4t0.5 6v10l4 12q5 13 7.5 28t4.5 29q0 2 0.5 5t0.5 5q4 21 6 45.5t2 41.5q0 54 -11 103.5t-37 94.5
q-23 35 -57.5 65.5t-77 55.5t-92.5 43.5t-104 30.5q-29 5 -65 7.5t-67 3.5q-127 -11 -255 -61t-249 -137l-14 14q-7 8 -13 15q-5 6 -10 12.5t-8 11.5h1q-6 6 -7 8q68 45 136 83t139 68q75 31 153.5 46.5t164.5 13.5q25 0 51 -2t55 -8q135 -24 233.5 -85.5t152.5 -149.5
q29 -54 43 -111t14 -119q0 -17 -1.5 -40.5t-5.5 -46.5l-3 -14q-3 -14 -6.5 -36.5t-10.5 -51.5h287v-78h-983q108 -49 158.5 -99.5t73.5 -98.5q10 -31 15.5 -57.5t5.5 -51.5q0 -29 -6.5 -55.5t-21.5 -51.5q-43 -74 -135 -94h1q-11 -4 -28 -4q-27 0 -55 11t-51 30
q-26 28 -40.5 55.5t-14.5 54.5q0 8 1.5 23.5t7.5 34.5q3 14 9 25t20 22q8 -12 24 -25l24 -26q-11 -12 -14 -31q-13 -43 24 -79v1q15 -13 37.5 -19t42.5 -6q54 14 82 55l5 8q8 20 12 39t4 34q0 19 -4 42t-12 43q-30 64 -118.5 120.5t-240.5 95.5v-1336q50 -5 84 -6.5t58 -1.5
q113 0 218 17t215 59q112 43 190.5 115.5t123.5 168.5q11 29 17.5 59t6.5 60q0 20 -3.5 40.5t-9.5 43.5v-1q-14 48 -43.5 86t-77.5 69q-51 29 -102 44.5t-105 15.5q-11 0 -21 -0.5t-18 -1.5q-51 -8 -103 -40t-94 -83q-9 -14 -17.5 -30t-15.5 -33.5t-11 -34t-4 -30.5
q0 -29 3 -47v1q13 -44 44 -77t82 -52q17 -7 30 -8.5t25 -1.5q71 0 99 85z" />
    <glyph glyph-name="Charu_Chandan.224" horiz-adv-x="2007" 
d="M1553 583q13 -23 13 -55q0 -12 -1.5 -25.5t-6.5 -33.5q-15 -43 -44 -70.5t-67 -41.5q-27 -10 -70 -10t-69 10q-67 27 -116 76.5t-63 121.5v-1q-7 27 -7 57q0 42 17 89t42 85q54 60 122 101t134 52q17 2 32 3t30 1q66 0 125 -18t113 -53q56 -38 95 -87.5t59 -112.5
q6 -29 10 -56t4 -47q0 -36 -8 -74l-4 -21v-787h-87q-4 20 -9 34t-10 25l-2 5l-1 3l-1 4v-1l-3 8q-9 16 -22.5 32t-29.5 30.5t-34.5 27t-36.5 20.5q-25 11 -57 17t-64 6q-56 0 -128.5 -21t-157.5 -58q-29 -17 -74 -31.5t-90 -25.5q-53 -10 -101 -10q-68 0 -138.5 27.5
t-155.5 88.5v114q83 -78 160 -115.5t152 -38.5q35 1 67 9q2 0 2 0.5t2 0.5q20 5 42.5 11.5t45.5 15.5q27 10 61 25.5t83 38.5q51 24 106.5 37t121.5 13q79 0 159 -34q23 -9 50.5 -26t65.5 -49v431q-36 -43 -52 -60t-21 -21q-45 -37 -101.5 -71.5t-118.5 -61.5
q-110 -35 -227.5 -57.5t-242.5 -22.5q-47 0 -91 4t-85 11q-7 0 -17 1t-20 4v487q-129 26 -253.5 80t-253.5 129q-79 51 -146.5 104.5t-124.5 109.5l336 498h-479v78h1817q0 2 0.5 4t0.5 6v10l4 12q5 13 7.5 28t4.5 29q0 2 0.5 5t0.5 5q4 21 6 45.5t2 41.5q0 54 -11 103.5
t-37 94.5q-23 35 -57.5 65.5t-77 55.5t-92.5 43.5t-104 30.5q-29 5 -65 7.5t-67 3.5q-127 -11 -255 -61t-249 -137l-14 14q-7 8 -13 15q-5 6 -10 12.5t-8 11.5h1q-6 6 -7 8q68 45 136 83t139 68q75 31 153.5 46.5t164.5 13.5q25 0 51 -2t55 -8q135 -24 233.5 -85.5
t152.5 -149.5q29 -54 43 -111t14 -119q0 -17 -1.5 -40.5t-5.5 -46.5l-3 -14q-3 -14 -6.5 -36.5t-10.5 -51.5h287v-78h-975q100 -49 150.5 -99.5t73.5 -98.5q10 -31 15.5 -57.5t5.5 -51.5q0 -29 -6.5 -55.5t-21.5 -51.5q-43 -74 -135 -94h1q-11 -4 -28 -4q-27 0 -55 11
t-51 30q-26 28 -40.5 55.5t-14.5 54.5q0 8 1.5 23.5t7.5 34.5q3 14 9 25t20 22q8 -12 24 -25l24 -26q-11 -12 -14 -31q-13 -43 24 -79v1q15 -13 37.5 -19t42.5 -6q54 14 82 55l5 8q8 20 12 39t4 34q0 19 -4 42t-12 43q-30 64 -118.5 120.5t-240.5 95.5v-1336q50 -5 84 -6.5
t58 -1.5q113 0 218 17t215 59q112 43 190.5 115.5t123.5 168.5q11 29 17.5 59t6.5 60q0 20 -3.5 40.5t-9.5 43.5v-1q-14 48 -43.5 86t-77.5 69q-51 29 -102 44.5t-105 15.5q-11 0 -21 -0.5t-18 -1.5q-51 -8 -103 -40t-94 -83q-9 -14 -17.5 -30t-15.5 -33.5t-11 -34t-4 -30.5
q0 -29 3 -47v1q13 -44 44 -77t82 -52q17 -7 30 -8.5t25 -1.5q37 0 61 22.5t41 70.5q2 5 2.5 9t-3.5 13zM490 1434l-330 -488q22 -20 48.5 -41t54 -41.5t55 -38.5t51.5 -33q52 -31 110.5 -60t118.5 -55.5t120 -48.5t115 -38v844h-343z" />
    <glyph glyph-name="Charu_Chandan.225" horiz-adv-x="1487" 
d="M1115 1121q-5 -7 -7 -19q-5 -22 3 -45t23 -39q15 -11 33.5 -17.5t33.5 -7.5q31 9 54.5 23.5t34.5 31.5l7 7h-1q8 20 13 36.5t5 37.5q0 16 -5 38t-13 48q-28 65 -117.5 121t-241.5 94v-838q57 -14 105 -40t91 -69q32 -32 54.5 -78t35.5 -97q8 -32 11.5 -61.5t3.5 -52.5
q0 -51 -15 -123q-13 -54 -40.5 -104.5t-69.5 -93.5q-127 -114 -331 -114q-61 0 -127.5 21t-128.5 56q-106 62 -185.5 174.5t-127.5 273.5q20 2 22 3t7 3l8 2l38 9q42 -150 112 -249.5t173 -156.5q49 -32 98 -46t103 -14h8q98 0 173.5 31t128.5 90q26 32 42 66t24 63v-1
q6 26 8.5 53t2.5 56q0 23 -1 45t-6 39q-11 46 -32 86t-45 63q-36 33 -79.5 58t-85.5 36h-18q-2 0 -2.5 0.5t-2.5 0.5h-16q-10 0 -12 1q-2 -1 -5.5 -1h-5.5q-2 -1 -10 -1h-7l-9 -1q-2 -2 -5.5 -3t-5.5 -1q-46 -9 -85 -36.5t-63 -73.5q-5 -20 -8 -35t-3 -27q0 -14 1 -22t3 -16
q6 -18 14 -32t16 -21q23 -19 48 -31t54 -12q26 0 41 4q11 2 24.5 8.5t31.5 16.5l54 -53q-36 -25 -65 -34.5t-57 -13.5q-8 -2 -17 -2.5t-17 -0.5q-39 0 -80.5 17.5t-79.5 54.5q-12 17 -24.5 39t-16.5 43q-4 15 -5.5 29t-1.5 25q0 24 5.5 48t13.5 45q11 23 34.5 51.5
t65.5 69.5q-101 40 -186.5 81.5t-159.5 86.5q-77 48 -145.5 103t-123.5 111l333 496h-478v78h1669v-78h-438q51 -33 82 -56.5t46 -40.5h-1q26 -26 42 -50.5t22 -42.5q14 -32 20.5 -63t6.5 -54q0 -26 -7 -53t-21 -50q-20 -36 -55 -61t-84 -36q-5 -1 -10.5 -1.5t-11.5 -0.5
q-30 0 -58 10.5t-52 32.5q-52 53 -52 106q0 11 1 24.5t6 27.5q2 14 6 24t18 23zM188 938q41 -35 92.5 -72t111.5 -71q51 -31 108 -61t117 -56t120.5 -48t119.5 -37v841h-343l-40 -59q-69 -102 -141.5 -209.5t-141.5 -209.5v1z" />
    <glyph glyph-name="Charu_Chandan.226" horiz-adv-x="2009" 
d="M2099 1434h-2166v78h2166v-78zM1350 689h1q-13 -18 -28.5 -39t-38.5 -47q23 -29 44 -66.5t33 -72.5q21 -63 21 -114q0 -48 -14 -87v1q-5 -29 -22.5 -60.5t-44.5 -68.5q-50 -67 -124 -108.5t-160 -52.5q-14 -1 -30.5 -1.5t-33.5 -0.5q-250 0 -447 170q-32 26 -72 69.5
t-81 96.5q-36 52 -71.5 112.5t-69 128t-63 139.5t-52.5 146l78 27q45 -147 109 -274t136 -230q41 -53 75.5 -93t63.5 -61q87 -75 183.5 -113t206.5 -38q32 0 61 3q69 7 126 39t99 86q18 26 34 57t24 58v-1q3 12 5 25.5t2 30.5q0 23 -4 47.5t-15 47.5q-10 29 -25 57t-38 56
q-63 -32 -135 -48.5t-146 -16.5q-6 0 -19.5 0.5t-24.5 1.5h-4q-1 0 -2 0.5t-2 0.5q-2 0 -5 3l6 64v5q0 2 0.5 3.5t0.5 3.5q20 -2 34.5 -3t27.5 -1q68 0 136 17h-1q89 24 144.5 77.5t80.5 128.5q10 37 10 87q0 26 -3 50q-5 38 -19 80.5t-33 74.5q-42 63 -112 112.5t-155 69.5
q-16 3 -34.5 4.5t-36.5 1.5q-54 0 -107.5 -18.5t-101.5 -56.5q-18 -16 -36 -45t-29 -56q-10 -31 -10 -69q0 -29 10 -60l2 -10q7 -29 29 -53t58 -41q20 -11 38 -15t38 -4q17 0 31.5 3t29.5 11q24 9 37.5 38t15.5 85h15.5t12.5 -1q2 0 5.5 -0.5t6.5 -0.5q11 -1 20.5 -1h19.5
q-4 -52 -17 -92t-33 -66q-12 -11 -25.5 -21.5t-24.5 -15.5q-45 -22 -94 -22q-28 0 -56 8t-54 22q-52 29 -87.5 70t-46.5 91v-1q-5 17 -8.5 36.5t-3.5 40.5q0 22 2 45t9 43q13 44 37.5 81t56.5 64q48 38 106.5 60t122.5 28h-1q5 2 9.5 2h10.5h31q15 0 33 -1.5t35 -6.5h-1
q106 -26 189.5 -83t131.5 -136q26 -42 42.5 -93t22.5 -102q1 -7 1 -21v-29l58 24q29 12 60.5 19.5t66.5 12.5q21 2 49.5 0.5t57.5 -8.5q48 -10 96.5 -40t84.5 -65l6 -7q8 -12 17 -27t17 -33q15 -35 23.5 -70.5t8.5 -68.5q0 -21 -3.5 -40.5t-11.5 -41.5q-13 -39 -39.5 -71
t-64.5 -51q-9 -4 -26 -9q-3 -2 -8 -2.5t-13 -4.5q-29 -6 -54 -6q-30 0 -56.5 8.5t-48.5 22.5q-31 24 -51 62t-26 77l52 -2q3 0 6 -0.5t6 -0.5h15q2 0 5 -0.5t5 -0.5q3 -31 25 -56q12 -13 25.5 -22.5t25.5 -12.5q13 -3 26.5 -3t25.5 2q13 2 28 8.5t29 18t25.5 28.5t17.5 40
q4 15 6 31t2 34q0 37 -14 75.5t-37 73.5q-18 21 -42.5 39.5t-50.5 29.5q-27 10 -55 15t-53 4q-26 -1 -46.5 -3t-32.5 -6q-8 -2 -19.5 -6.5t-28.5 -12.5q-29 -13 -55.5 -34.5t-47.5 -47.5q-5 -8 -11 -20t-11 -23l-6 -7h1z" />
    </font>
</defs>
</svg>
