<?xml version="1.0" standalone="no"?>
<!DOCTYPE svg PUBLIC "-//W3C//DTD SVG 1.1//EN" "http://www.w3.org/Graphics/SVG/1.1/DTD/svg11.dtd" >
<svg xmlns="http://www.w3.org/2000/svg" xmlns:xlink="http://www.w3.org/1999/xlink" version="1.1">
<metadata>
Created by FontForge 20160407 at Sun Oct 30 05:49:19 2016
 By Jimmy Warting
Glyphs are taken from "Lohit Bengali" made by Automatic Control Equipments, Pune, INDIA &#38; adapted to UNICODE by the contributors of www.ekushey.org

TrueType hintings have been added by Alamigr Mohammed (alamgir99@gmail.com) and  Ershadul Haq (ershad@gmail.com) and distributed as Apona Lohit from http://www.apona-bd.com or http://www.joomla.org.bd

This Font Software is licensed under the SIL Open Font License, Version 1.0.
No modification of the license is permitted, only verbatim copy is allowed.
This license is copied below, and is also available with a FAQ at:
http://scripts.sil.org/OFL
</metadata>
<defs>
<font id="Ekushey_Lohit" horiz-adv-x="0" >
  <font-face 
    font-family="Ekushey Lohit"
    font-weight="400"
    font-stretch="normal"
    units-per-em="769"
    panose-1="2 0 6 0 0 0 0 0 0 0"
    ascent="615"
    descent="-154"
    bbox="-485 -325 1122 760"
    underline-thickness="20"
    underline-position="-310"
    unicode-range="U+0020-25CC"
  />
<missing-glyph horiz-adv-x="800" 
d="M100 0v700h600v-700h-600v0zM150 50h500v600h-500v-600v0z" />
    <glyph glyph-name=".notdef" horiz-adv-x="800" 
d="M100 0v700h600v-700h-600v0zM150 50h500v600h-500v-600v0z" />
    <glyph glyph-name="NULL" 
 />
    <glyph glyph-name="nonmarkingreturn" 
 />
    <glyph glyph-name="space" unicode=" " horiz-adv-x="213" 
 />
    <glyph glyph-name="exclam" unicode="!" horiz-adv-x="410" 
d="M251.5 -28.5q-11.5 11.5 -11.5 28.5q0 14 11.5 24.5t28.5 10.5t28.5 -11.5t11.5 -28.5q0 -14 -11.5 -24.5t-28.5 -10.5t-28.5 11.5zM260 100v450h40v-450h-40z" />
    <glyph glyph-name="quotedbl" unicode="&#x22;" horiz-adv-x="198" 
d="M31 499l-29 158h60l6 -158h-37zM161 499l-29 158h60l6 -158h-37z" />
    <glyph glyph-name="numbersign" horiz-adv-x="732" 
d="M140 338v46h145l37 118h46l-37 -118h154l37 118h47l-37 -118h110v-46h-126l-50 -154h126v-48h-141l-43 -137h-47l44 137h-154l-44 -137h-46l44 137h-115v48h129l50 154h-129zM316 338l-51 -154h155l50 154h-154z" />
    <glyph glyph-name="dollar" horiz-adv-x="565" 
d="M136 149q0 -45 33.5 -82t85.5 -50v219q-65 7 -109 49t-44 97q0 53 43.5 93.5t109.5 48.5v86h49v-86q67 -8 111.5 -52t44.5 -102h-48q0 41 -31 72t-77 38v-208q74 -10 122.5 -52t48.5 -94q0 -58 -49 -101.5t-122 -51.5v-69h-49v69q-71 10 -118 60t-47 116h46zM304 17
q54 6 90.5 37t36.5 72q0 40 -36.5 69.5t-90.5 33.5v-212zM255 480q-46 -9 -76 -36.5t-30 -61.5q0 -37 30 -66.5t76 -36.5v201z" />
    <glyph glyph-name="percent" horiz-adv-x="711" 
d="M105 0l460 500h55l-465 -500h-50zM424.5 31.5q-33.5 41.5 -33.5 100.5t33.5 101t81.5 42t81.5 -42t33.5 -101t-33.5 -100.5t-81.5 -41.5t-81.5 41.5zM559 60q22 30 22 72q0 43 -22 73t-53 30t-53 -30t-22 -73q0 -42 22 -72t53 -30t53 30zM125 271q-35 41 -35 99t35 99
t85 41t85 -41t35 -99t-35 -99t-85 -41t-85 41zM262 299.5q23 29.5 23 70.5t-22 70.5t-53 29.5q-33 0 -56.5 -29.5t-23.5 -70.5t22.5 -70.5t54.5 -29.5t55 29.5z" />
    <glyph glyph-name="ampersand" horiz-adv-x="602" 
d="M124.5 204q34.5 45 94.5 80q-35 44 -53 82.5t-18 67.5q0 43 35.5 74t85.5 31q48 0 82.5 -35t34.5 -85q0 -39 -27 -77t-74 -65l109 -142q6 24 9.5 45.5t3.5 40.5h43q0 -39 -6.5 -70.5t-19.5 -53.5l88 -116h-60l-60 71q-25 -36 -64.5 -56.5t-83.5 -20.5q-64 0 -109 41.5
t-45 99.5q0 43 34.5 88zM173 49.5q33 -30.5 79 -30.5q33 0 64.5 19t54.5 52l-128 159q-48 -28 -75.5 -61.5t-27.5 -64.5q0 -43 33 -73.5zM213 377.5q15 -29.5 44 -66.5q36 21 57 50t21 58q0 32 -18 55t-43 23q-31 0 -53.5 -21t-22.5 -50q0 -19 15 -48.5z" />
    <glyph glyph-name="quotesingle" unicode="'" horiz-adv-x="68" 
d="M31 499l-29 158h60l6 -158h-37z" />
    <glyph glyph-name="parenleft" unicode="(" horiz-adv-x="440" 
d="M154.5 -22.5q-64.5 123.5 -64.5 272.5t64.5 272.5t175.5 187.5l20 -30q-102 -59 -161 -174t-59 -256t59 -256t161 -174l-20 -30q-111 64 -175.5 187.5z" />
    <glyph glyph-name="parenright" unicode=")" horiz-adv-x="440" 
d="M90 -180q102 59 161 174t59 256t-59 256t-161 174l20 30q111 -64 175.5 -187.5t64.5 -272.5t-64.5 -272.5t-175.5 -187.5z" />
    <glyph glyph-name="asterisk" horiz-adv-x="465" 
d="M135 520l75 90l-115 -20l-5 60l115 -10l-65 80l55 25l35 -85l40 85l50 -25l-60 -80l115 15v-55l-115 10l85 -90l-55 -30l-50 110l-60 -110z" />
    <glyph glyph-name="plus" horiz-adv-x="580" 
d="M270 50v175h-180v40h180v175h40v-175h180v-40h-180v-175h-40z" />
    <glyph glyph-name="comma" unicode="," horiz-adv-x="320" 
d="M90 -105q43 20 69 47.5t26 52.5q0 2 -1.5 4.5t-3.5 5.5q-6 -5 -16 -7.5t-24 -2.5q-17 0 -28.5 11.5t-11.5 28.5q0 23 16 39t39 16q31 0 53 -23.5t22 -56.5q0 -42 -31 -81t-84 -64z" />
    <glyph glyph-name="hyphen" unicode="-" horiz-adv-x="410" 
d="M90 240v35h230v-35h-230z" />
    <glyph glyph-name="period" unicode="." horiz-adv-x="270" 
d="M103 14q-13 14 -13 33q0 20 13 34t32 14t32 -14t13 -34q0 -19 -13 -33t-32 -14t-32 14z" />
    <glyph glyph-name="slash" horiz-adv-x="610" 
d="M90 -115l400 775l30 -20l-400 -780z" />
    <glyph glyph-name="zero" horiz-adv-x="426" 
d="M90.5 63.5q-43.5 69.5 -43.5 195.5t43.5 196t122.5 70t122.5 -70t43.5 -196t-43.5 -195.5t-122.5 -69.5t-122.5 69.5zM307.5 88.5q33.5 60.5 33.5 170.5t-33.5 171t-94.5 61t-94.5 -61t-33.5 -171t33.5 -170.5t94.5 -60.5t94.5 60.5z" />
    <glyph glyph-name="one" horiz-adv-x="425" 
d="M251 0v394h-115v28h27q37 0 66 27.5t36 69.5h24v-519h-38z" />
    <glyph glyph-name="two" horiz-adv-x="425" 
d="M53 0v46q0 50 47 102t126 89q46 22 73.5 60.5t27.5 81.5q0 45 -33.5 76.5t-80.5 31.5q-45 0 -77 -37.5t-32 -90.5h-41q0 69 44 117.5t106 48.5q66 0 112.5 -43t46.5 -103q0 -52 -36 -100t-97 -76q-66 -31 -106 -71t-40 -75v-24h279v-33h-319z" />
    <glyph glyph-name="three" horiz-adv-x="426" 
d="M95.5 34.5q-48.5 40.5 -48.5 98.5v6h41v-6q0 -43 36.5 -74t88.5 -31t88.5 34.5t36.5 83.5q0 42 -29 72t-70 30h-59v38h59q33 0 56 29.5t23 70.5q0 39 -32.5 66.5t-78.5 27.5q-45 0 -77 -28.5t-32 -69.5v-17h-41l3 27q0 53 43 90t104 37q63 0 107.5 -39t44.5 -94
q0 -43 -20.5 -75.5t-52.5 -41.5q41 -11 67 -45.5t26 -77.5q0 -63 -48.5 -107.5t-117.5 -44.5t-117.5 40.5z" />
    <glyph glyph-name="four" horiz-adv-x="426" 
d="M272 0v121h-232v45l239 353h27v-359h80v-39h-80v-121h-34zM272 160v288l-194 -288h194z" />
    <glyph glyph-name="five" horiz-adv-x="426" 
d="M99.5 32q-47.5 38 -52.5 94h38q7 -41 43.5 -67.5t84.5 -26.5q53 0 90.5 37.5t37.5 90.5q0 56 -37.5 95t-90.5 39q-36 0 -65.5 -12.5t-45.5 -35.5h-35l46 273h240v-39h-208l-34 -186q12 16 40.5 25.5t68.5 9.5q66 0 112.5 -47.5t46.5 -115.5q0 -71 -48.5 -121.5
t-117.5 -50.5q-66 0 -113.5 38z" />
    <glyph glyph-name="six" horiz-adv-x="426" 
d="M90.5 54q-43.5 60 -43.5 178q0 139 49 216t137 77q60 0 103 -35t43 -85h-41q0 34 -31 58t-74 24q-60 0 -102.5 -61t-42.5 -147v-37q14 37 50 60t82 23q66 0 112.5 -48.5t46.5 -116.5q0 -69 -46.5 -117.5t-112.5 -48.5q-86 0 -129.5 60zM305.5 66.5q35.5 38.5 35.5 93.5
q0 54 -35.5 92.5t-85.5 38.5q-51 0 -86.5 -38.5t-35.5 -92.5q0 -55 35.5 -93.5t86.5 -38.5q50 0 85.5 38.5z" />
    <glyph glyph-name="seven" horiz-adv-x="425" 
d="M121 0q0 127 54.5 258t145.5 222h-263v39h309v-34q-93 -93 -149.5 -225.5t-56.5 -259.5h-40z" />
    <glyph glyph-name="eight" horiz-adv-x="426" 
d="M95.5 36.5q-48.5 42.5 -48.5 102.5q0 46 28.5 84.5t74.5 55.5q-37 17 -58.5 47.5t-21.5 65.5q0 55 42 94t101 39t101 -39t42 -94q0 -38 -21.5 -69t-57.5 -44q46 -17 74 -55.5t28 -84.5q0 -60 -48.5 -102.5t-117.5 -42.5t-117.5 42.5zM303.5 60.5q37.5 32.5 37.5 78.5
q0 48 -37.5 81.5t-90.5 33.5t-90.5 -33.5t-37.5 -81.5q0 -46 37.5 -78.5t90.5 -32.5t90.5 32.5zM287 326.5q31 28.5 31 68.5t-31 68t-74 28t-73.5 -28t-30.5 -68t30.5 -68.5t73.5 -28.5t74 28.5z" />
    <glyph glyph-name="nine" horiz-adv-x="426" 
d="M110.5 25.5q-41.5 31.5 -50.5 80.5h38q6 -35 37 -58t72 -23q55 0 94.5 59.5t39.5 142.5v46q-14 -39 -49.5 -63t-78.5 -24q-75 0 -120.5 45.5t-45.5 120.5q0 76 45.5 121.5t120.5 45.5q79 0 122.5 -66.5t43.5 -186.5q0 -129 -45 -200.5t-127 -71.5q-55 0 -96.5 31.5z
M293.5 261.5q34.5 37.5 34.5 90.5t-34.5 90.5t-83.5 37.5q-57 0 -91 -35t-34 -93t34 -93t91 -35q49 0 83.5 37.5z" />
    <glyph glyph-name="colon" unicode=":" horiz-adv-x="270" 
d="M103 299q-13 14 -13 33q0 20 14.5 34t35.5 14q17 0 28.5 -14t11.5 -34q0 -19 -13 -33t-32 -14t-32 14zM103 14q-13 14 -13 33q0 20 13 34t32 14t32 -14t13 -34q0 -19 -13 -33t-32 -14t-32 14z" />
    <glyph glyph-name="semicolon" unicode=";" horiz-adv-x="315" 
d="M90 -105q43 20 69 46t26 49q0 4 -1.5 8t-3.5 7q-6 -5 -15 -7.5t-20 -2.5q-19 0 -32 13t-13 32q0 21 16 35.5t39 14.5q29 0 49.5 -26.5t20.5 -63.5q0 -42 -31.5 -79t-83.5 -56zM114 300q-14 15 -14 37t14 37.5t33 15.5q20 0 34 -15.5t14 -37.5t-14 -37t-34 -15
q-19 0 -33 15z" />
    <glyph glyph-name="less" horiz-adv-x="527" 
d="M90 277l347 207v-54l-298 -180l298 -180v-56l-347 204v59z" />
    <glyph glyph-name="equal" horiz-adv-x="580" 
d="M90 150v30h400v-30h-400zM90 320v30h400v-30h-400z" />
    <glyph glyph-name="greater" horiz-adv-x="527" 
d="M437 218l-347 -204v56l298 180l-298 180v54l347 -207v-59z" />
    <glyph glyph-name="question" unicode="?" horiz-adv-x="476" 
d="M222.5 -33.5q-11.5 11.5 -11.5 28.5q0 14 11.5 24.5t28.5 10.5t28.5 -10.5t11.5 -24.5q0 -17 -11.5 -28.5t-28.5 -11.5t-28.5 11.5zM231 80v105q0 36 17 70t48 60q24 20 37 43.5t13 46.5q0 37 -26.5 63.5t-63.5 26.5q-43 0 -74 -26.5t-31 -63.5v-45h-40v45q0 54 42.5 92
t102.5 38q54 0 92 -38t38 -92q0 -26 -15.5 -56t-44.5 -59q-26 -22 -40.5 -48t-14.5 -52v-110h-40z" />
    <glyph glyph-name="at" horiz-adv-x="814" 
d="M293.5 341.5q40.5 42.5 98.5 42.5q26 0 49.5 -10.5t40.5 -30.5v36h50v-223q0 -15 13 -26t32 -11q41 0 70 40.5t29 98.5q0 99 -76 169t-183 70q-116 0 -198 -76.5t-82 -184.5q0 -98 82 -167t198 -69q45 0 84.5 12t69.5 35l24 -41q-38 -26 -83.5 -40t-94.5 -14
q-135 0 -231 83t-96 201q0 127 96 217t231 90q127 0 217 -83.5t90 -201.5q0 -77 -43 -132t-104 -55q-35 0 -61.5 20t-31.5 51q-14 -25 -39 -39t-53 -14q-59 0 -99 44.5t-40 106.5q0 59 40.5 101.5zM328 169q26 -30 64 -30t64 30t26 71t-26 70.5t-64 29.5t-64 -29.5
t-26 -70.5t26 -71z" />
    <glyph glyph-name="bracketleft" horiz-adv-x="380" 
d="M90 -220v940h200v-30h-160v-880h160v-30h-200z" />
    <glyph glyph-name="backslash" horiz-adv-x="485" 
d="M344 -97l-254 707h51l254 -707h-51z" />
    <glyph glyph-name="bracketright" horiz-adv-x="380" 
d="M90 -220v30h160v880h-160v30h200v-940h-200z" />
    <glyph glyph-name="asciicircum" horiz-adv-x="534" 
d="M298 361l146 -257h-59l-118 214l-118 -214h-59l143 257h65z" />
    <glyph glyph-name="underscore" unicode="_" horiz-adv-x="715" 
d="M90 -248v51h535v-51h-535z" />
    <glyph glyph-name="grave" unicode="`" horiz-adv-x="286" 
d="M159 499l-69 158h65l41 -158h-37z" />
    <glyph glyph-name="braceleft" horiz-adv-x="394" 
d="M90 233q31 0 53.5 25.5t22.5 61.5v99q0 70 40.5 119.5t97.5 49.5v-39q-37 0 -63.5 -38t-26.5 -92v-99q0 -35 -17 -62.5t-45 -37.5q28 -10 45 -37t17 -61v-98q0 -54 26.5 -92t63.5 -38v-40q-57 0 -97.5 50t-40.5 120v98q0 35 -22.5 59.5t-53.5 24.5v27z" />
    <glyph glyph-name="bar" horiz-adv-x="230" 
d="M90 -245v995h50v-995h-50z" />
    <glyph glyph-name="braceright" horiz-adv-x="395" 
d="M305 232q-31 0 -53.5 -24.5t-22.5 -59.5v-98q0 -70 -40.5 -120t-98.5 -50v40q38 0 64.5 38t26.5 92v98q0 33 17.5 60t46.5 37q-29 10 -46.5 38t-17.5 63v99q0 54 -26.5 92t-64.5 38v39q58 0 98.5 -49.5t40.5 -119.5v-99q0 -36 22.5 -61.5t53.5 -25.5v-27z" />
    <glyph glyph-name="asciitilde" horiz-adv-x="572" 
d="M90 262q25 21 52.5 32.5t53.5 11.5t47.5 -6t35.5 -18q23 -19 44 -29.5t37 -10.5q27 0 51.5 12t42.5 33l28 -32q-22 -26 -54 -40.5t-68 -14.5q-23 0 -44 7t-37 21q-17 15 -38.5 22.5t-43.5 7.5q-21 0 -42 -7.5t-38 -22.5z" />
    <glyph glyph-name="cent" horiz-adv-x="512" 
d="M119 431.5q57 68.5 152 68.5q19 0 35.5 -2t30.5 -5l45 111h50l-51 -131q39 -26 63 -62.5t27 -75.5h-56q-2 23 -15 47t-36 46l-145 -375q15 -4 28 -6.5t24 -2.5q63 0 104 34.5t46 92.5h54q-7 -79 -62.5 -126t-141.5 -47q-17 0 -35 2.5t-35 7.5l-40 -102h-50l48 122
q-46 33 -71.5 92t-25.5 130q0 113 57 181.5zM293 452q-13 2 -22 2q-70 0 -112.5 -55.5t-42.5 -148.5q0 -51 15.5 -96t44.5 -78l146 371q-16 3 -29 5z" />
    <glyph glyph-name="multiply" horiz-adv-x="521" 
d="M129 373l131 -131l131 131l40 -40l-132 -130l132 -132l-40 -39l-131 131l-131 -131l-39 39l131 132l-131 130z" />
    <glyph glyph-name="divide" horiz-adv-x="532" 
d="M442 250v-56h-352v56h352zM302 115q15 -15 15 -36t-15 -36t-36 -15t-36 15t-15 36t15 36t36 15t36 -15zM302 402q15 -15 15 -36t-15 -36t-36 -15t-36 15t-15 36t15 36t36 15t36 -15z" />
    <glyph glyph-name="u0981" unicode="&#x981;" 
d="M-270 710l40 5q7 -43 41 -70.5t79 -27.5t79 28t41 70l40 -5q-5 -57 -51 -96t-109 -39t-109 39t-51 96zM-150 713q0 15 12.5 26t30.5 11q15 0 26 -10.5t11 -24.5t-11.5 -24.5t-28.5 -10.5t-28.5 9.5t-11.5 23.5z" />
    <glyph glyph-name="u0982" unicode="&#x982;" horiz-adv-x="331" 
d="M29 200l20 35q84 -48 148.5 -110.5t106.5 -134.5l-35 -20q-39 67 -100 125.5t-140 104.5zM54 400q0 46 33.5 78t81.5 32t81.5 -32t33.5 -78t-33.5 -78t-81.5 -32t-81.5 32t-33.5 78zM244 400q0 29 -22 49.5t-53 20.5t-53 -20.5t-22 -49.5t22 -49.5t53 -20.5t53 20.5
t22 49.5z" />
    <glyph glyph-name="u0983" unicode="&#x983;" horiz-adv-x="410" 
d="M90 100q0 46 33.5 78t81.5 32t81.5 -32t33.5 -78t-33.5 -78t-81.5 -32t-81.5 32t-33.5 78zM280 100q0 29 -22 49.5t-53 20.5t-53 -20.5t-22 -49.5t22 -49.5t53 -20.5t53 20.5t22 49.5zM90 400q0 46 33.5 78t81.5 32t81.5 -32t33.5 -78t-33.5 -78t-81.5 -32t-81.5 32
t-33.5 78zM280 400q0 29 -22 49.5t-53 20.5t-53 -20.5t-22 -49.5t22 -49.5t53 -20.5t53 20.5t22 49.5z" />
    <glyph glyph-name="u0985" unicode="&#x985;" horiz-adv-x="666" 
d="M536 0v105q-19 27 -43.5 45t-51.5 25q-20 -43 -62 -69t-93 -26q-91 0 -165 79.5t-95 200.5l40 5q19 -106 81 -175.5t139 -69.5q52 0 88.5 33.5t36.5 81.5q0 50 -32 85t-78 35q4 -5 6.5 -11.5t2.5 -12.5q0 -23 -16 -39.5t-39 -16.5q-24 0 -41.5 16t-17.5 39t17.5 40.5
t42.5 19.5q0 22 -9 41.5t-26 33.5h-231v35h686v-35h-100v-465h-40zM536 465h-265q12 -11 18.5 -29t6.5 -41q65 0 111 -47t46 -114q0 -4 -0.5 -8.5t-1.5 -10.5q28 -10 50 -25.5t35 -34.5v310z" />
    <glyph glyph-name="u0986" unicode="&#x986;" horiz-adv-x="897" 
d="M536 0v105q-19 27 -43.5 45t-51.5 25q-20 -43 -62 -69t-93 -26q-91 0 -165 79.5t-95 200.5l40 5q19 -106 81 -175.5t139 -69.5q52 0 88.5 33.5t36.5 81.5q0 50 -32 85t-78 35q4 -5 6.5 -11.5t2.5 -12.5q0 -23 -16 -39.5t-39 -16.5q-24 0 -41.5 16t-17.5 39t17.5 40.5
t42.5 19.5q0 22 -9 41.5t-26 33.5h-231v35h702q24 0 44 -13.5t31 -36.5v110h40v-60h100v-35h-100v-465h-40v335q-5 55 -26.5 92.5t-48.5 37.5h-116v-465h-40zM536 465h-265q12 -11 18.5 -29t6.5 -41q65 0 111 -47t46 -114q0 -4 -0.5 -8.5t-1.5 -10.5q28 -10 50 -25.5
t35 -34.5v310z" />
    <glyph glyph-name="u0987" unicode="&#x987;" horiz-adv-x="400" 
d="M27 105l-5 40l75 -5q83 0 141.5 35t58.5 85q0 37 -32 63.5t-78 26.5q0 -33 -22 -56.5t-53 -23.5q-27 0 -46 14.5t-19 35.5q0 29 28 49.5t67 20.5q-4 21 -14 40t-26 35h-112v35h322q0 33 -20.5 56.5t-49.5 23.5q-24 0 -70 -10t-70 -10q-33 0 -56.5 22t-23.5 53
q0 20 10.5 38.5t29.5 31.5l35 -20q-16 -9 -25.5 -21t-9.5 -24q0 -17 11.5 -28.5t28.5 -11.5q24 0 70 10t70 10q46 0 78 -35t32 -85h58v-35h-258q12 -21 19.5 -40t10.5 -35q66 -6 110.5 -43.5t44.5 -86.5q0 -50 -39.5 -89.5t-100.5 -50.5q67 -18 126.5 -68.5t103.5 -126.5
l-40 -20q-43 92 -140.5 146t-219.5 54z" />
    <glyph glyph-name="u0988" unicode="&#x988;" horiz-adv-x="502" 
d="M357 170q0 45 14 88.5t41 81.5q-49 -18 -86.5 -51.5t-58.5 -78.5q-23 -50 -60 -80t-75 -30q-37 0 -63.5 23.5t-26.5 56.5q3 19 7 30t8 15l30 -15q-2 -7 -3.5 -13t-1.5 -12q0 -19 14.5 -32t35.5 -13q28 0 60.5 34t59.5 91q-15 42 -39 68.5t-51 31.5q5 -27 -15 -48.5
t-50 -21.5q-23 0 -39 14.5t-16 35.5q0 25 21.5 43.5t53.5 21.5q-1 3 -7 26t-13 29h-107v35h402q0 33 -25 56.5t-60 23.5q-29 0 -85 -10t-85 -10q-39 0 -67 26.5t-28 63.5q0 23 12 43t33 32l30 -20q-17 -14 -26 -28.5t-9 -26.5q0 -21 16 -35.5t39 -14.5q29 0 85 10t85 10
q52 0 88.5 -35t36.5 -85h80v-35h-370q6 -13 10 -27t5 -28q42 -7 75.5 -36.5t49.5 -73.5q38 38 78.5 59t76.5 21l25 -40q-31 -31 -48 -75.5t-17 -94.5q0 -57 14.5 -99.5t40.5 -60.5l-35 -15q-29 29 -44.5 74.5t-15.5 100.5z" />
    <glyph glyph-name="u0989" unicode="&#x989;" horiz-adv-x="599" 
d="M-10 465v35h473q0 37 -28 63.5t-67 26.5q-32 0 -95 -10t-95 -10q-43 0 -74 29.5t-31 70.5q0 25 12 46.5t33 33.5l30 -25q-17 -14 -26 -28.5t-9 -26.5q0 -25 19 -42.5t46 -17.5q31 0 92.5 10t92.5 10q58 0 99 -38t41 -92h106v-35h-306v-145q0 -27 13 -46t32 -19
q26 0 57 34t58 91q41 -15 65.5 -54.5t24.5 -90.5q0 -89 -67.5 -152t-162.5 -63q-118 0 -201.5 105.5t-83.5 254.5l40 5q0 -135 72 -230t173 -95q79 0 134.5 51.5t55.5 123.5q0 26 -9 48.5t-26 36.5q-28 -49 -63 -77t-67 -28q-35 0 -60 31t-25 74v145h-273z" />
    <glyph glyph-name="u098A" unicode="&#x98a;" horiz-adv-x="653" 
d="M-10 465v35h517q0 35 -26.5 60t-63.5 25q-33 0 -97.5 -15t-97.5 -15q-43 0 -74 28t-31 67q0 29 17.5 56t47.5 44l25 -30q-23 -13 -36.5 -32t-13.5 -38q0 -23 19 -39t46 -16q33 0 97.5 15t97.5 15q54 0 92 -36.5t38 -88.5h116v-35h-306v-145q0 -27 11.5 -46t28.5 -19
q25 0 54.5 32.5t55.5 87.5q46 -27 73 -70t27 -90q0 -91 -65.5 -145.5t-174.5 -54.5q-139 0 -237 96.5t-98 233.5h35q0 -102 71 -186t184 -114q-84 48 -132 135t-48 190h40q0 -126 66 -215.5t159 -89.5q66 0 113 42.5t47 102.5q0 30 -13 57.5t-37 47.5q-21 -46 -53.5 -73
t-66.5 -27q-33 0 -56.5 31t-23.5 74v145h-327z" />
    <glyph glyph-name="u098B" unicode="&#x98b;" horiz-adv-x="636" 
d="M377 0q-37 79 -105 128.5t-150 56.5l-30 40q53 53 115.5 90t129.5 55q-38 7 -68 26.5t-47 48.5q-26 -38 -59.5 -59t-65.5 -21q-35 0 -60 23.5t-25 56.5q0 23 14.5 39t35.5 16q17 0 28.5 -10.5t11.5 -24.5t-7.5 -24.5t-17.5 -10.5h-10q0 -8 10.5 -14t24.5 -6q22 0 53.5 28
t66.5 77q23 -50 64 -80t86 -30v95h40v-245q39 -18 67 -41t43 -49v395h40v-60h84v-35h-84v-385h-30q-10 37 -41 72.5t-79 62.5v-215h-35zM372 335q-74 -20 -131 -49t-94 -66q64 -6 123 -42.5t102 -97.5v255z" />
    <glyph glyph-name="u098C" unicode="&#x98c;" horiz-adv-x="463" 
d="M109 505l35 -20q-7 -6 -11 -16.5t-4 -23.5q0 -31 34.5 -63t90.5 -52q77 -28 123.5 -74.5t46.5 -95.5q0 -59 -38 -104.5t-97 -55.5l-35 30q11 29 15.5 45t4.5 25q0 39 -28 67t-67 28q-41 0 -70.5 -25t-29.5 -60q0 -20 11 -36.5t29 -23.5q0 19 13 32t32 13q21 0 35.5 -13
t14.5 -32q0 -21 -19 -35.5t-46 -14.5q-46 0 -78 32t-32 78q0 52 41 88.5t99 36.5q56 0 95.5 -39.5t39.5 -95.5q0 -16 -2.5 -28.5t-7.5 -21.5q34 12 54.5 42.5t20.5 67.5q0 38 -42.5 76.5t-112.5 63.5q-63 23 -101.5 64t-38.5 86q0 12 6.5 26.5t18.5 28.5z" />
    <glyph glyph-name="u098F" unicode="&#x98f;" horiz-adv-x="585" 
d="M455 0q-4 49 -44.5 82t-96.5 33q-22 0 -64.5 -7.5t-64.5 -7.5q-58 0 -99 50t-41 120q0 31 7.5 60t22.5 55l35 -20q-12 -21 -18.5 -45.5t-6.5 -49.5q0 -54 29.5 -92t70.5 -38q22 0 65 7.5t65 7.5q46 0 83.5 -19t56.5 -52v336q0 19 -14.5 32t-35.5 13q-50 0 -100 -50
t-50 -100q6 3 13.5 4.5t15.5 1.5q23 0 39.5 -13.5t16.5 -32.5q0 -21 -17.5 -35.5t-42.5 -14.5q-27 0 -46 23.5t-19 56.5q0 70 61.5 135t128.5 65q37 0 63.5 -28t26.5 -67v-410h-40z" />
    <glyph glyph-name="u0990" unicode="&#x990;" horiz-adv-x="618" 
d="M449 0q-13 49 -56 79.5t-99 30.5q-18 0 -52.5 -5t-52.5 -5q-62 0 -106 42.5t-44 102.5q0 29 9 57.5t26 52.5l35 -20q-15 -21 -22.5 -44t-7.5 -46q0 -43 32 -74t78 -31q18 0 52.5 5t52.5 5q45 0 86 -22.5t69 -62.5v335q0 27 -13 46t-32 19q-54 0 -104.5 -57t-50.5 -118
q7 7 16 11t19 4q19 0 32 -11.5t13 -28.5q0 -21 -14.5 -35.5t-35.5 -14.5q-29 0 -49.5 23.5t-20.5 56.5q0 74 63.5 142t131.5 68q35 0 60 -29.5t25 -70.5v-35q35 6 57.5 36t22.5 69q0 43 -47 74t-113 31q-81 0 -138 33.5t-57 81.5q0 11 5 21.5t15 18.5l35 -15
q-7 -4 -11 -10.5t-4 -14.5q0 -31 48.5 -53t116.5 -22q79 0 134.5 -42.5t55.5 -102.5q0 -50 -33.5 -90.5t-86.5 -54.5v-330h-40z" />
    <glyph glyph-name="u0993" unicode="&#x993;" horiz-adv-x="566" 
d="M34 365l40 5q13 -144 86 -242t169 -98q58 0 99 32t41 78q0 36 -23.5 65.5t-61.5 39.5q-17 -10 -32.5 -15t-27.5 -5q-19 0 -32 10.5t-13 24.5q0 17 11.5 28.5t28.5 11.5q19 0 35.5 -4t29.5 -11q26 18 40.5 43t14.5 52q0 33 -32 56.5t-78 23.5q-41 0 -70.5 -12.5
t-34.5 -32.5q18 3 31.5 -10.5t13.5 -34.5q0 -17 -14.5 -28.5t-35.5 -11.5q-19 0 -32 16t-13 39q0 48 45.5 81.5t109.5 33.5q62 0 106 -35t44 -85q0 -35 -13 -65t-37 -50q37 -17 58.5 -51t21.5 -74q0 -62 -52.5 -106t-127.5 -44q-111 0 -196 108t-99 267z" />
    <glyph glyph-name="u0994" unicode="&#x994;" horiz-adv-x="631" 
d="M35 370l40 5q13 -146 86.5 -245.5t168.5 -99.5q58 0 99 32t41 78q0 36 -23.5 65.5t-61.5 39.5q-17 -10 -32.5 -15t-27.5 -5q-19 0 -32 10.5t-13 24.5q0 17 13 28.5t32 11.5q14 0 28 -4t27 -11q26 18 40.5 42t14.5 48q0 39 -32 67t-78 28q-39 0 -68 -13.5t-37 -36.5
q23 0 39 -13t16 -32q0 -21 -16 -35.5t-39 -14.5q-21 0 -35.5 19t-14.5 46q0 48 47 81.5t113 33.5q60 0 102.5 -38t42.5 -92q43 0 74 25t31 60q0 41 -47.5 72.5t-117.5 37.5q-93 8 -156.5 50.5t-63.5 96.5q0 8 1.5 14t3.5 9h45q-2 -7 -3.5 -12t-1.5 -8q0 -42 56 -75t139 -40
q79 -7 132 -48.5t53 -96.5q0 -52 -44.5 -88.5t-107.5 -36.5q-1 -15 -12.5 -32t-30.5 -33q39 -18 62 -53.5t23 -76.5q0 -62 -52.5 -106t-127.5 -44q-111 0 -196 109.5t-99 270.5z" />
    <glyph glyph-name="u0995" unicode="&#x995;" horiz-adv-x="538" 
d="M272 0q-30 82 -87.5 135.5t-127.5 64.5l-40 35q51 72 117.5 115.5t137.5 49.5v65h-282v35h558v-35h-236v-65q81 -7 135.5 -57.5t54.5 -117.5q0 -37 -21.5 -63.5t-52.5 -26.5q-23 0 -39.5 13t-16.5 32q0 21 15 35.5t37 14.5q10 0 19.5 -2t16.5 -5q1 2 1.5 5t0.5 7
q0 44 -45.5 82t-104.5 43v-360h-40zM272 360q-59 -5 -111.5 -36.5t-88.5 -83.5q68 -18 120.5 -60t79.5 -100v280z" />
    <glyph glyph-name="u0996" unicode="&#x996;" horiz-adv-x="505" 
d="M375 0q-27 100 -105 162.5t-175 62.5v35q67 12 111 56t44 99q0 18 -6.5 32.5t-18.5 22.5q-28 -40 -62.5 -62.5t-67.5 -22.5q-37 0 -63.5 22t-26.5 53q0 23 14.5 39t35.5 16q19 0 32 -11.5t13 -28.5q0 -12 -9.5 -23t-25.5 -17q6 -5 13.5 -7.5t15.5 -2.5q21 0 41 12t35 33
q13 19 27.5 29.5t27.5 10.5q27 0 46 -29.5t19 -70.5q0 -54 -30 -98t-80 -62q60 -11 112 -54.5t83 -110.5v475h40v-60h100v-35h-100v-465h-40z" />
    <glyph glyph-name="u0997" unicode="&#x997;" horiz-adv-x="504" 
d="M374 0v320q-17 64 -63 104.5t-102 40.5q-58 0 -99 -42.5t-41 -102.5q22 22 45 33.5t45 11.5q48 0 81.5 -31t33.5 -74q0 -39 -35.5 -78t-94.5 -67l-20 35q50 23 80 53t30 57t-22 46t-53 19q-18 0 -45 -22.5t-45 -22.5q-17 0 -28.5 13t-11.5 32q0 75 52.5 127.5t127.5 52.5
q48 0 92.5 -28t72.5 -77v160h40v-60h100v-35h-100v-465h-40z" />
    <glyph glyph-name="u0998" unicode="&#x998;" horiz-adv-x="475" 
d="M345 0q-34 73 -105 120t-160 55l-30 30l90 80q-46 8 -75.5 36.5t-29.5 63.5q0 23 12 44t33 36h-90v35h495v-35h-100v-465h-40zM345 465h-205q-30 -17 -47.5 -38.5t-17.5 -41.5q0 -25 22 -42.5t53 -17.5q14 0 25 2.5t20 7.5l40 35l25 -30l-145 -130q79 -14 139.5 -50.5
t90.5 -89.5v395z" />
    <glyph glyph-name="u0999" unicode="&#x999;" horiz-adv-x="564" 
d="M38 350h40q0 -135 70.5 -230t169.5 -95q66 0 113 41t47 99q0 35 -14.5 60t-35.5 25q-6 0 -17.5 -14.5t-22.5 -25.5q-15 -21 -35 -33t-40 -12q-46 0 -78 32t-32 78q0 27 4 51t11 44q-36 17 -69 46t-61 69l35 25q27 -39 55 -66t55 -39q27 46 64.5 73t75.5 27q35 0 60 -22
t25 -53q0 -41 -36.5 -73t-83.5 -32q-20 0 -42 6.5t-43 18.5q-5 -9 -7.5 -28t-2.5 -47q0 -29 20.5 -49.5t49.5 -20.5q13 0 28 12t27 33q13 19 29 29.5t31 10.5q37 0 63.5 -39.5t26.5 -95.5q0 -70 -58.5 -120t-141.5 -50q-116 0 -198 107t-82 258zM418 425q0 17 -13 28.5
t-32 11.5q-29 0 -56 -21.5t-44 -58.5q17 -10 33.5 -15t31.5 -5q33 0 56.5 17.5t23.5 42.5z" />
    <glyph glyph-name="u099A" unicode="&#x99a;" horiz-adv-x="415" 
d="M83 114v351h-93v35h435v-35h-302v-35q0 -28 42.5 -61t112.5 -58q47 -17 76 -42t29 -48q0 -64 -72.5 -135.5t-137.5 -71.5q-37 0 -63.5 29.5t-26.5 70.5zM123 114q0 -25 13 -42.5t32 -17.5q54 0 114.5 57.5t60.5 109.5q0 12 -20.5 27.5t-54.5 27.5q-67 24 -102 42.5
t-43 36.5v-241z" />
    <glyph glyph-name="u099B" unicode="&#x99b;" horiz-adv-x="466" 
d="M176 70q-26 0 -37.5 -1t-17.5 -4l-20 50q10 -3 30.5 -4t54.5 -1q75 0 127.5 50t52.5 120q0 25 -16 42.5t-39 17.5q-15 0 -34 -17.5t-36 -47.5q-21 -46 -52.5 -73t-62.5 -27q-29 0 -49.5 23.5t-20.5 56.5v210h-66v35h486v-35h-380v-10q0 -24 21 -43t54 -25q28 -5 48 -14.5
t27 -22.5q12 14 29 22t36 8q39 0 67 -29.5t28 -70.5q0 -60 -34 -111.5t-91 -78.5q73 -19 130.5 -68t89.5 -117l-30 -15q-38 82 -118 131t-177 49zM216 310q0 14 -17 26.5t-43 18.5q-24 6 -40 15t-20 20v-135q0 -17 9 -28.5t21 -11.5q21 0 45.5 26t44.5 69z" />
    <glyph glyph-name="u099C" unicode="&#x99c;" horiz-adv-x="688" 
d="M594 0q-20 42 -30 87.5t-10 92.5q0 35 6.5 70.5t18.5 69.5q-17 -4 -32.5 -6.5t-30.5 -2.5q-75 0 -134.5 38t-82.5 101q-29 -29 -44.5 -62.5t-15.5 -67.5q0 -25 22 -42.5t53 -17.5q12 0 35 7.5t35 7.5q35 0 60 -25t25 -60q0 -58 -50 -99t-120 -41q-109 0 -187 94t-78 226
h40q0 -110 68.5 -195t156.5 -85q54 0 92 29.5t38 70.5q0 19 -11.5 32t-28.5 13q-13 0 -37.5 -7.5t-37.5 -7.5q-48 0 -81.5 29.5t-33.5 70.5t15.5 78.5t44.5 66.5h-269v35h708v-35h-359q18 -50 66 -80.5t108 -30.5q21 0 42.5 4t43.5 12l35 -25q-20 -42 -30 -84t-10 -81
q0 -47 10 -92.5t30 -87.5h-40z" />
    <glyph glyph-name="u099D" unicode="&#x99d;" horiz-adv-x="582" 
d="M307 400v65h-317v35h357v-270q39 -22 66.5 -47.5t43.5 -52.5v430h40v-60h95v-35h-95v-440h-40q0 47 -30 89.5t-80 65.5v-180h-40q-19 71 -92.5 128.5t-182.5 86.5l-15 35q59 59 133 97t157 53zM307 355q-74 -13 -134 -41t-101 -69q81 -26 141.5 -67.5t93.5 -92.5v270z
" />
    <glyph glyph-name="u099E" unicode="&#x99e;" horiz-adv-x="788" 
d="M449 0q0 41 -32 70.5t-78 29.5q-22 0 -65 -12.5t-65 -12.5q-68 0 -116.5 50t-48.5 120q0 38 9 69t26 51l35 -20q-15 -17 -22.5 -41.5t-7.5 -53.5q0 -56 36.5 -95.5t88.5 -39.5q22 0 65 13.5t65 13.5q33 0 62 -15t48 -42v345q0 17 -10.5 28.5t-24.5 11.5
q-48 0 -91.5 -53.5t-38.5 -106.5q6 3 12 5t12 2q15 0 25.5 -11t10.5 -26q0 -14 -11.5 -24.5t-28.5 -10.5q-27 0 -46 22t-19 53q0 67 57 128.5t118 61.5q31 0 53 -23.5t22 -56.5v-20q27 46 67 73t83 27q50 0 85 -26.5t35 -63.5q0 -30 -12 -56t-33 -44q21 -12 33 -35t12 -50
q0 -48 -35 -81.5t-85 -33.5q-44 0 -84.5 25.5t-65.5 69.5v-215h-40zM719 235q0 19 -13.5 38t-36.5 32q-10 -10 -20 -15t-20 -5q-19 0 -32 11.5t-13 28.5t13 28.5t32 11.5q8 0 18 -5t22 -15q23 8 36.5 28.5t13.5 46.5q0 23 -23.5 39t-56.5 16q-40 0 -80.5 -36.5t-69.5 -98.5
v-50q21 -59 62.5 -94.5t87.5 -35.5q33 0 56.5 22t23.5 53z" />
    <glyph glyph-name="u099F" unicode="&#x99f;" horiz-adv-x="419" 
d="M-10 465v35h330q16 12 25.5 30.5t9.5 39.5t-20.5 35.5t-49.5 14.5t-87.5 -10t-87.5 -10q-31 0 -53 22t-22 53q0 23 18 43.5t47 31.5l20 -30q-20 -5 -32.5 -17.5t-12.5 -27.5q0 -14 10.5 -24.5t24.5 -10.5q30 0 90 10t90 10q43 0 74 -26.5t31 -63.5q0 -22 -6.5 -40
t-18.5 -30h59v-35h-309v-325q0 -31 13 -53t32 -22q46 0 108 71.5t62 123.5q-27 0 -46 13t-19 32q0 21 16 35.5t39 14.5t39 -19t16 -46q0 -93 -70 -179t-145 -86q-35 0 -60 33.5t-25 81.5v325h-90z" />
    <glyph glyph-name="u09A0" unicode="&#x9a0;" horiz-adv-x="411" 
d="M27 205q66 18 108 66.5t42 108.5q0 31 -4 53t-11 32h-172v35h142q-46 46 -70.5 87.5t-24.5 72.5q0 29 15 53.5t40 36.5l30 -20q-21 -18 -33 -36.5t-12 -33.5q0 -26 27.5 -68t77.5 -92h239v-35h-209q72 -72 111 -143.5t39 -131.5q0 -68 -48.5 -116.5t-116.5 -48.5
q-70 0 -120 52.5t-50 127.5zM322 190q0 44 -27 99t-78 116q7 -75 -35 -139t-115 -91q4 -47 41.5 -78.5t88.5 -31.5q52 0 88.5 36.5t36.5 88.5z" />
    <glyph glyph-name="u09A1" unicode="&#x9a1;" horiz-adv-x="566" 
d="M-10 465v35h586v-35h-305v-165q0 -27 11.5 -46t28.5 -19q25 0 54.5 32.5t55.5 87.5q44 -12 72 -52.5t28 -92.5q0 -88 -60 -141.5t-160 -53.5q-110 0 -187.5 95t-77.5 230l40 10q0 -122 66 -208.5t159 -86.5q75 0 127.5 44t52.5 106q0 30 -12 55t-33 40q-22 -48 -56 -76.5
t-69 -28.5q-33 0 -56.5 31t-23.5 74v165h-241z" />
    <glyph glyph-name="u09A2" unicode="&#x9a2;" horiz-adv-x="435" 
d="M-10 465v35h455v-35h-325v-325q0 -31 16 -53t39 -22q34 0 98 67.5t77 117.5q-29 0 -49.5 14.5t-20.5 35.5q0 23 16 39t39 16q27 0 46 -19t19 -46q0 -77 -80 -171t-145 -94q-39 0 -67 33.5t-28 81.5v325h-90z" />
    <glyph glyph-name="u09A3" unicode="&#x9a3;" horiz-adv-x="465" 
d="M335 0v305q0 68 -41 116.5t-99 48.5q-50 0 -85 -32t-35 -78q0 -38 18.5 -66.5t46.5 -33.5q-6 23 8 41.5t37 18.5q21 0 35.5 -14.5t14.5 -35.5q0 -23 -19 -39t-46 -16q-56 0 -95.5 42.5t-39.5 102.5q0 62 47 106t113 44q46 0 84 -23t56 -62v135h40v-60h100v-35h-100v-465
h-40z" />
    <glyph glyph-name="u09A4" unicode="&#x9a4;" horiz-adv-x="577" 
d="M118 89.5q-82 99.5 -82 240.5l40 5q0 -128 70.5 -219t169.5 -91q72 0 123.5 50t51.5 120q0 56 -41 95.5t-99 39.5q-30 0 -51.5 -13t-23.5 -32q4 1 9 2t10 1q21 0 36 -14t15 -34q0 -21 -16 -35.5t-39 -14.5q-27 0 -46 20.5t-19 49.5q0 46 36.5 78t88.5 32
q75 0 127.5 -51.5t52.5 -123.5q0 -85 -63 -145t-152 -60q-116 0 -198 99.5zM-10 465v35h597v-35h-597z" />
    <glyph glyph-name="u09A5" unicode="&#x9a5;" horiz-adv-x="498" 
d="M368 0q-42 90 -118 146t-167 64l-10 50q6 -3 17.5 -4t37.5 -1q58 0 99 35t41 85q0 39 -31 67t-74 28q-26 0 -47 -8t-33 -22q24 0 40.5 -14.5t16.5 -35.5t-16.5 -35.5t-40.5 -14.5q-25 0 -42.5 17.5t-17.5 42.5q0 46 41 78t99 32q60 0 102.5 -39.5t42.5 -95.5
q0 -48 -33 -89t-87 -61q51 -14 98 -54t82 -101v490h40v-60h100v-35h-100v-465h-40z" />
    <glyph glyph-name="u09A6" unicode="&#x9a6;" horiz-adv-x="404" 
d="M264 170q0 50 10 91t30 69q-64 -23 -118 -64t-92 -96l-40 20v275h-64v35h424v-35h-320v-235q49 58 111 95.5t129 49.5l25 -30q-27 -32 -41 -77t-14 -98q0 -51 13 -93.5t37 -71.5l-30 -10q-29 35 -44.5 80t-15.5 95z" />
    <glyph glyph-name="u09A7" unicode="&#x9a7;" horiz-adv-x="431" 
d="M301 0q-42 83 -107 131.5t-133 48.5l-30 50l125 105q-50 0 -85 29.5t-35 70.5t35 70.5t85 29.5q27 0 46 -16t19 -39t-17.5 -39t-42.5 -16q-24 0 -40.5 16.5t-14.5 38.5q-13 -2 -21.5 -15t-8.5 -30q0 -29 35 -49.5t85 -20.5l105 75v120h40v-60h100v-35h-100v-465h-40z
M301 395l-220 -175q58 -5 116 -44.5t104 -105.5v325z" />
    <glyph glyph-name="u09A8" unicode="&#x9a8;" horiz-adv-x="459" 
d="M329 0v155q-11 63 -56.5 104t-103.5 41q-27 0 -47.5 -9.5t-27.5 -25.5q29 0 49.5 -17.5t20.5 -42.5q0 -23 -20 -39t-48 -16t-47.5 19t-19.5 46q0 52 41 88.5t99 36.5q51 0 94 -23t66 -62v210h-339v35h479v-35h-100v-465h-40z" />
    <glyph glyph-name="u09AA" unicode="&#x9aa;" horiz-adv-x="522" 
d="M392 0v315q-9 15 -25 32.5t-40 37.5l-170 -200l-30 25l50 60q-11 30 -40.5 51.5t-69.5 28.5q-6 -14 -14.5 -22t-15.5 -8q-8 0 -14 4.5t-6 10.5q8 46 77.5 108t112.5 62q36 0 84.5 -34t100.5 -96v185h40v-60h100v-35h-100v-465h-40zM302 410q-24 24 -48.5 37t-46.5 13
q-25 0 -56.5 -21t-63.5 -59q40 -7 70.5 -28t44.5 -52z" />
    <glyph glyph-name="u09AB" unicode="&#x9ab;" horiz-adv-x="562" 
d="M-10 465v35h582v-35h-456l100 -105l-145 -125q72 -19 130.5 -63.5t94.5 -106.5v325h85q60 0 102.5 -41t42.5 -99q0 -23 -16 -39t-39 -16t-39 13t-16 32q0 23 17.5 39t42.5 16q0 23 -26.5 39t-63.5 16h-50v-350h-40q-52 90 -119.5 144.5t-135.5 60.5l-25 35l145 125
l-100 100h-71z" />
    <glyph glyph-name="u09AC" unicode="&#x9ac;" horiz-adv-x="428" 
d="M298 0q-29 79 -98.5 134t-161.5 71l-20 45q54 54 125 93.5t155 61.5v60h-308v35h448v-35h-100v-465h-40zM298 365q-70 -19 -128.5 -50.5t-101.5 -74.5q65 -11 124.5 -53t105.5 -107v285z" />
    <glyph glyph-name="u09AD" unicode="&#x9ad;" horiz-adv-x="573" 
d="M43 405l40 5q0 -157 73 -268.5t177 -111.5q64 0 109.5 41t45.5 99q0 31 -13.5 56.5t-36.5 38.5q-17 -36 -51 -57t-75 -21q-53 0 -91 28.5t-38 69.5q0 27 19 46t46 19q21 0 35.5 -14.5t14.5 -35.5q0 -19 -14.5 -32t-35.5 -13q13 -13 30 -20.5t34 -7.5q41 0 71.5 28
t34.5 70q50 -18 80 -60.5t30 -94.5q0 -82 -53.5 -131t-141.5 -49q-120 0 -205 121.5t-85 293.5zM-10 465v35h593v-35h-593z" />
    <glyph glyph-name="u09AE" unicode="&#x9ae;" horiz-adv-x="427" 
d="M297 0q0 75 -40.5 130t-99.5 60q10 -36 -9 -63.5t-49 -27.5q-42 -3 -69.5 16t-39.5 56q-2 48 31 79.5t87 7.5q4 63 -16 122.5t-55 84.5h-47v35h447v-35h-100v-465h-40zM297 465h-210q31 -38 48 -97t17 -133q48 -8 86 -33t59 -62v325z" />
    <glyph glyph-name="u09AF" unicode="&#x9af;" horiz-adv-x="443" 
d="M313 0q-23 63 -95.5 110t-174.5 65l-25 35l145 135l-125 120h-48v35h463v-35h-100v-465h-40zM313 465h-215l125 -120l-145 -135q75 -13 136 -49.5t99 -90.5v395z" />
    <glyph glyph-name="u09B0" unicode="&#x9b0;" horiz-adv-x="423" 
d="M293 0q-29 80 -96 135t-154 70l-20 40q37 52 106.5 93.5t163.5 66.5v60h-303v35h443v-35h-100v-465h-40zM293 365q-76 -20 -133.5 -52t-91.5 -73q70 -12 129 -54t96 -106v285zM78 50q0 17 11.5 28.5t28.5 11.5t28.5 -11.5t11.5 -28.5t-11.5 -28.5t-28.5 -11.5t-28.5 11.5
t-11.5 28.5z" />
    <glyph glyph-name="u09B2" unicode="&#x9b2;" horiz-adv-x="573" 
d="M443 0v260q-11 40 -33 65t-47 25t-42.5 -23.5t-17.5 -56.5h-40q-3 34 -27.5 57t-57.5 23q-41 0 -70.5 -29.5t-29.5 -70.5q0 -39 25 -67t60 -28q-5 5 -8 12t-3 14q0 22 16.5 38t39.5 16t39 -16t16 -39q0 -27 -26.5 -46t-63.5 -19q-56 0 -95.5 39.5t-39.5 95.5q0 58 41 99
t99 41q35 0 63.5 -16.5t41.5 -43.5q13 27 34.5 43.5t45.5 16.5q22 0 43.5 -14.5t36.5 -40.5v130h-453v35h593v-35h-100v-465h-40z" />
    <glyph glyph-name="u09B6" unicode="&#x9b6;" horiz-adv-x="466" 
d="M336 0v360q0 43 -25 74t-60 31q-26 0 -47.5 -10.5t-32.5 -29.5q31 -26 48 -56t17 -59q0 -19 -13 -32t-32 -13q-17 0 -32.5 16.5t-22.5 43.5q-7 -27 -22.5 -43.5t-32.5 -16.5q-19 0 -32 13t-13 32q0 22 19.5 53t55.5 67q-7 16 -29 25.5t-51 9.5h-52v35h52q39 0 68.5 -12
t41.5 -33q22 22 50.5 33.5t59.5 11.5q25 0 47.5 -12t37.5 -33v105h40v-60h100v-35h-100v-465h-40z" />
    <glyph glyph-name="u09B7" unicode="&#x9b7;" horiz-adv-x="424" 
d="M294 0q-21 77 -91 129.5t-164 60.5l-20 40l140 125l-125 110h-44v35h444v-35h-100v-465h-40zM294 250l-100 80l-120 -105q69 -12 126 -47t94 -88v160zM294 465h-205l205 -170v170z" />
    <glyph glyph-name="u09B8" unicode="&#x9b8;" horiz-adv-x="508" 
d="M378 0v255q-18 21 -36.5 33t-33.5 12q-20 0 -44.5 -21.5t-45.5 -58.5q-23 -39 -49.5 -62t-50.5 -23q-38 0 -67 31.5t-33 78.5l35 10q3 -34 21.5 -57t43.5 -23q18 0 42.5 29t57.5 86q-23 62 -60.5 107.5t-84.5 67.5h-83v35h528v-35h-100v-465h-40zM308 340q17 0 35 -7.5
t35 -22.5v155h-235q39 -33 67 -71t43 -79q12 12 26.5 18.5t28.5 6.5z" />
    <glyph glyph-name="u09B9" unicode="&#x9b9;" horiz-adv-x="404" 
d="M255.5 44q-92.5 51 -201.5 51l-20 50l35 -5q97 0 166 32t69 78q0 43 -36.5 74t-88.5 31q0 -35 -26.5 -60t-63.5 -25q-25 0 -42.5 14.5t-17.5 35.5q0 28 30 49.5t75 25.5q-2 27 -7.5 45t-12.5 25h-124v35h424v-35h-255q5 -9 10.5 -27t9.5 -43q70 -6 117.5 -48t47.5 -97
q0 -46 -45.5 -84.5t-114.5 -50.5q81 -22 147 -72.5t108 -122.5l-40 -15q-51 88 -143.5 139z" />
    <glyph glyph-name="u09BC" unicode="&#x9bc;" horiz-adv-x="1" 
d="M30.5 -93.5q-11.5 11.5 -11.5 28.5t11.5 28.5t28.5 11.5t28.5 -11.5t11.5 -28.5t-11.5 -28.5t-28.5 -11.5t-28.5 11.5z" />
    <glyph glyph-name="u09BD" unicode="&#x9bd;" horiz-adv-x="418" 
d="M217.5 142q-86.5 55 -179.5 63l-15 35q104 0 177 44t73 106q0 35 -29.5 60t-70.5 25q-20 0 -36.5 -5t-28.5 -15q19 0 32 -13t13 -32q0 -23 -16 -39t-39 -16q-29 0 -49.5 16t-20.5 39q0 43 42.5 74t102.5 31t102.5 -36.5t42.5 -88.5q0 -56 -46 -103t-119 -67
q70 -25 134 -77.5t116 -127.5l-35 -20q-64 92 -150.5 147z" />
    <glyph glyph-name="u09BE" unicode="&#x9be;" horiz-adv-x="223" 
d="M93 0v335q-5 55 -26.5 92.5t-48.5 37.5h-28v35h28q24 0 44 -13.5t31 -36.5v110h40v-60h100v-35h-100v-465h-40z" />
    <glyph glyph-name="u09BF" unicode="&#x9bf;" horiz-adv-x="220" 
d="M-10 465v35h90q-14 14 -22 35t-8 45q0 56 50 95.5t120 39.5q58 0 125.5 -36.5t134.5 -103.5l-25 -25q-60 60 -121 92.5t-114 32.5q-54 0 -92 -28t-38 -67q0 -25 12 -46.5t33 -33.5h95v-35h-100v-465h-40v465h-100z" />
    <glyph glyph-name="u09C0" unicode="&#x9c0;" horiz-adv-x="220" 
d="M90 0v465h-100v35h100q-8 89 -94 149.5t-206 60.5q-54 0 -92 -20.5t-38 -49.5q0 -22 22.5 -37.5t54.5 -15.5q16 0 46.5 4t46.5 4q37 0 63.5 -26.5t26.5 -63.5h-40q0 22 -14.5 37.5t-35.5 15.5q-16 0 -47.5 -4t-47.5 -4q-48 0 -81.5 26.5t-33.5 63.5q0 50 46.5 80
t123.5 30q141 0 240.5 -73t99.5 -177h100v-35h-100v-465h-40z" />
    <glyph glyph-name="u09C1" unicode="&#x9c1;" horiz-adv-x="2" 
d="M-115 -115q-14 -30 -39.5 -47.5t-55.5 -17.5q-35 0 -60 22t-25 53q0 33 26.5 56.5t63.5 23.5q19 0 37.5 -6.5t32.5 -18.5q2 12 3.5 25.5t1.5 29.5h40q0 -26 -2.5 -46t-7.5 -34q38 -27 71 -63.5t59 -81.5l-35 -20q-23 40 -51 71.5t-59 53.5zM-145 -85q-12 10 -27 15t-33 5
q-21 0 -35.5 -11.5t-14.5 -28.5q0 -14 13 -24.5t32 -10.5q20 0 38 15t27 40z" />
    <glyph glyph-name="u09C2" unicode="&#x9c2;" 
d="M-130 10h40v-65l-27 -15q-6 7 -16 11t-22 4q-23 0 -39 -14.5t-16 -35.5t16 -35.5t39 -14.5q20 0 35 8t20 22l35 5l180 -95l-20 -30l-165 85q-17 -17 -39 -26t-46 -9q-39 0 -67 26.5t-28 63.5q0 35 28 60t68 25q8 0 14 -1t10 -2v33z" />
    <glyph glyph-name="u09C3" unicode="&#x9c3;" 
d="M-220 -105l110 105l25 -30l-75 -75l135 -115l-25 -30z" />
    <glyph glyph-name="u09C4" unicode="&#x9c4;" 
d="M-109 24l24 -26l-70 -47l128 -67l-23 -29l-42 23l-63 -42l128 -67l-23 -29l-172 94l95 63l-95 52z" />
    <glyph glyph-name="u09C7" unicode="&#x9c7;" horiz-adv-x="290" 
d="M-10 465v35h329v-35h-84q-63 -44 -99 -114.5t-36 -150.5q0 -65 25 -112t65 -58q-2 5 -3.5 11.5t-1.5 14.5q0 20 14.5 34.5t35.5 14.5q23 0 39 -14.5t16 -35.5q0 -27 -22 -46t-53 -19q-64 0 -109.5 61.5t-45.5 148.5q0 70 31 138.5t89 126.5h-190z" />
    <glyph glyph-name="u09C8" unicode="&#x9c8;" horiz-adv-x="301" 
d="M-10 500h234q9 5 14.5 14.5t5.5 20.5q0 12 -9 21t-21 9q-20 0 -60 -5t-60 -5q-35 0 -60 23.5t-25 56.5q0 22 10.5 43t29.5 37l30 -20q-14 -14 -22 -30t-8 -30q0 -19 11.5 -32t28.5 -13q20 0 60 7.5t60 7.5q31 0 53 -22t22 -53q0 -6 -2.5 -13.5t-7.5 -16.5h59v-35h-69
q-75 -35 -120 -105.5t-45 -154.5q0 -66 29.5 -114t75.5 -56q-4 6 -6 13.5t-2 16.5q0 19 14 32t34 13q25 0 42.5 -14.5t17.5 -35.5q0 -27 -23.5 -46t-56.5 -19q-68 0 -116.5 60t-48.5 145t37.5 156t102.5 109h-209v35z" />
    <glyph glyph-name="u09CB" unicode="&#x9cb;" horiz-adv-x="549" 
d="M-10 465v35h319v-35h-74q-63 -44 -99 -114.5t-36 -150.5q0 -65 25 -112t65 -58q-2 5 -3.5 11.5t-1.5 14.5q0 20 14.5 34.5t35.5 14.5q23 0 39 -14.5t16 -35.5q0 -27 -22 -46t-53 -19q-64 0 -109.5 61.5t-45.5 148.5q0 70 31 138.5t89 126.5h-190zM413 0v335
q-5 55 -26.5 92.5t-48.5 37.5h-28v35h28q24 0 44 -13.5t31 -36.5v110h40v-60h100v-35h-100v-465h-40z" />
    <glyph glyph-name="u09CC" unicode="&#x9cc;" horiz-adv-x="546" 
d="M-10 465v35h319v-35h-74q-63 -44 -99 -114.5t-36 -150.5q0 -65 25 -112t65 -58q-2 5 -3.5 11.5t-1.5 14.5q0 20 14.5 34.5t35.5 14.5q23 0 39 -14.5t16 -35.5q0 -27 -22 -46t-53 -19q-64 0 -109.5 61.5t-45.5 148.5q0 70 31 138.5t89 126.5h-190zM410 0v465h-100v35h100
q0 37 -31 63.5t-74 26.5q-31 0 -90 -17.5t-90 -17.5q-46 0 -78 32t-32 78q0 12 4 23.5t11 21.5l35 -10q-5 -7 -7.5 -16t-2.5 -19q0 -29 20.5 -49.5t49.5 -20.5q31 0 90 17.5t90 17.5q60 0 102.5 -38t42.5 -92h100v-35h-100v-465h-40z" />
    <glyph glyph-name="u09CD" unicode="&#x9cd;" 
d="M-139 -29l29 30l220 -205l-30 -30z" />
    <glyph glyph-name="u09D7" unicode="&#x9d7;" horiz-adv-x="220" 
d="M90 0v465h-100v35h100q0 37 -31 63.5t-74 26.5q-31 0 -90 -17.5t-90 -17.5q-46 0 -78 32t-32 78q0 12 4 23.5t11 21.5l35 -10q-5 -7 -7.5 -16t-2.5 -19q0 -29 20.5 -49.5t49.5 -20.5q31 0 90 17.5t90 17.5q60 0 102.5 -38t42.5 -92h100v-35h-100v-465h-40z" />
    <glyph glyph-name="u09DC" unicode="&#x9dc;" horiz-adv-x="549" 
d="M-10 465v35h569v-35h-296v-155q0 -21 11.5 -35.5t28.5 -14.5q22 0 49.5 30t50.5 80q44 -12 72 -55t28 -100q0 -81 -61.5 -138t-148.5 -57q-106 0 -180.5 101t-74.5 244l40 5q0 -128 63 -219t152 -91q70 0 120 47t50 113q0 27 -12 52t-33 43q-21 -46 -52.5 -73t-62.5 -27
q-33 0 -56.5 28t-23.5 67v155h-233zM259.5 -103.5q-11.5 11.5 -11.5 28.5t11.5 28.5t28.5 11.5t28.5 -11.5t11.5 -28.5t-11.5 -28.5t-28.5 -11.5t-28.5 11.5z" />
    <glyph glyph-name="u09DD" unicode="&#x9dd;" horiz-adv-x="419" 
d="M-10 465v35h439v-35h-309v-325q0 -31 16 -53t39 -22q43 0 101.5 67.5t58.5 117.5l-15 -2q-23 0 -39 14t-16 33q0 23 17.5 39t42.5 16q23 0 39 -17.5t16 -42.5q0 -93 -66.5 -179t-138.5 -86q-39 0 -67 33.5t-28 81.5v325h-90zM151.5 -109q-11.5 11 -11.5 26q0 16 11.5 27
t28.5 11t28.5 -11t11.5 -27q0 -15 -11.5 -26t-28.5 -11t-28.5 11z" />
    <glyph glyph-name="u09DF" unicode="&#x9df;" horiz-adv-x="453" 
d="M323 0q-27 74 -101.5 122.5t-173.5 57.5l-30 55l145 110l-115 120h-58v35h473v-35h-100v-465h-40zM323 465h-220l120 -125l-155 -120q85 -7 152.5 -45.5t102.5 -99.5v390zM118.5 5.5q-10.5 10.5 -10.5 24.5t10.5 24.5t24.5 10.5t24.5 -10.5t10.5 -24.5t-10.5 -24.5
t-24.5 -10.5t-24.5 10.5z" />
    <glyph glyph-name="u09E0" unicode="&#x9e0;" horiz-adv-x="636" 
d="M377 0q-37 79 -105 128.5t-150 56.5l-30 40q53 53 115.5 90t129.5 55q-38 7 -68 26.5t-47 48.5q-26 -38 -59.5 -59t-65.5 -21q-35 0 -60 23.5t-25 56.5q0 23 14.5 39t35.5 16q17 0 28.5 -10.5t11.5 -24.5t-7.5 -24.5t-17.5 -10.5h-10q0 -8 10.5 -14t24.5 -6q22 0 53.5 28
t66.5 77q23 -50 64 -80t86 -30v95h40v-245q39 -18 67 -41t43 -49v395h40v-60h84v-35h-84v-385h-30q-10 37 -41 72.5t-79 62.5v-215h-35zM372 335q-74 -20 -131 -49t-94 -66q64 -6 123 -42.5t102 -97.5v255zM283 -110l110 105l25 -30l-75 -75l135 -115l-25 -30z" />
    <glyph glyph-name="u09E1" unicode="&#x9e1;" horiz-adv-x="463" 
d="M90.5 475.5q6.5 15.5 18.5 29.5l35 -20q-7 -6 -11 -16.5t-4 -23.5q0 -31 34.5 -63t90.5 -52q77 -28 123.5 -74.5t46.5 -95.5q0 -59 -38 -104.5t-97 -55.5l-35 30q11 29 15.5 45t4.5 25q0 39 -28 67t-67 28q-41 0 -70.5 -25t-29.5 -60q0 -20 11 -36.5t29 -23.5q0 19 13 32
t32 13q21 0 35.5 -13t14.5 -32q0 -2 -0.5 -4.5t-0.5 -4.5l16 -8q-4 -3 -6.5 -9.5t-2.5 -14.5q0 -19 22.5 -38t58.5 -31q51 -16 82 -44t31 -56q0 -34 -25 -61t-64 -34l-24 18q8 20 11 28.5t3 13.5q0 23 -18.5 39.5t-44.5 16.5q-27 0 -46 -15t-19 -36q0 -12 7 -21.5t18 -13.5
q0 11 9 18.5t22 7.5q14 0 23.5 -7.5t9.5 -18.5q0 -12 -12.5 -21t-30.5 -9q-30 0 -51.5 19t-21.5 46q0 31 27 53t65 22q37 0 63 -23.5t26 -56.5q0 -10 -1.5 -17.5t-4.5 -12.5q21 7 34.5 25t13.5 40q0 23 -27.5 45.5t-72.5 37.5q-42 14 -67.5 38.5t-25.5 50.5q-9 -6 -19.5 -9
t-21.5 -3q-46 0 -78 32t-32 78q0 52 41 88.5t99 36.5q56 0 95.5 -39.5t39.5 -95.5q0 -16 -2.5 -28.5t-7.5 -21.5q34 12 54.5 42.5t20.5 67.5q0 38 -42.5 76.5t-112.5 63.5q-63 23 -101.5 63t-38.5 82q0 15 6.5 30.5z" />
    <glyph glyph-name="u09E2" unicode="&#x9e2;" 
d="M37.5 8q3.5 8 10.5 16l28 -16q-4 -3 -6 -7t-2 -8q0 -17 15.5 -33t40.5 -25q44 -16 70.5 -42t26.5 -52q0 -34 -19 -60t-48 -31l-35 21q6 10 9 19.5t3 17.5q0 21 -14.5 36t-35.5 15q-20 0 -34.5 -13t-14.5 -32q0 -11 5.5 -20t14.5 -12q0 10 8 16.5t20 6.5t20.5 -8t8.5 -20
q0 -13 -11.5 -22.5t-28.5 -9.5q-29 0 -49 20t-20 49q0 32 23.5 54.5t57.5 22.5q33 0 56.5 -24.5t23.5 -58.5q0 -9 -1.5 -15.5t-3.5 -10.5q14 5 23 21.5t9 37.5q0 18 -21.5 36.5t-56.5 31.5q-34 12 -55 35.5t-21 48.5q0 7 3.5 15z" />
    <glyph glyph-name="u09E3" unicode="&#x9e3;" horiz-adv-x="416" 
d="M250 63q3 7 9 14l24 -14q-3 -3 -5 -6.5t-2 -6.5q0 -15 13.5 -29t35.5 -21q38 -14 61 -36.5t23 -45.5q0 -29 -16.5 -51.5t-41.5 -27.5l-30 19q5 8 7.5 16.5t2.5 15.5q0 18 -12.5 31t-30.5 13t-30.5 -11.5t-12.5 -27.5q0 -10 5 -17.5t13 -10.5q0 9 6.5 14.5t17.5 5.5
q10 0 17.5 -7t7.5 -17q0 -12 -10 -20t-25 -8q-25 0 -42.5 17.5t-17.5 42.5q0 28 20.5 47.5t50.5 19.5q28 0 48.5 -21.5t20.5 -50.5q0 -8 -1 -13.5t-3 -9.5q12 4 20 18.5t8 32.5q0 16 -19 32t-49 27t-48 31t-18 42q0 6 3 13zM51 11q4 8 11 16l27 -18q-4 -2 -6 -6t-2 -8
q-1 -17 14 -33.5t39 -26.5q43 -18 68.5 -45t24.5 -53q-1 -34 -21.5 -59.5t-49.5 -28.5l-34 22q6 10 9.5 19.5t4.5 17.5q1 21 -13 36.5t-35 16.5q-20 1 -35 -11.5t-16 -31.5q0 -11 5 -20t14 -13q0 10 8.5 16t20.5 6q12 -1 20 -9t7 -20q0 -13 -12 -22t-29 -9q-29 2 -48 23
q-17 19 -17 44v5q1 32 25 53.5t58 20.5q33 -2 55.5 -27.5t21.5 -59.5q-1 -9 -2.5 -15t-4.5 -10q15 4 24.5 20t10.5 37q1 18 -20 37.5t-55 33.5q-33 14 -53 38.5t-19 49.5q0 6 4 14z" />
    <glyph glyph-name="u09E6" unicode="&#x9e6;" horiz-adv-x="500" 
d="M80 255q0 68 50 116.5t120 48.5t120 -48.5t50 -116.5t-50 -116.5t-120 -48.5t-120 48.5t-50 116.5zM380 255q0 52 -38 88.5t-92 36.5t-92 -36.5t-38 -88.5t38 -88.5t92 -36.5t92 36.5t38 88.5z" />
    <glyph glyph-name="u09E7" unicode="&#x9e7;" horiz-adv-x="499" 
d="M132 45q0 19 14.5 32t35.5 13q30 0 51 -16.5t19 -38.5q44 12 72 48t28 82q0 40 -39.5 82t-105.5 73q-46 21 -73 51t-27 59q0 23 13 46t37 39l30 -25q-19 -16 -29.5 -31.5t-10.5 -28.5q0 -19 26 -42t69 -43q69 -32 109.5 -81t40.5 -99q0 -72 -55.5 -123.5t-134.5 -51.5
q-29 0 -49.5 16t-20.5 39z" />
    <glyph glyph-name="u09E8" unicode="&#x9e8;" horiz-adv-x="500" 
d="M253 77.5q-86 65.5 -188 102.5l20 40q26 -15 53.5 -22.5t56.5 -7.5q58 0 99 23.5t41 56.5q0 26 -31 49t-79 31q-43 8 -71.5 33.5t-28.5 56.5q0 18 8 34t22 26l30 -20q-10 -8 -15 -18.5t-5 -21.5q0 -19 25.5 -36t64.5 -24q52 -9 86 -40t34 -70q0 -48 -45.5 -81.5
t-109.5 -33.5q70 -49 124 -100.5t91 -104.5l-35 -25q-61 87 -147 152.5z" />
    <glyph glyph-name="u09E9" unicode="&#x9e9;" horiz-adv-x="500" 
d="M30 375l40 5q10 -115 73.5 -192.5t146.5 -77.5q58 0 99 44t41 106q0 58 -33.5 99t-81.5 41q-18 0 -34.5 -5t-30.5 -15q14 0 24.5 -13t10.5 -32q0 -17 -13 -28.5t-32 -11.5q-21 0 -35.5 14.5t-14.5 35.5q0 39 36.5 67t88.5 28q64 0 109.5 -52.5t45.5 -127.5
q0 -79 -52.5 -134.5t-127.5 -55.5q-99 0 -174 88t-86 217z" />
    <glyph glyph-name="u09EA" unicode="&#x9ea;" horiz-adv-x="499" 
d="M92 150q0 32 19 61.5t51 48.5q-29 24 -44.5 53t-15.5 57q0 50 44 85t106 35q58 0 99 -36.5t41 -88.5q0 -31 -17.5 -59.5t-47.5 -45.5q37 -17 58.5 -49.5t21.5 -70.5q0 -54 -45.5 -92t-109.5 -38q-66 0 -113 41t-47 99zM367 140q0 43 -35 74t-85 31q-48 0 -81.5 -28
t-33.5 -67q0 -41 35 -70.5t85 -29.5q48 0 81.5 26.5t33.5 63.5zM352 360q0 37 -29.5 63.5t-70.5 26.5q-46 0 -78 -25t-32 -60t31 -60t74 -25t74 23.5t31 56.5z" />
    <glyph glyph-name="u09EB" unicode="&#x9eb;" horiz-adv-x="499" 
d="M72 240q0 87 74 161t161 74q12 0 21 -7.5t9 -17.5q0 -6 -6.5 -14t-18.5 -16q-7 -5 -11 -13t-4 -17q0 -17 14.5 -28.5t35.5 -11.5q12 10 26 19t29 16l25 -25q-58 -33 -91.5 -84t-33.5 -106q0 -34 21.5 -66.5t58.5 -53.5l-30 -35q-14 -2 -29 -3.5t-31 -1.5
q-91 0 -155.5 67.5t-64.5 162.5zM262 170q0 43 14.5 81t40.5 64q-28 5 -46.5 27.5t-18.5 52.5q0 11 5.5 20.5t14.5 14.5q-69 -12 -114.5 -68.5t-45.5 -131.5q0 -80 62.5 -133.5t147.5 -46.5q-28 16 -44 48t-16 72z" />
    <glyph glyph-name="u09EC" unicode="&#x9ec;" horiz-adv-x="500" 
d="M25 360l40 5q0 -133 63 -226.5t152 -93.5q64 0 109.5 42.5t45.5 102.5q0 21 -9 43t-26 42q-23 -50 -54.5 -80t-60.5 -30q-33 0 -56.5 29.5t-23.5 70.5v75q0 41 -11 69.5t-29 35.5l35 40q23 -11 36.5 -50t13.5 -95v-75q0 -23 10.5 -39t24.5 -16q26 0 52.5 37.5t42.5 97.5
q43 -16 69 -58.5t26 -96.5q0 -77 -57 -131t-138 -54q-106 0 -180.5 104t-74.5 251z" />
    <glyph glyph-name="u09ED" unicode="&#x9ed;" horiz-adv-x="500" 
d="M295 105v195q-24 -17 -47 -26t-43 -9q-50 0 -85 32t-35 78t35 78t85 32q54 0 92 -41t38 -99v-240q0 -21 7.5 -35.5t17.5 -14.5q8 0 17.5 6.5t17.5 18.5l20 -35q-12 -14 -26.5 -22t-28.5 -8q-27 0 -46 26.5t-19 63.5zM295 350q0 39 -26.5 67t-63.5 28q-33 0 -56.5 -19
t-23.5 -46q0 -31 23.5 -53t56.5 -22q18 0 41 11.5t49 33.5z" />
    <glyph glyph-name="u09EE" unicode="&#x9ee;" horiz-adv-x="499" 
d="M87 100v290q0 23 -11.5 39t-28.5 16q-10 0 -21 0.5t-14 -0.5l5 40h50q25 0 42.5 -28t17.5 -67v-75q16 7 32.5 11t32.5 4q38 0 68.5 -13t46.5 -37q15 26 37.5 40.5t47.5 14.5q10 0 30 -2.5t30 -2.5q13 0 22 1.5t13 3.5l-5 -45q-2 -2 -12 -1t-18 1q-10 0 -30 2.5t-30 2.5
q-27 0 -46 -25t-19 -60q-5 -63 -60.5 -126.5t-104.5 -63.5q-31 0 -53 23.5t-22 56.5zM127 100q0 -17 10.5 -28.5t24.5 -11.5q43 0 79.5 51t50.5 129q-13 23 -38.5 36.5t-56.5 13.5q-25 0 -43.5 -5t-26.5 -15v-170z" />
    <glyph glyph-name="u09EF" unicode="&#x9ef;" horiz-adv-x="499" 
d="M127 505l35 -20q-7 -6 -11 -16.5t-4 -23.5q0 -30 35.5 -62t94.5 -53q74 -27 119.5 -73.5t45.5 -96.5q0 -57 -38 -101t-97 -54l-35 25q1 4 10.5 29.5t9.5 35.5q0 41 -29.5 70.5t-70.5 29.5q-39 0 -67 -25t-28 -60q0 -20 11 -36.5t29 -23.5q2 13 10.5 21.5t19.5 8.5
q17 0 28.5 -9t11.5 -21q0 -21 -14.5 -35.5t-35.5 -14.5q-41 0 -70.5 32t-29.5 78q0 52 41 88.5t99 36.5q56 0 95.5 -39.5t39.5 -95.5q0 -16 -2.5 -28.5t-7.5 -21.5q34 12 54.5 42.5t20.5 67.5q0 38 -42.5 76.5t-112.5 63.5q-63 23 -101.5 64t-38.5 86q0 12 6.5 26.5
t18.5 28.5z" />
    <glyph glyph-name="u09F0" unicode="&#x9f0;" horiz-adv-x="433" 
d="M308 0q-26 71 -97 122t-168 68l-25 35q45 65 118.5 112.5t166.5 72.5v55h-313v35h453v-35h-100v-465h-35zM303 370q-36 -6 -69.5 -21.5t-60.5 -38.5q24 -6 57 -24t73 -46v130zM303 200q-53 37 -94.5 58.5t-70.5 26.5q-19 -11 -36.5 -26t-33.5 -34q75 -13 136 -49.5
t99 -90.5v115z" />
    <glyph glyph-name="u09F1" unicode="&#x9f1;" horiz-adv-x="450" 
d="M141 73q-52 36 -116 42l5 35q75 -7 135.5 -47t89.5 -103l-35 -20q-27 57 -79 93zM325 0q-26 72 -101 124.5t-179 70.5l-15 30q53 76 128.5 125.5t161.5 64.5v50h-330v35h470v-35h-100v-465h-35zM320 375q-71 -13 -132 -52t-103 -98q75 -13 136 -49.5t99 -90.5v290z" />
    <glyph glyph-name="u09F2" unicode="&#x9f2;" horiz-adv-x="244" 
d="M7 240v35h230v-35h-230z" />
    <glyph glyph-name="u09F3" unicode="&#x9f3;" horiz-adv-x="295" 
d="M151 271v-40h-49v-69q0 -13 1 -24.5t5.5 -20.5t13.5 -15t24 -7q17 0 33.5 9t29 22.5t20 30.5t7.5 34q0 16 -8 29t-26 21l33 27q21 -16 31 -35.5t10 -41.5q0 -24 -10.5 -48t-28 -43.5t-40 -31.5t-47.5 -12q-28 0 -45 10.5t-26.5 28t-13 40t-3.5 46.5v50h-65v40h65v147
q10 12 19 12q11 0 21 -15v-144h49z" />
    <glyph glyph-name="u09F4" unicode="&#x9f4;" horiz-adv-x="244" 
d="M7 240v35h230v-35h-230z" />
    <glyph glyph-name="u09F5" unicode="&#x9f5;" horiz-adv-x="244" 
d="M7 240v35h230v-35h-230z" />
    <glyph glyph-name="u09F6" unicode="&#x9f6;" horiz-adv-x="244" 
d="M7 240v35h230v-35h-230z" />
    <glyph glyph-name="u09F7" unicode="&#x9f7;" horiz-adv-x="271" 
d="M141 0v500h40v-500h-40z" />
    <glyph glyph-name="u09F8" unicode="&#x9f8;" horiz-adv-x="244" 
d="M7 240v35h230v-35h-230z" />
    <glyph glyph-name="u09F9" unicode="&#x9f9;" horiz-adv-x="244" 
d="M7 240v35h230v-35h-230z" />
    <glyph glyph-name="u09FA" unicode="&#x9fa;" horiz-adv-x="645" 
d="M177.5 181q-51.5 46 -87.5 124l40 15q31 -66 71.5 -105.5t78.5 -39.5q47 0 111.5 64.5t128.5 175.5l35 -20q-70 -121 -143.5 -190.5t-131.5 -69.5q-51 0 -102.5 46zM244.5 284.5q-14.5 14.5 -14.5 35.5t14.5 35.5t35.5 14.5t35.5 -14.5t14.5 -35.5t-14.5 -35.5
t-35.5 -14.5t-35.5 14.5z" />
    <glyph glyph-name="afii61664" unicode="&#x200c;" 
d="M0 -245v995h40v-995h-40z" />
    <glyph glyph-name="afii301" unicode="&#x200d;" 
d="M0 -245v995h170v-40h-130v-955h-40z" />
    <glyph glyph-name="endash" unicode="&#x2013;" horiz-adv-x="500" 
d="M0 235v40h500v-40h-500z" />
    <glyph glyph-name="emdash" unicode="&#x2014;" horiz-adv-x="1024" 
d="M0 235v40h1000v-40h-1000z" />
    <glyph glyph-name="quoteleft" unicode="&#x2018;" horiz-adv-x="305" 
d="M110.5 435.5q-20.5 20.5 -20.5 49.5q0 50 27 94t73 71l25 -30q-34 -16 -54.5 -47t-20.5 -68q3 5 11 7.5t19 2.5q19 0 32 -14.5t13 -35.5t-16 -35.5t-39 -14.5q-29 0 -49.5 20.5z" />
    <glyph glyph-name="quoteright" unicode="&#x2019;" horiz-adv-x="315" 
d="M95 390q39 18 62 46.5t23 58.5q-4 -7 -13.5 -11t-21.5 -4q-23 0 -39 16t-16 39q0 25 19 42.5t46 17.5q29 0 49.5 -22t20.5 -53q0 -52 -30 -97t-80 -68z" />
    <glyph glyph-name="quotedblleft" unicode="&#x201c;" horiz-adv-x="435" 
d="M90 435l75 185h40l-45 -185h-70zM230 435l75 185h40l-45 -185h-70z" />
    <glyph glyph-name="quotedblright" unicode="&#x201d;" horiz-adv-x="460" 
d="M90 435l60 200h80l-95 -200h-45zM230 435l60 200h80l-95 -200h-45z" />
    <glyph glyph-name="ellipsis" unicode="&#x2026;" horiz-adv-x="810" 
d="M90 0v45h110v-45h-110zM350 0v45h110v-45h-110zM610 0v45h110v-45h-110z" />
    <glyph glyph-name="minus" unicode="&#x2212;" horiz-adv-x="244" 
d="M7 240v35h230v-35h-230z" />
    <glyph glyph-name="uni25CC" unicode="&#x25cc;" horiz-adv-x="720" 
d="M334.5 509.5q10.5 10.5 25.5 10.5t25.5 -10.5t10.5 -25.5t-10.5 -25.5t-25.5 -10.5t-25.5 10.5t-10.5 25.5t10.5 25.5zM334.5 41.5q10.5 10.5 25.5 10.5t25.5 -10.5t10.5 -25.5t-10.5 -25.5t-25.5 -10.5t-25.5 10.5t-10.5 25.5t10.5 25.5zM100.5 275.5
q10.5 10.5 25.5 10.5t25.5 -10.5t10.5 -25.5t-10.5 -25.5t-25.5 -10.5t-25.5 10.5t-10.5 25.5t10.5 25.5zM568.5 275.5q10.5 10.5 25.5 10.5t25.5 -10.5t10.5 -25.5t-10.5 -25.5t-25.5 -10.5t-25.5 10.5t-10.5 25.5t10.5 25.5zM132.5 158.5q10.5 10.5 25.5 10.5t25.5 -10.5
t10.5 -25.5t-10.5 -25.5t-25.5 -10.5t-25.5 10.5t-10.5 25.5t10.5 25.5zM537.5 392.5q10.5 10.5 25.5 10.5t25.5 -10.5t10.5 -25.5t-10.5 -25.5t-25.5 -10.5t-25.5 10.5t-10.5 25.5t10.5 25.5zM451.5 478.5q10.5 10.5 25.5 10.5t25.5 -10.5t10.5 -25.5t-10.5 -25.5
t-25.5 -10.5t-25.5 10.5t-10.5 25.5t10.5 25.5zM217.5 73.5q10.5 10.5 25.5 10.5t25.5 -10.5t10.5 -25.5t-10.5 -26t-25.5 -11t-25.5 11t-10.5 26t10.5 25.5zM132.5 392.5q10.5 10.5 25.5 10.5t25.5 -10.5t10.5 -25.5t-10.5 -25.5t-25.5 -10.5t-25.5 10.5t-10.5 25.5
t10.5 25.5zM537.5 158.5q10.5 10.5 25.5 10.5t25.5 -10.5t10.5 -25.5t-10.5 -25.5t-25.5 -10.5t-25.5 10.5t-10.5 25.5t10.5 25.5zM217.5 478.5q10.5 10.5 25.5 10.5t25.5 -10.5t10.5 -25.5t-10.5 -25.5t-25.5 -10.5t-25.5 10.5t-10.5 25.5t10.5 25.5zM451.5 73.5
q10.5 10.5 25.5 10.5t25.5 -10.5t10.5 -25.5t-10.5 -26t-25.5 -11t-25.5 11t-10.5 26t10.5 25.5z" />
    <glyph glyph-name="u09AF_u09CD.pstf" horiz-adv-x="223" 
d="M55 20q37 17 58.5 48t21.5 67q0 42 -42.5 115t-42.5 115q0 25 10.5 51t29.5 49h-100v35h243v-35h-98q-22 -26 -33.5 -52t-11.5 -48q0 -42 42.5 -115t42.5 -115q0 -46 -26 -85.5t-69 -59.5z" />
    <glyph glyph-name="u09A4_u09CD" horiz-adv-x="577" 
d="M36 330l40 5q0 -128 70.5 -219t169.5 -91q72 0 123.5 50t51.5 120q0 56 -41 95.5t-99 39.5q-30 0 -51.5 -13t-23.5 -32q4 1 9 2t10 1q21 0 36 -14t15 -34q0 -21 -16 -35.5t-39 -14.5q-27 0 -46 20.5t-19 49.5q0 46 36.5 78t88.5 32q75 0 127.5 -51.5t52.5 -123.5
q0 -85 -63 -145t-152 -60q-116 0 -198 99.5t-82 240.5zM-10 465v35h597v-35h-597zM284 -49l29 30l220 -205l-30 -30z" />
    <glyph glyph-name="u0995_u09CD_u0995" horiz-adv-x="566" 
d="M295 0q-48 48 -105 74t-115 26l-25 40q11 13 32 30.5t53 39.5q-22 22 -44 33.5t-41 11.5l-25 30q39 56 110 91.5t160 43.5v45h-305v35h586v-35h-241v-45q76 -7 128 -40t52 -75q0 -23 -14.5 -39t-35.5 -16q-19 0 -32 11.5t-13 28.5q0 15 14.5 26.5t35.5 13.5
q-24 24 -59 37t-76 13v-110q76 -7 128 -44.5t52 -85.5q0 -27 -14.5 -46t-35.5 -19q-19 0 -32 13t-13 32t14.5 32t35.5 13q-17 30 -53.5 47.5t-81.5 17.5v-230h-40zM295 230q-42 -4 -90.5 -28t-99.5 -67q43 0 92 -22t98 -63v180zM295 270v110q-58 0 -113.5 -24.5
t-101.5 -70.5q25 -4 48 -18.5t42 -36.5q38 18 69.5 28t55.5 12z" />
    <glyph glyph-name="u0995_u09CD_u099F" horiz-adv-x="464" 
d="M93 90q0 29 27.5 56.5t72.5 43.5q-25 44 -69.5 69.5t-95.5 25.5l-10 40q43 43 99 66.5t116 23.5v50h-243v35h343q0 33 -22 56.5t-53 23.5q-27 0 -80 -10t-80 -10q-37 0 -63.5 20.5t-26.5 49.5q0 21 6.5 37t18.5 23l35 -15q-10 -12 -15 -22t-5 -18q0 -14 14.5 -24.5
t35.5 -10.5q26 0 77.5 10t77.5 10q50 0 85 -35t35 -85h101v-35h-201v-50q62 0 106 -42.5t44 -102.5q0 -23 -16 -39t-39 -16q-21 0 -35.5 13t-14.5 32q0 20 18.5 32t41.5 8q-6 33 -35.5 54t-69.5 21v-150q0 -20 -19 -39.5t-51 -30.5t-51 -30.5t-19 -39.5q0 -23 31 -39t74 -16
q31 0 56.5 13.5t38.5 36.5q-40 0 -40 40t40 40q21 0 35.5 -14.5t14.5 -35.5q0 -50 -42.5 -85t-102.5 -35t-102.5 29.5t-42.5 70.5zM233 240v135q-43 0 -84 -15.5t-76 -44.5q52 -9 91.5 -37t58.5 -68q5 2 7.5 10t2.5 20z" />
    <glyph glyph-name="u0995_u09CD_u09A4" horiz-adv-x="747" 
d="M75 395q14 -155 96 -260t189 -105q50 0 85 28t35 67q0 34 -20 59.5t-50 30.5q-12 -12 -26.5 -18.5t-28.5 -6.5q-19 0 -32 11.5t-13 28.5t13 28.5t32 11.5t33.5 -4t21.5 -11q16 9 25.5 26.5t9.5 38.5q0 29 -32 49.5t-78 20.5q-40 0 -69 -15.5t-36 -39.5q20 7 37.5 -2.5
t17.5 -27.5q0 -17 -13 -28.5t-32 -11.5q-21 0 -35.5 16t-14.5 39q0 46 42.5 78t102.5 32q46 0 85 -21.5t60 -58.5q22 22 50.5 33.5t59.5 11.5q52 0 88.5 -33.5t36.5 -81.5q0 -41 -31 -70.5t-74 -29.5q-25 0 -42.5 13t-17.5 32q0 14 11.5 24.5t28.5 10.5t28.5 -11.5
t11.5 -28.5q20 5 32.5 22t12.5 38q0 31 -25 53t-60 22q-30 0 -57.5 -13t-47.5 -37q0 -14 -7.5 -31t-22.5 -34q30 -14 47.5 -45t17.5 -70q0 -56 -47 -95.5t-113 -39.5q-123 0 -216.5 115t-108.5 285zM-10 465v35h767v-35h-767z" />
    <glyph glyph-name="u0995_u09CD_u09A4_u09F0_u09CD" horiz-adv-x="747" 
d="M75 395q14 -155 96 -260t189 -105q50 0 85 28t35 67q0 34 -20 59.5t-50 30.5q-12 -12 -26.5 -18.5t-28.5 -6.5q-19 0 -32 11.5t-13 28.5t13 28.5t32 11.5t33.5 -4t21.5 -11q16 9 25.5 26.5t9.5 38.5q0 29 -32 49.5t-78 20.5q-40 0 -69 -15.5t-36 -39.5q20 7 37.5 -2.5
t17.5 -27.5q0 -17 -13 -28.5t-32 -11.5q-21 0 -35.5 16t-14.5 39q0 46 42.5 78t102.5 32q46 0 85 -21.5t60 -58.5q22 22 50.5 33.5t59.5 11.5q52 0 88.5 -33.5t36.5 -81.5q0 -41 -31 -70.5t-74 -29.5q-25 0 -42.5 13t-17.5 32q0 14 11.5 24.5t28.5 10.5t28.5 -11.5
t11.5 -28.5q20 5 32.5 22t12.5 38q0 31 -25 53t-60 22q-30 0 -57.5 -13t-47.5 -37q0 -14 -7.5 -31t-22.5 -34q30 -14 47.5 -45t17.5 -70q0 -10 -2 -20.5t-6 -20.5v-224h-40q-5 20 -30.5 32.5t-59.5 12.5q-32 0 -92.5 -20t-92.5 -20q-33 0 -56.5 28t-23.5 67h35q0 -23 13 -39
t32 -16q32 0 92.5 20t92.5 20t56.5 -9.5t33.5 -25.5v119q-23 -19 -51.5 -29t-60.5 -10q-123 0 -216.5 115t-108.5 285zM-10 465v35h767v-35h-767z" />
    <glyph glyph-name="u0995_u09CD_u09A4_u09AC_u09CD" horiz-adv-x="672" 
d="M331 -195q-21 37 -61.5 58.5t-88.5 21.5l-15 35q29 29 62 50.5t68 34.5q-113 20 -186.5 117.5t-73.5 227.5l40 5q0 -130 73 -222.5t177 -92.5q39 0 67 25t28 60q0 29 -17.5 49.5t-42.5 20.5q-9 -5 -17.5 -7.5t-17.5 -2.5q-19 0 -32 10.5t-13 24.5t13 24.5t32 10.5
q7 0 15.5 -2.5t19.5 -7.5q17 17 26 35t9 35q0 31 -26.5 53t-63.5 22q-30 0 -53 -15.5t-27 -39.5l7 1q20 0 34 -12t14 -29q0 -19 -14.5 -32t-35.5 -13q-23 0 -39 17.5t-16 42.5q0 50 38 85t92 35q48 0 84.5 -22.5t45.5 -57.5q24 24 50 37t50 13q43 0 74 -29.5t31 -70.5
t-28 -70.5t-67 -29.5q-25 0 -42.5 14.5t-17.5 35.5q0 19 13 32t32 13t32 -11.5t13 -28.5q11 5 18 17.5t7 27.5q0 25 -19 42.5t-46 17.5q-19 0 -45 -15.5t-55 -44.5q1 -15 -9.5 -35t-30.5 -40q29 -11 47 -38.5t18 -61.5q0 -37 -24.5 -68.5t-65.5 -46.5v-205h-40zM331 -10
l-110 -70q34 -6 62.5 -21.5t47.5 -38.5v130zM-10 465v35h692v-35h-692z" />
    <glyph glyph-name="u0995_u09CD_u09A8" horiz-adv-x="550" 
d="M163 369q69 41 140 41v55h-313v35h570v-35h-217v-55q74 -6 124.5 -51t50.5 -104q0 -31 -17.5 -53t-42.5 -22q-21 0 -35.5 13.5t-14.5 32.5t15 32.5t37 13.5q5 0 9.5 -0.5t8.5 -1.5q-8 43 -46 71.5t-89 28.5v-410h-40q-28 49 -69.5 77t-85.5 28l2 -8t1 -8
q0 -24 -16.5 -41.5t-40.5 -17.5q-25 0 -43 17.5t-18 42.5t22 42.5t53 17.5q62 0 113.5 -24t81.5 -66v45q-42 72 -103.5 113.5t-126.5 41.5l-30 35q51 73 120 114zM303 370q-50 4 -105.5 -26.5t-104.5 -88.5q62 -5 117 -38t93 -87v240z" />
    <glyph glyph-name="u0995_u09CD_u09AE" horiz-adv-x="603" 
d="M473 0q-16 43 -73.5 69t-136.5 26q2 -24 -13 -42t-37 -18q-25 0 -42.5 14.5t-17.5 35.5t17 35.5t41 14.5l12 -1q-14 51 -64.5 85.5t-120.5 40.5l-20 40q36 52 90 83.5t115 36.5v45h-233v35h623v-35h-100v-465h-40zM473 465h-210v-45q64 0 109.5 -38t45.5 -92
q0 -31 -16 -53t-39 -22q-19 0 -32 11.5t-13 28.5q0 16 13 27t31 11q4 0 8 -1l8 -2q0 37 -33.5 63.5t-81.5 26.5v-245q78 -7 133 -28t77 -52v410zM223 380q-46 -4 -87.5 -26t-72.5 -59q53 -9 94.5 -32.5t65.5 -57.5v175z" />
    <glyph glyph-name="u0995_u09F0_u09CD" horiz-adv-x="643" 
d="M367 0q-3 34 -33 57t-72 23q-20 0 -60 -5t-60 -5q-43 0 -74 31t-31 74q0 31 9 60.5t26 54.5l30 -20q-12 -17 -18.5 -41.5t-6.5 -53.5q0 -27 19 -46t46 -19q20 0 60 5t60 5q33 0 61 -13t44 -37v240q0 31 -14.5 53t-35.5 22q-42 0 -70.5 -31.5t-24.5 -73.5q6 4 13 6.5
t13 2.5q20 0 34.5 -14t14.5 -33q0 -17 -14.5 -29.5t-35.5 -12.5q-27 0 -46 25t-19 60q0 58 39.5 99t95.5 41q37 0 63.5 -29.5t26.5 -70.5q16 24 42.5 37t57.5 13q43 0 74 -29.5t31 -70.5q0 -39 -26.5 -67t-63.5 -28q-25 0 -42.5 13t-17.5 32q0 14 10.5 24.5t24.5 10.5
q18 0 30.5 -12t9.5 -28q15 3 25 18.5t10 36.5q0 25 -19 42.5t-46 17.5q-39 0 -68 -26t-32 -64v-245h-40zM-10 465v35h663v-35h-663z" />
    <glyph glyph-name="u0995_u09CD_u09B2" horiz-adv-x="602" 
d="M342 0q0 25 -16 42.5t-39 17.5q-19 0 -32 -14.5t-13 -35.5h-35q0 35 -25 60t-60 25q-23 0 -39 -16t-16 -39q0 -15 8 -27.5t22 -17.5q2 11 10.5 18t19.5 7q12 0 21 -9t9 -21q0 -14 -13 -24.5t-32 -10.5q-35 0 -60 25t-25 60q0 37 28 63.5t67 26.5q37 0 65.5 -18t39.5 -47
q10 15 26.5 23t35.5 8q12 0 23.5 -5.5t19.5 -15.5q-21 59 -85 98t-150 47l-20 35q52 62 120 101.5t145 53.5v55h-352v35h622v-35h-230v-55q77 0 131 -44t54 -106q0 -39 -22 -67t-53 -28q-19 0 -32 13t-13 32q1 17 13.5 28.5t29.5 11.5q12 0 21.5 -2.5t15.5 -7.5q1 3 2 8.5
t1 13.5q0 49 -44 81t-104 27v-370h-40zM342 370q-50 -4 -104.5 -34t-105.5 -81q68 -6 124 -39t86 -86v240z" />
    <glyph glyph-name="u0995_u09AC_u09CD" horiz-adv-x="552" 
d="M308 0q-28 41 -87.5 67t-137.5 33l-30 30q25 30 46.5 50t38.5 30q-14 14 -37.5 23t-52.5 12l-25 35q46 54 120 88t165 42v55h-318v35h572v-35h-214v-55q72 0 123.5 -42.5t51.5 -102.5q0 -25 -14.5 -42.5t-35.5 -17.5q-19 0 -32 11.5t-13 28.5t13 29t32 12l10 -1
q-7 37 -45 61t-90 24v-370h-40zM308 240q-55 -5 -106 -32t-89 -73q64 -6 114.5 -28t80.5 -57v190zM246 266.5q35 11.5 62 13.5v90q-74 -7 -133.5 -30t-96.5 -60q27 -5 50 -16.5t40 -28.5q43 20 78 31.5z" />
    <glyph glyph-name="u0995_u09CD_u09B7" horiz-adv-x="623" 
d="M384 0q-8 46 -43 83.5t-87 56.5q-2 -21 -18 -35.5t-37 -14.5q-23 0 -39 13t-16 32q0 21 16 36t39 15l20 -1q8 46 -17 84t-68 46q0 -27 -16 -46t-39 -19t-39 13t-16 32q0 23 17 39.5t41 16.5l12 -1q0 36 -17.5 67t-47.5 48h-39v35h643v-35h-209v-130q70 0 120 -33.5
t50 -81.5q0 -35 -20.5 -60t-49.5 -25q-23 0 -39 13t-16 32t14.5 32t35.5 13q8 0 16 -4t14 -11q16 28 -25.5 56.5t-99.5 28.5v-295h-40zM384 295q-72 0 -123.5 50t-51.5 120h-125q24 -16 37 -46.5t13 -68.5q62 -5 99 -57.5t26 -117.5q40 -7 73 -29.5t52 -55.5v205zM384 465
h-135q0 -54 39.5 -92t95.5 -38v130z" />
    <glyph glyph-name="u0995_u09CD_u09B7_u09CD_u09A3" horiz-adv-x="640" 
d="M384 -50q-32 38 -74 59t-86 21q5 -4 7.5 -11t2.5 -15q0 -22 -16 -38t-39 -16q-25 0 -42.5 16t-17.5 39q0 27 26.5 46t63.5 19q55 0 101 -18.5t74 -51.5q-11 60 -46 103.5t-84 56.5q-5 -20 -22 -32.5t-38 -12.5q-25 0 -42.5 14.5t-17.5 35.5q0 24 17.5 40.5t42.5 16.5
q7 0 15 -2t15 -5q7 37 -17.5 70.5t-67.5 44.5q0 -27 -16 -46t-39 -19q-25 0 -42.5 14.5t-17.5 35.5q0 27 21 44.5t49 15.5q-6 33 -20.5 57t-34.5 33h-49v35h660v-35h-226v-125q77 0 131 -41t54 -99q0 -33 -19 -56.5t-46 -23.5q-23 0 -39 14.5t-16 35.5q0 19 15.5 33t37.5 14
q7 0 14 -2t13 -5q0 37 -42.5 63.5t-102.5 26.5v-350h-40zM384 305q-66 12 -112.5 56t-57.5 104h-120q14 -14 24.5 -37t15.5 -53q65 -11 103 -62.5t27 -112.5q39 -10 70.5 -37.5t49.5 -67.5v210zM384 465h-130q8 -45 43.5 -78t86.5 -42v120z" />
    <glyph glyph-name="u0995_u09CD_u09B7_u09CD_u09AE" horiz-adv-x="668" 
d="M538 0q-18 50 -66 80t-109 30q0 -21 -14.5 -35.5t-35.5 -14.5q-23 0 -39 14.5t-16 35.5q0 23 21 37.5t49 12.5q-5 30 -28.5 52t-56.5 28q0 -25 -16 -42.5t-39 -17.5t-39 13t-16 32q0 25 23 40t52 10q3 30 -22.5 52.5t-62.5 22.5q-4 -24 -19.5 -39.5t-35.5 -15.5
q-23 0 -39 14.5t-16 35.5q0 23 22.5 38t52.5 12q0 19 -4 36.5t-11 33.5h-83v35h688v-35h-100v-465h-40zM538 465h-170v-75h45q37 0 63.5 -26.5t26.5 -63.5q0 -33 -20.5 -56.5t-49.5 -23.5q-19 0 -32 10.5t-13 24.5t10 24.5t24 10.5q10 0 18.5 -5.5t12.5 -14.5q5 5 7.5 12.5
t2.5 17.5q0 21 -13 35.5t-32 14.5h-50v-195q54 -5 98.5 -28.5t71.5 -61.5v400zM328 350h-35q-33 0 -56.5 23.5t-23.5 56.5v35h-95q5 -14 7.5 -32.5t2.5 -42.5q56 -5 91.5 -40t28.5 -77q25 -4 46 -16.5t34 -31.5v125zM328 390v75h-70v-35q0 -17 10.5 -28.5t24.5 -11.5h35z
" />
    <glyph glyph-name="u0995_u09CD_u09B7_u09F0_u09CD" horiz-adv-x="615" 
d="M376 0q0 12 -24.5 21t-59.5 9q-31 0 -90 -15t-90 -15q-39 0 -67 33.5t-28 81.5h40q0 -31 16 -53t39 -22q31 0 90 15t90 15q17 0 32 -2.5t27 -6.5q-18 26 -45 46.5t-60 32.5q-2 -21 -18 -35.5t-37 -14.5q-23 0 -39 13t-16 32q0 21 16 36t39 15l20 -2q8 47 -17 85t-68 46
q0 -27 -16 -46t-39 -19t-39 14.5t-16 35.5t17 36t41 15l12 -1q0 36 -17.5 67t-47.5 48h-27v35h631v-35h-209v-130q70 0 120 -33.5t50 -81.5q0 -35 -20.5 -60t-49.5 -25q-23 0 -39 13t-16 32t14.5 32t35.5 13q8 0 16 -4t14 -11q16 28 -25.5 56.5t-99.5 28.5v-295h-40z
M376 295q-72 0 -123.5 50t-51.5 120h-125q24 -16 37 -46.5t13 -68.5q62 -5 99 -57.5t26 -117.5q39 -8 71.5 -30t53.5 -55v205zM376 465h-135q0 -54 39.5 -92t95.5 -38v130z" />
    <glyph glyph-name="u0995_u09CD_u09B7_u09AC_u09CD" horiz-adv-x="619" 
d="M-10 465v35h639v-35h-209v-130q70 0 120 -32t50 -78q0 -37 -22 -63.5t-53 -26.5q-23 0 -39 13t-16 32t13 32t32 13q11 0 21.5 -5t18.5 -15q2 3 3 8t1 11q0 29 -38 50t-91 21v-425h-40q-20 35 -65.5 55t-104.5 20l-20 35q36 43 76.5 73.5t82.5 46.5q-18 14 -43.5 24.5
t-55.5 15.5q-2 -21 -18 -35.5t-37 -14.5t-35.5 14.5t-14.5 35.5q0 22 21.5 36t48.5 9q8 46 -17 84t-68 46q0 -25 -16 -42.5t-39 -17.5q-21 0 -35.5 13t-14.5 32q0 21 19 35.5t46 14.5q-8 29 -22 58t-33 57h-45zM380 70q-35 -10 -68.5 -33t-61.5 -57q52 -9 86 -22t44 -28v140
zM380 295q-72 0 -123.5 50t-51.5 120h-125q21 -37 33.5 -66t16.5 -49q62 -5 99 -57.5t26 -117.5q48 -8 80.5 -24t44.5 -36v180zM380 465h-135q0 -54 39.5 -92t95.5 -38v130z" />
    <glyph glyph-name="u0995_u09CD_u09B8" horiz-adv-x="565" 
d="M440 0q-10 56 -39.5 93t-65.5 37q-17 0 -37 -14.5t-38 -40.5t-42 -40.5t-48 -14.5q-39 0 -67 31t-28 74l5 25l45 -10q-2 -7 -3.5 -14.5t-1.5 -15.5q0 -21 14.5 -35.5t35.5 -14.5q14 0 27.5 11t22.5 29q-18 69 -67.5 114.5t-112.5 50.5l-15 45q42 42 91 66.5t99 28.5v60
h-225v35h585v-35h-100v-465h-35zM435 465h-180v-60q59 -5 99.5 -39.5t40.5 -80.5q0 -27 -16 -46t-39 -19q-19 0 -32 10.5t-13 24.5q0 23 19 35.5t41 4.5q0 26 -29 46t-71 24v-235q16 19 37 29.5t43 10.5q30 0 57 -20.5t43 -54.5v370zM215 365q-40 -3 -76 -20t-64 -45
q43 -12 79.5 -40.5t60.5 -69.5v175z" />
    <glyph glyph-name="u0996_u09F0_u09CD" horiz-adv-x="572" 
d="M442 0q-16 24 -46.5 37t-68.5 13q-23 0 -65 -15t-65 -15q-64 0 -109.5 47t-45.5 113q0 27 4 47t11 33l35 -15q-5 -14 -7.5 -30t-2.5 -35q0 -50 33.5 -85t81.5 -35q22 0 62.5 15t62.5 15q34 0 63.5 -11.5t51.5 -33.5q-18 67 -87 117.5t-168 67.5l-10 45q72 0 123.5 39.5
t51.5 95.5q0 18 -8 34t-22 26q-24 -42 -63 -66t-82 -24q-41 0 -70.5 23.5t-29.5 56.5q0 21 14.5 35.5t35.5 14.5t35.5 -13t14.5 -32q0 -12 -6.5 -22.5t-18.5 -17.5q6 -3 12.5 -5t13.5 -2q21 0 43 12.5t41 34.5q10 21 26 33t34 12q29 0 49.5 -29.5t20.5 -70.5q0 -55 -36 -100
t-94 -60q62 -17 110.5 -50.5t74.5 -79.5v440h40v-60h100v-35h-100v-465h-40z" />
    <glyph glyph-name="u0996_u09AC_u09CD" horiz-adv-x="471" 
d="M-14.5 535.5q14.5 14.5 35.5 14.5q19 0 32 -10.5t13 -24.5q0 -17 -5.5 -29.5t-14.5 -15.5q4 -3 7.5 -5t6.5 -2q20 0 40.5 12.5t35.5 34.5q13 19 27.5 29.5t27.5 10.5q27 0 46 -29.5t19 -70.5q0 -54 -30 -98t-80 -62q79 -14 130 -35t65 -45v350h40v-60h100v-35h-100v-510
h-40q-33 58 -92 91.5t-128 33.5l-15 40q51 36 99 56t91 24q-32 27 -90 41t-135 14l-10 45q67 12 111 56t44 99q0 18 -6.5 32.5t-18.5 22.5q-28 -40 -62.5 -62.5t-67.5 -22.5q-37 0 -63.5 22t-26.5 53q0 21 14.5 35.5zM341 170q-42 0 -84.5 -14t-80.5 -41q52 -9 95 -35
t70 -65v155z" />
    <glyph glyph-name="u0997_afii61664_u09C1" horiz-adv-x="682" 
d="M27 335l40 10q24 -137 120.5 -226t219.5 -89q66 0 113 31t47 74q0 25 -12 46.5t-33 33.5q-12 -10 -23.5 -15t-21.5 -5q-21 0 -35.5 11.5t-14.5 28.5t13 28.5t32 11.5q8 0 27 -9t23 -11q26 26 40.5 57.5t14.5 62.5q0 39 -19 67t-46 28q-31 0 -53 -28t-22 -67h-40
q-7 41 -39.5 68t-75.5 27q-37 0 -65 -24t-35 -61q12 14 29 22t36 8q41 0 70.5 -28t29.5 -67q0 -44 -34 -86t-91 -69l-20 35q48 22 76.5 54.5t28.5 65.5q0 23 -17.5 39t-42.5 16q-16 0 -40 -22.5t-40 -22.5q-12 0 -21 9t-9 21q6 64 46 107t94 43q48 0 86 -20.5t54 -54.5
q16 34 42 54.5t53 20.5q43 0 74 -38t31 -92q0 -43 -15.5 -79.5t-44.5 -60.5q24 -24 37 -51.5t13 -53.5q0 -60 -58.5 -102.5t-141.5 -42.5q-138 0 -246 97.5t-134 247.5z" />
    <glyph glyph-name="u0997_u09CD_u0997" horiz-adv-x="434" 
d="M304 560h40v-60h100v-35h-100v-465h-40v97q0 41 -32 69.5t-78 28.5t-78 -22t-32 -53q20 14 43 21t47 7q33 0 56.5 -23t23.5 -55q0 -44 -55 -82t-140 -53l-10 40q72 13 118.5 39.5t46.5 55.5q0 17 -11.5 28.5t-28.5 11.5q-16 0 -45 -15t-45 -15q-17 0 -28.5 11.5
t-11.5 28.5q0 46 44 78t106 32q32 3 61 -9t49 -36v207q0 41 -32 69.5t-78 28.5t-78 -22t-32 -53q20 14 43 21t47 7q33 0 56.5 -23t23.5 -55q0 -44 -55 -82t-140 -53l-10 40q72 13 118.5 39.5t46.5 55.5q0 17 -11.5 28.5t-28.5 11.5q-16 0 -45 -15t-45 -15q-17 0 -28.5 11.5
t-11.5 28.5q0 46 44 78t106 32q32 3 61 -9t49 -36v80z" />
    <glyph glyph-name="u0997_u09CD_u09A6" horiz-adv-x="671" 
d="M580 0q-27 38 -41 81.5t-14 88.5q0 47 14 92t41 83q-59 -21 -111.5 -63.5t-93.5 -101.5l-40 25v160q-24 42 -61.5 66t-78.5 24q-48 0 -84 -36t-41 -89q17 15 36.5 22.5t38.5 7.5q46 0 78 -33.5t32 -81.5q0 -40 -41.5 -86.5t-113.5 -88.5l-20 35q63 36 99 73.5t36 66.5
q0 31 -20.5 53t-49.5 22q-14 0 -37.5 -15t-37.5 -15q-17 0 -28.5 11.5t-11.5 28.5q0 68 48.5 116.5t116.5 48.5q43 0 80 -18.5t60 -51.5v75h346v-35h-306v-225q51 60 107.5 97.5t112.5 47.5l35 -35q-31 -38 -48 -85.5t-17 -99.5q0 -42 14 -84.5t41 -80.5h-40z" />
    <glyph glyph-name="u0997_u09CD_u09A7" horiz-adv-x="585" 
d="M196 176.5q55 34.5 134 63.5v190q-19 32 -56.5 51t-83.5 19q-54 0 -92 -28t-38 -67q20 17 43.5 26t46.5 9q43 0 74 -28t31 -67q0 -41 -52 -85t-138 -75l-15 35q74 27 119.5 61.5t45.5 63.5q0 23 -19 39t-46 16q-17 0 -45 -17.5t-45 -17.5t-28.5 11.5t-11.5 28.5
q0 54 48.5 92t116.5 38q50 0 88.5 -14.5t56.5 -40.5v80h40v-60h225v-35h-225v-215q16 7 32.5 11t32.5 4q43 0 74 -32t31 -78q0 -21 -10 -62.5t-10 -62.5q0 -17 7.5 -35t22.5 -35l-35 -20q-17 17 -26 41.5t-9 53.5q0 20 10 60t10 60q0 29 -19 49.5t-46 20.5q-19 0 -35.5 -4
t-29.5 -11v-250h-40q-36 52 -86.5 81t-103.5 29l-25 35q26 37 81 71.5zM330 195q-54 -14 -96 -38.5t-69 -56.5q53 -5 96.5 -27t68.5 -58v180z" />
    <glyph glyph-name="u0997_u09CD_u09A7_u09AC_u09CD" horiz-adv-x="585" 
d="M196 176.5q55 34.5 134 63.5v190q-19 32 -56.5 51t-83.5 19q-54 0 -92 -28t-38 -67q20 17 43.5 26t46.5 9q43 0 74 -28t31 -67q0 -41 -52 -85t-138 -75l-15 35q74 27 119.5 61.5t45.5 63.5q0 23 -19 39t-46 16q-17 0 -45 -17.5t-45 -17.5t-28.5 11.5t-11.5 28.5
q0 54 48.5 92t116.5 38q50 0 88.5 -14.5t56.5 -40.5v80h40v-60h225v-35h-225v-215q16 7 32.5 11t32.5 4q43 0 74 -32t31 -78q0 -21 -10 -62.5t-10 -62.5q0 -17 7.5 -35t22.5 -35l-35 -20q-17 17 -26 41.5t-9 53.5q0 20 10 60t10 60q0 29 -19 49.5t-46 20.5q-19 0 -35.5 -4
t-29.5 -11v-375h-40q-26 31 -70 53t-100 32l-20 40q29 26 58 44.5t57 29.5q-27 18 -56.5 27t-58.5 9l-25 35q26 37 81 71.5zM330 15q-34 -5 -68.5 -21.5t-66.5 -43.5q49 -9 84 -25.5t51 -39.5v130zM330 195q-54 -14 -96 -38.5t-69 -56.5q39 -3 73.5 -17t61.5 -36l16 2t14 1
v145z" />
    <glyph glyph-name="u0997_u09CD_u09A7_u09F0_u09CD" horiz-adv-x="625" 
d="M238 176.5q55 34.5 134 63.5v135q0 52 -41 88.5t-99 36.5q-52 0 -88.5 -29.5t-36.5 -70.5q24 17 46 26t39 9q41 0 70.5 -28t29.5 -67q0 -48 -51 -96.5t-134 -78.5l-10 35q70 25 112.5 63.5t42.5 76.5q0 23 -17.5 39t-42.5 16q-16 0 -42.5 -17.5t-42.5 -17.5
q-17 0 -28.5 11.5t-11.5 28.5q0 56 48.5 95.5t116.5 39.5q44 0 81.5 -17t58.5 -48v90h40v-60h223v-35h-223v-220q11 5 24.5 7.5t30.5 2.5q48 0 81.5 -29.5t33.5 -70.5q0 -21 -10 -62.5t-10 -62.5q0 -17 7.5 -35t22.5 -35l-35 -20q-17 17 -26 40.5t-9 49.5q0 21 10 62.5
t10 62.5q0 25 -22 42.5t-53 17.5q-17 0 -30.5 -2.5t-24.5 -7.5v-245h-40q0 21 -29.5 35.5t-70.5 14.5q-27 0 -75 -25t-75 -25q-39 0 -67 39.5t-28 95.5h40q0 -39 16 -67t39 -28q26 0 72.5 25t72.5 25q-21 10 -42.5 15t-42.5 5l-25 35q26 37 81 71.5zM372 195
q-54 -14 -96 -38.5t-69 -56.5q53 -5 96.5 -27t68.5 -58v180z" />
    <glyph glyph-name="u0997_u09CD_u09A8" horiz-adv-x="462" 
d="M87 475.5q50 39.5 120 39.5q37 0 70.5 -17t54.5 -48v110h40v-60h100v-35h-100v-465h-40q-8 48 -57 77t-113 23q6 -8 9.5 -16.5t3.5 -17.5q0 -21 -14 -36t-34 -15q-23 0 -39 14.5t-16 35.5q0 31 26.5 53t63.5 22q55 0 100 -20t70 -55v320q-15 41 -49 65.5t-76 24.5
q-54 0 -92 -28t-38 -67q21 15 42.5 22.5t42.5 7.5q41 0 70.5 -28t29.5 -67q0 -41 -52 -85t-138 -75l-15 35q74 27 119.5 61.5t45.5 63.5q0 23 -17.5 39t-42.5 16q-15 0 -42.5 -15t-42.5 -15q-17 0 -28.5 11.5t-11.5 28.5q0 56 50 95.5z" />
    <glyph glyph-name="u0997_u09CD_u09AE" horiz-adv-x="639" 
d="M319 375q-7 37 -40.5 61t-79.5 24q-54 0 -92 -31t-38 -74q14 17 37.5 26t52.5 9q39 0 67 -29.5t28 -70.5q0 -49 -49.5 -97t-130.5 -78l-15 35q70 25 112.5 63.5t42.5 76.5q0 25 -16 42.5t-39 17.5q-17 0 -45 -17.5t-45 -17.5t-28.5 11.5t-11.5 28.5q0 60 50 102.5
t120 42.5q41 0 73 -14.5t47 -40.5v115h40v-60h290v-35h-100v-465h-40q-13 49 -54.5 82t-95.5 38q0 -23 -16 -39t-39 -16q-25 0 -42.5 16t-17.5 39t17 39.5t41 16.5l17 -1v200zM509 465h-150v-305q49 -4 88.5 -28t61.5 -62v395z" />
    <glyph glyph-name="u0997_u09F0_u09CD" horiz-adv-x="576" 
d="M446 -50q-9 35 -34.5 57.5t-55.5 22.5q-33 0 -95 -20t-95 -20q-54 0 -92 42.5t-38 102.5l5 55h40l-5 -50q0 -46 28 -78t67 -32q33 0 95 20t95 20q25 0 47.5 -14.5t37.5 -40.5v295q0 62 -44 106t-106 44q-64 0 -109.5 -39.5t-45.5 -95.5q19 19 42.5 29.5t47.5 10.5
q46 0 78 -31t32 -74q0 -44 -41.5 -93.5t-113.5 -91.5l-25 35q64 30 102 70.5t38 79.5q0 27 -20.5 46t-49.5 19q-17 0 -45 -20t-45 -20t-28.5 11.5t-11.5 28.5q0 72 57 123.5t138 51.5q48 0 88.5 -21.5t61.5 -58.5v140h40v-60h100v-35h-100v-515h-40z" />
    <glyph glyph-name="u0997_u09F0_u09CD_u09C1" horiz-adv-x="725" 
d="M441 -50q-9 33 -34 54t-56 21t-90 -17.5t-90 -17.5q-56 0 -95.5 48.5t-39.5 116.5l40 5q0 -54 28 -92t67 -38q31 0 90 17.5t90 17.5q27 0 49.5 -10.5t35.5 -29.5v285q0 68 -48.5 116.5t-116.5 48.5q-62 0 -106 -44t-44 -106q30 17 55.5 26t44.5 9q48 0 81.5 -31t33.5 -74
q0 -35 -39 -78t-106 -82l-20 30q58 33 91.5 68t33.5 62t-22 46t-53 19q-18 0 -50 -17.5t-50 -17.5q-17 0 -28.5 11.5t-11.5 28.5q0 79 55.5 134.5t134.5 55.5q52 0 96.5 -24t68.5 -66v135h40v-60h259v-35h-259v-180q0 -35 28 -60t67 -25q33 0 56.5 22t23.5 53q0 22 -8 39.5
t-22 25.5q0 -23 -16 -39t-39 -16t-39 13t-16 32q0 25 19 42.5t46 17.5q48 0 81.5 -33.5t33.5 -81.5t-35 -81.5t-85 -33.5q-26 0 -51 10.5t-44 29.5v-250h-35z" />
    <glyph glyph-name="u0997_u09F0_u09CD_u09C2" horiz-adv-x="709" 
d="M442 -50q-7 27 -31 43.5t-54 16.5q-28 0 -82.5 -17.5t-82.5 -17.5q-64 0 -109.5 63t-45.5 152h40q0 -72 33.5 -123.5t81.5 -51.5q28 0 82.5 17.5t82.5 17.5q19 0 39.5 -9t40.5 -26v295q0 66 -45.5 113t-109.5 47q-62 0 -106 -47t-44 -113q26 22 52 33.5t48 11.5
q43 0 74 -29.5t31 -70.5q0 -43 -33.5 -87.5t-91.5 -77.5l-20 35q49 28 77 63t28 67q0 25 -19 42.5t-46 17.5q-19 0 -50 -22.5t-50 -22.5q-17 0 -28.5 11.5t-11.5 28.5q0 83 55.5 141.5t134.5 58.5q48 0 89.5 -24t65.5 -66v140h40v-60h242v-35h-242v-145q14 14 36.5 22
t48.5 8q35 0 60 -26.5t25 -63.5q0 -25 -15 -72.5t-15 -72.5q0 -26 14.5 -44.5t35.5 -20.5l-25 -30q-26 5 -43 31.5t-17 63.5q0 25 12.5 72.5t12.5 72.5q0 21 -14.5 35.5t-35.5 14.5q-22 0 -43 -10.5t-37 -29.5v-320h-35z" />
    <glyph glyph-name="u0997_u09CD_u09B2" horiz-adv-x="499" 
d="M369 0v15q0 39 -19 67t-46 28q-19 0 -32 -16t-13 -39h-40q0 31 -20.5 53t-49.5 22q-23 0 -39 -13t-16 -32q0 -9 1.5 -15.5t3.5 -9.5q8 10 18.5 15t21.5 5q19 0 32 -11.5t13 -28.5q0 -19 -14.5 -32t-35.5 -13q-33 0 -56.5 25t-23.5 60q0 37 28 63.5t67 26.5q33 0 58.5 -15
t34.5 -40q7 16 24 25.5t38 9.5t38.5 -9.5t26.5 -25.5v235q-5 59 -44 99.5t-91 40.5q-54 0 -92 -32t-38 -78q19 19 41 29.5t44 10.5q35 0 60 -25t25 -60q0 -44 -56 -86t-144 -66l-10 37q75 20 122.5 52t47.5 63q0 19 -13 32t-32 13q-16 0 -42.5 -20t-42.5 -20
q-17 0 -28.5 11.5t-11.5 28.5q0 62 50 106t120 44q41 0 77.5 -21.5t57.5 -58.5v110h40v-60h100v-35h-100v-465h-40z" />
    <glyph glyph-name="u0997_u09AC_u09CD" horiz-adv-x="433" 
d="M303 0q-20 35 -67 55t-108 20l-20 40q34 40 84 67t111 38v200q-8 31 -41.5 50.5t-78.5 19.5q-50 0 -85 -26.5t-35 -63.5q23 16 46 24.5t43 8.5q42 0 71.5 -26t29.5 -62q0 -45 -53.5 -91.5t-141.5 -78.5l-15 35q77 28 123.5 65t46.5 70q0 19 -17.5 32t-42.5 13
q-16 0 -45 -15t-45 -15q-17 0 -28.5 11.5t-11.5 28.5q0 54 47 92t113 38q29 3 60 -9t60 -36v75h40v-60h100v-35h-100v-465h-40zM303 180q-42 -4 -78.5 -22t-61.5 -48q49 -4 85 -18.5t55 -36.5v125z" />
    <glyph glyph-name="u0998_u09CD_u09A8" horiz-adv-x="497" 
d="M-10 465v35h517v-35h-100v-465h-40q-14 38 -59.5 61.5t-105.5 23.5q5 -5 7.5 -11.5t2.5 -14.5q0 -22 -17 -38t-41 -16t-40.5 16t-16.5 39q0 27 25 46t60 19q58 0 106 -17t79 -48v35q-50 59 -123.5 92t-156.5 33l-30 45l75 55q-43 8 -71.5 30.5t-28.5 49.5q0 17 9 34
t26 31h-77zM367 465h-250q-21 -15 -33 -32t-12 -33q0 -18 29 -32t71 -18l80 60l25 -30l-160 -120q69 0 134.5 -33t115.5 -92v330z" />
    <glyph glyph-name="u0998_u09F0_u09CD" horiz-adv-x="537" 
d="M407 0q-16 24 -48 37t-72 13q-27 0 -80 -12.5t-80 -12.5q-37 0 -63.5 26.5t-26.5 63.5q0 25 5 44t15 31l35 -15q-7 -13 -11 -28t-4 -32q0 -21 14.5 -35.5t35.5 -14.5q27 0 80 12.5t80 12.5q36 0 67 -11.5t53 -33.5q-28 48 -97 80t-163 40l-35 50l80 65q-43 8 -71.5 40.5
t-28.5 74.5q0 19 9 37.5t26 32.5h-137v35h557v-35h-100v-465h-40zM407 465h-215q-23 -8 -38 -27t-17 -43q0 -50 45.5 -71t84.5 11l40 35l25 -30l-165 -135q79 -7 141 -34t99 -71v365z" />
    <glyph glyph-name="u0998_u09AC_u09CD" horiz-adv-x="475" 
d="M345 55q-32 -7 -64.5 -22.5t-65.5 -38.5q51 -9 84.5 -21.5t45.5 -27.5v110zM196 145q-54 25 -116 30l-30 30l90 80q-46 8 -75.5 36.5t-29.5 63.5q0 23 12 44t33 36h-90v35h495v-35h-100v-572h-40q-24 34 -69 53t-101 19l-20 29q29 29 63 50.5t72 34.5q-40 41 -94 66z
M345 465h-205q-30 -17 -47.5 -38.5t-17.5 -41.5q0 -25 22 -42.5t53 -17.5q14 0 25 2.5t20 7.5l40 35l25 -30l-145 -130q67 -12 121.5 -43t89.5 -78q6 1 10.5 2t8.5 2v372z" />
    <glyph glyph-name="u0999_u09CD_u0995" horiz-adv-x="481" 
d="M245 0q-25 53 -74.5 86.5t-110.5 38.5l-30 35q37 44 92.5 73.5t122.5 41.5q0 37 -25.5 62.5t-59.5 22.5q0 -25 -17 -42.5t-41 -17.5t-40.5 14.5t-16.5 35.5q0 23 22 39t53 16q-7 27 -13 41.5t-12 18.5h-105v35h501v-35h-61q-8 -43 -36 -71.5t-64 -28.5q-38 0 -71 27.5
t-49 72.5h-70q9 -19 14 -34.5t6 -25.5q54 -10 89.5 -46.5t35.5 -83.5q68 -6 114 -45t46 -90q0 -27 -17.5 -46t-42.5 -19q-19 0 -32 11.5t-13 28.5t13 28.5t32 11.5q6 0 11 -1.5t9 -3.5q0 35 -35 60t-85 25v-235h-40zM245 235q-53 -9 -94 -30t-66 -50q49 -4 91 -28t69 -62
v170zM372.5 419q17.5 19 17.5 46h-140q8 -29 30 -47t50 -18q25 0 42.5 19z" />
    <glyph glyph-name="u0999_u09CD_u0995_u09F0_u09CD" horiz-adv-x="482" 
d="M246 0q0 12 -23 21t-56 9q-28 0 -82.5 -15t-82.5 -15q-39 0 -67 33.5t-28 81.5h40q0 -31 16 -53t39 -22q28 0 82.5 15t82.5 15q6 0 13 -0.5t15 -1.5q-27 24 -61.5 39t-72.5 18l-30 35q37 44 92.5 73.5t122.5 41.5q0 37 -25.5 62.5t-59.5 22.5q0 -25 -17 -42.5t-41 -17.5
t-40.5 14.5t-16.5 35.5q0 23 22 39t53 16q-7 27 -13 41.5t-12 18.5h-105v35h501v-35h-61q-8 -43 -36 -71.5t-64 -28.5q-38 0 -71 27.5t-49 72.5h-70q9 -19 14 -34.5t6 -25.5q54 -10 89.5 -46.5t35.5 -83.5q68 -6 114 -45t46 -90q0 -27 -17.5 -46t-42.5 -19q-19 0 -32 11.5
t-13 28.5t13 28.5t32 11.5q6 0 11 -1.5t9 -3.5q0 35 -35 60t-85 25v-235h-40zM246 235q-53 -9 -94 -30t-66 -50q49 -4 91 -28t69 -62v170zM373.5 419q17.5 19 17.5 46h-140q8 -29 30 -47t50 -18q25 0 42.5 19z" />
    <glyph glyph-name="u0999_u09CD_u0995_u09CD_u09B7" horiz-adv-x="1112" 
d="M71 332q0 -108 67.5 -184.5t163.5 -76.5q58 0 99 37t41 90q0 24 -12.5 41t-29.5 17q-5 0 -14.5 -12t-18.5 -21q-13 -18 -31.5 -28.5t-38.5 -10.5q-43 0 -73.5 31.5t-30.5 76.5q0 14 4.5 33t13.5 44q-39 14 -71.5 38t-54.5 56l29 26q17 -24 46 -45.5t69 -40.5
q21 44 59.5 70.5t83.5 26.5h750v-35h-220v-130q75 0 127.5 -35t52.5 -85q0 -37 -20.5 -63.5t-49.5 -26.5q-21 0 -35.5 11.5t-14.5 28.5q0 19 13 32t32 13q10 0 18 -2.5t12 -7.5q2 4 3.5 8t1.5 7q0 33 -41 56.5t-99 23.5v-295h-35q-9 52 -45.5 91.5t-89.5 53.5
q-4 -22 -19.5 -36t-35.5 -14q-23 0 -39 14.5t-16 35.5q0 20 16 34.5t39 14.5q7 0 13.5 -1t11.5 -3q8 14 12.5 25t4.5 18q0 38 -33 65t-79 27q2 -24 -14.5 -42t-40.5 -18q-23 0 -39 14.5t-16 35.5q0 27 23 43.5t52 11.5q-11 30 -31.5 54.5t-48.5 40.5h-60q18 -50 -15 -89
t-94 -39q-23 0 -41.5 2.5t-30.5 6.5q-7 -12 -10.5 -26.5t-3.5 -31.5q0 -25 17.5 -42.5t41.5 -17.5q14 0 26 7t19 20q13 19 29 30t30 11q36 0 61 -30t25 -72q0 -68 -52.5 -115.5t-126.5 -47.5q-114 0 -194.5 89t-80.5 215zM375 392.5q22 17.5 22 42.5q0 10 -9 17.5t-21 7.5
q-33 0 -60.5 -20.5t-39.5 -54.5q9 -5 22.5 -7.5t32.5 -2.5q31 0 53 17.5zM862 295q-63 0 -112.5 48t-62.5 122h-140q21 -18 36.5 -43.5t23.5 -56.5q62 0 106 -38.5t44 -93.5q0 -16 -4 -30.5t-11 -27.5q40 -11 71.5 -33t48.5 -52v205zM862 465h-135q5 -55 44 -92.5t91 -37.5
v130z" />
    <glyph glyph-name="u0999_u09CD_u0995_u09CD_u09B7_u09F0_u09CD" horiz-adv-x="1112" 
d="M71 332q0 -108 67.5 -184.5t163.5 -76.5q58 0 99 37t41 90q0 24 -12.5 41t-29.5 17q-5 0 -14.5 -12t-18.5 -21q-13 -18 -31.5 -28.5t-38.5 -10.5q-43 0 -73.5 31.5t-30.5 76.5q0 14 4.5 33t13.5 44q-39 14 -71.5 38t-54.5 56l29 26q17 -24 46 -45.5t69 -40.5
q21 44 59.5 70.5t83.5 26.5h750v-35h-220v-130q75 0 127.5 -35t52.5 -85q0 -37 -20.5 -63.5t-49.5 -26.5q-21 0 -35.5 11.5t-14.5 28.5q0 19 13 32t32 13q10 0 18 -2.5t12 -7.5q2 4 3.5 8t1.5 7q0 33 -41 56.5t-99 23.5v-295h-35q0 12 -26 21t-62 9q-30 0 -87.5 -15
t-87.5 -15q-39 0 -67 33.5t-28 81.5h40q0 -31 16 -53t39 -22q30 0 87.5 15t87.5 15q19 0 35.5 -2t29.5 -6q-18 30 -47 51.5t-65 31.5q-4 -22 -19.5 -36t-35.5 -14q-23 0 -39 14.5t-16 35.5q0 20 16 34.5t39 14.5q7 0 13.5 -1t11.5 -3q8 14 12.5 25t4.5 18q0 38 -33 65
t-79 27q2 -24 -14.5 -42t-40.5 -18q-23 0 -39 14.5t-16 35.5q0 27 23 43.5t52 11.5q-11 30 -31.5 54.5t-48.5 40.5h-60q18 -50 -15 -89t-94 -39q-23 0 -41.5 2.5t-30.5 6.5q-7 -12 -10.5 -26.5t-3.5 -31.5q0 -25 17.5 -42.5t41.5 -17.5q14 0 26 7t19 20q13 19 29 30t30 11
q36 0 61 -30t25 -72q0 -68 -52.5 -115.5t-126.5 -47.5q-114 0 -194.5 89t-80.5 215zM375 392.5q22 17.5 22 42.5q0 10 -9 17.5t-21 7.5q-33 0 -60.5 -20.5t-39.5 -54.5q9 -5 22.5 -7.5t32.5 -2.5q31 0 53 17.5zM862 295q-63 0 -112.5 48t-62.5 122h-140q21 -18 36.5 -43.5
t23.5 -56.5q62 0 106 -38.5t44 -93.5q0 -16 -4 -30.5t-11 -27.5q40 -11 71.5 -33t48.5 -52v205zM862 465h-135q5 -55 44 -92.5t91 -37.5v130z" />
    <glyph glyph-name="u0999_u09CD_u0996" horiz-adv-x="724" 
d="M594 -110q-33 57 -94 92.5t-136 42.5l-15 45q56 0 95.5 26.5t39.5 63.5q0 27 -23.5 46t-56.5 19q-14 -51 -57 -83t-98 -32q-85 0 -145 67.5t-60 162.5q0 24 4 44t11 36l40 5q-7 -20 -11 -40.5t-4 -39.5q0 -81 47 -138t113 -57q50 0 85 29.5t35 70.5q0 14 -7.5 24.5
t-17.5 10.5q-12 0 -32.5 -10t-32.5 -10q-41 0 -70.5 26.5t-29.5 63.5q0 32 24 64t66 56l-55 70l35 20l55 -70q21 10 44 15t46 5q39 0 67 -22t28 -53q0 -27 -25 -46t-60 -19q-29 0 -59 17t-56 48q-32 -19 -51 -41.5t-19 -43.5t16 -35.5t39 -14.5q12 0 35 10t35 10
q27 0 46 -17.5t19 -42.5q50 0 85 -31t35 -74q0 -35 -24.5 -65t-65.5 -45q39 -3 81 -29t79 -71v610h40v-60h100v-35h-100v-575h-40zM431 422.5q13 7.5 13 17.5q0 14 -16 24.5t-39 10.5q-22 0 -39.5 -4t-30.5 -11q22 -22 42.5 -33.5t37.5 -11.5q19 0 32 7.5zM-10 465v35h184
v-35h-184z" />
    <glyph glyph-name="u0999_u09CD_u0997" horiz-adv-x="510" 
d="M365.5 26.5q-7.5 30.5 -7.5 68.5q0 47 17 92t48 83q-49 -13 -100.5 -50t-99.5 -95q-18 -26 -42 -40.5t-48 -14.5q-37 0 -63.5 29.5t-26.5 70.5q0 17 6.5 32.5t18.5 27.5l35 -15q-10 -12 -15 -24.5t-5 -25.5q0 -23 14.5 -39t35.5 -16q13 0 30 12t35 33q16 23 40 45.5
t55 44.5q-18 50 -52.5 80t-72.5 30q1 -4 2 -9.5t1 -12.5q0 -20 -15.5 -34t-37.5 -14q-23 0 -39 14.5t-16 35.5q0 19 17 34.5t43 20.5l-30 75h-103v35h530v-35h-52q-12 -46 -43 -75.5t-67 -29.5t-67 29.5t-43 75.5h-115l30 -70q58 -5 102 -41t58 -89q28 20 57 32.5t58 17.5
l40 -40q-38 -38 -59 -85t-21 -95q0 -37 5 -65t15 -45l-30 -10q-15 21 -22.5 51.5zM398 418q19 18 30 47h-140q2 -28 22.5 -46.5t47.5 -18.5q21 0 40 18z" />
    <glyph glyph-name="u0999_u09CD_u0998" horiz-adv-x="892" 
d="M502 230l65 55q-41 7 -68 37t-27 68q0 22 9 41.5t26 33.5h-75q19 -53 -19 -99t-101 -46q-14 0 -32 4t-38 11q-7 -13 -11 -28t-4 -32q0 -27 17.5 -46t42.5 -19q20 0 36 8t24 22q13 19 30.5 29.5t34.5 10.5q35 0 60 -36.5t25 -88.5q0 -68 -52.5 -116.5t-127.5 -48.5
q-116 0 -198 93.5t-82 226.5l40 10q0 -120 70.5 -205t169.5 -85q58 0 99 39.5t41 95.5q0 29 -14.5 49.5t-35.5 20.5q-5 0 -11.5 -4t-13.5 -11q-16 -24 -41.5 -37t-53.5 -13q-43 0 -74 32t-31 78q0 19 4 39.5t11 40.5q-23 8 -58.5 36t-81.5 74l25 30q30 -36 63 -62.5
t67 -42.5q22 48 63 76.5t87 28.5h540v-35h-100v-465h-30q-48 68 -111 114.5t-134 65.5zM373.5 382q23.5 22 23.5 53q0 10 -14.5 17.5t-35.5 7.5q-31 0 -58.5 -23.5t-41.5 -61.5q13 -7 30.5 -11t39.5 -4q33 0 56.5 22zM762 465h-170q-33 0 -56.5 -22t-23.5 -53
q0 -29 20.5 -49.5t49.5 -20.5q14 0 28 4t27 11l35 30l30 -30l-150 -120q71 -26 125 -63t85 -82v395z" />
    <glyph glyph-name="u0999_u09CD_u0998_u09F0_u09CD" horiz-adv-x="901" 
d="M50 396.5q4 22.5 11 38.5l40 -10q-7 -20 -11 -40.5t-4 -39.5q0 -81 47 -138t113 -57q50 0 85 29.5t35 70.5q0 14 -7.5 24.5t-17.5 10.5q-12 0 -32.5 -10t-32.5 -10q-41 0 -70.5 26.5t-29.5 63.5q0 32 24 64t66 56l-55 70l35 20l55 -70q21 10 44 15t46 5q17 0 31.5 -3.5
t25.5 -10.5h463v-35h-100v-466h-40q-16 24 -48 37t-72 13q-27 0 -80 -12.5t-80 -12.5q-37 0 -63.5 26.5t-26.5 63.5q0 25 5 44t15 31l35 -15q-7 -13 -11 -28t-4 -32q0 -21 14.5 -35.5t35.5 -14.5q27 0 80 12.5t80 12.5q36 0 67 -11.5t53 -33.5q-28 48 -97 80t-163 40l-35 50
l80 65q-42 7 -70.5 38t-29.5 72q-11 -7 -25 -11t-30 -4q-29 0 -59 17t-56 48q-32 -19 -51 -41.5t-19 -43.5t16 -35.5t39 -14.5q12 0 35 10t35 10q27 0 46 -22t19 -53q0 -58 -47 -99t-113 -41q-83 0 -141.5 69t-58.5 166q0 29 4 51.5zM473 466q2 -5 5.5 -10.5t4.5 -7.5
q2 7 5.5 11.5t7.5 6.5h-23zM433 422.5q13 7.5 13 17.5q0 14 -16 24.5t-39 10.5q-22 0 -39.5 -4t-30.5 -11q22 -22 42.5 -33.5t37.5 -11.5q19 0 32 7.5zM771 466h-215q-23 -8 -38 -27.5t-17 -43.5q0 -50 45.5 -71t84.5 11l40 35l25 -30l-165 -135q79 -7 141 -34t99 -71v366z
" />
    <glyph glyph-name="u0999_u09CD_u09AE" horiz-adv-x="670" 
d="M540 0q-10 21 -47.5 39t-94.5 28q1 -4 2 -8.5t1 -8.5q0 -21 -15 -35.5t-36 -14.5t-35.5 14.5t-14.5 35.5t19 35.5t46 14.5l-5 45q-26 -15 -51 -22.5t-49 -7.5q-91 0 -155.5 61.5t-64.5 148.5q0 19 4 39.5t11 40.5l35 -15q-5 -9 -7.5 -25.5t-2.5 -39.5q0 -70 52.5 -120
t127.5 -50q48 0 81.5 22t33.5 53q0 19 -14.5 32t-35.5 13q-8 0 -22.5 -2.5t-22.5 -2.5q-33 0 -56.5 25t-23.5 60q0 30 14.5 59t40.5 51h-265v35h690v-35h-100v-465h-40zM540 465h-85q5 -9 7.5 -16.5t2.5 -13.5q0 -29 -25 -49.5t-60 -20.5q-34 0 -61.5 19t-38.5 51
q-19 -11 -29.5 -33.5t-10.5 -51.5q0 -17 11.5 -28.5t28.5 -11.5q7 0 20 2.5t20 2.5q39 0 67 -23.5t28 -56.5q0 -20 -5 -36.5t-15 -28.5l5 -70q46 -8 82 -22t58 -33v420zM412 410.5q13 10.5 13 24.5q0 12 -10.5 21t-24.5 9h-80q8 -29 27.5 -47t42.5 -18q19 0 32 10.5z" />
    <glyph glyph-name="u0999_u09F0_u09CD" horiz-adv-x="542" 
d="M120 92q-82 107 -82 258h40q0 -135 70.5 -230t169.5 -95q66 0 113 41t47 99q0 35 -14.5 60t-35.5 25q-6 0 -17.5 -14.5t-22.5 -25.5q-15 -21 -35 -33t-40 -12q-46 0 -78 32t-32 78q0 27 4 51t11 44q-36 17 -69 46t-61 69l35 25q27 -39 55 -66t55 -39q27 46 64.5 73
t75.5 27q35 0 60 -22t25 -53q0 -41 -36.5 -73t-83.5 -32q-20 0 -42 6.5t-43 18.5q-5 -9 -7.5 -28t-2.5 -47q0 -29 20.5 -49.5t49.5 -20.5q13 0 28 12t27 33q13 19 29 29.5t31 10.5q37 0 63.5 -39.5t26.5 -95.5q0 -17 -4 -34t-12 -33v-208h-40q-5 20 -30.5 32.5t-59.5 12.5
q-32 0 -92.5 -20t-92.5 -20q-33 0 -56.5 28t-23.5 67h35q0 -23 13 -39t32 -16q32 0 92.5 20t92.5 20t56.5 -9.5t33.5 -25.5v107q-29 -25 -66 -38.5t-78 -13.5q-116 0 -198 107zM394.5 382.5q23.5 17.5 23.5 42.5q0 17 -13 28.5t-32 11.5q-29 0 -56 -21.5t-44 -58.5
q17 -10 33.5 -15t31.5 -5q33 0 56.5 17.5z" />
    <glyph glyph-name="u099A_u09CD_u099A" horiz-adv-x="617" 
d="M319 42q-22 22 -22 53v95q-39 -56 -77.5 -88t-67.5 -32q-33 0 -56.5 26.5t-23.5 63.5v305h-82v35h637v-35h-290v-20q0 -56 60 -108t155 -77q18 -5 29 -16t11 -24q0 -50 -83 -125t-137 -75q-31 0 -53 22zM464.5 103q49.5 43 92.5 117q-71 12 -128 46t-92 84v-255
q0 -14 10.5 -24.5t24.5 -10.5q43 0 92.5 43zM217.5 150q37.5 35 79.5 95q-58 33 -105 80t-80 105v-280q0 -17 11.5 -28.5t28.5 -11.5q28 5 65.5 40zM297 465h-165q48 -68 89.5 -111t75.5 -59v170z" />
    <glyph glyph-name="u099A_u09CD_u099B" horiz-adv-x="728" 
d="M106.5 43.5q-23.5 23.5 -23.5 56.5v365h-93v35h748v-35h-345q23 -39 53.5 -68.5t66.5 -46.5q16 19 35.5 29.5t39.5 10.5q35 0 60 -31t25 -74q0 -65 -44.5 -118t-115.5 -72q92 -25 161.5 -78.5t103.5 -126.5l-40 -20q-41 87 -132 143.5t-208 66.5v40q95 -8 165 41t70 124
q0 27 -13 46t-32 19q-14 0 -31.5 -16t-33.5 -44q-28 -49 -57.5 -77t-52.5 -28q-11 0 -21 4t-19 11q-38 -82 -95 -131t-115 -49q-33 0 -56.5 23.5zM259 105q49 45 84 120q-79 29 -135 64.5t-85 75.5v-260q0 -19 11.5 -32t28.5 -13q47 0 96 45zM338 465h-215v-20
q0 -36 58.5 -85t156.5 -95v200zM452 249.5q22 24.5 41 65.5q-36 17 -65.5 44t-49.5 61v-150q0 -19 10.5 -32t24.5 -13q17 0 39 24.5z" />
    <glyph glyph-name="u099A_u09CD_u099B_u09F0_u09CD" horiz-adv-x="752" 
d="M722 -42.5q-19 21.5 -38 32.5v-145h-40q-5 26 -31.5 43t-63.5 17q-32 0 -92.5 -20t-92.5 -20q-50 0 -85 42.5t-35 102.5l40 20q0 -52 22 -88.5t53 -36.5q33 0 95 20t95 20q29 0 54 -10.5t41 -29.5v110q-35 29 -83.5 47t-106.5 23l-10 40q76 0 135.5 48.5t59.5 111.5
q0 27 -16 46t-39 19q-18 0 -41 -21.5t-44 -58.5q-26 -38 -50 -59t-40 -21q-14 0 -27 4t-23 11q-51 -88 -103 -139t-92 -51q-33 0 -56.5 22t-23.5 53v375h-94v35h772v-35h-383q22 -37 56.5 -65.5t78.5 -44.5q17 17 35 26t35 9q39 0 67 -31t28 -74q0 -57 -37 -105t-98 -70
q74 -20 138.5 -66.5t111.5 -113.5l-35 -25q-18 31 -37 52.5zM440.5 252.5q16.5 22.5 48.5 77.5q-33 9 -62.5 31t-52.5 54v-135q0 -21 10.5 -35.5t24.5 -14.5q15 0 31.5 22.5zM334 465h-210v-55q8 -29 57.5 -60.5t152.5 -79.5v195zM238 102q44 47 91 128q-77 28 -129 57
t-76 58v-250q0 -17 11.5 -28.5t28.5 -11.5q30 0 74 47z" />
    <glyph glyph-name="u099A_u09CD_u099B_u09AC_u09CD" horiz-adv-x="723" 
d="M544 -180q-30 52 -72.5 84t-87.5 36l-25 30q46 39 85.5 63t69.5 32q-27 10 -47.5 15t-32.5 5l-10 35q76 0 135.5 50t59.5 115q0 27 -16 46t-39 19t-46.5 -20.5t-39.5 -55.5q-17 -36 -42.5 -57.5t-51.5 -21.5q-10 0 -17.5 2.5t-12.5 7.5q-50 -86 -106 -135.5t-104 -49.5
q-25 0 -42.5 20.5t-17.5 49.5v375h-94v35h743v-35h-349q24 -41 51 -68t54 -37q14 14 33.5 22t41.5 8q39 0 67 -31t28 -74q0 -58 -38.5 -107.5t-101.5 -72.5q69 -19 129.5 -62.5t105.5 -107.5l-35 -25q-34 49 -71 83.5t-74 51.5v-225h-30zM534 30q-24 -4 -52 -19.5t-58 -40.5
q34 -9 62.5 -28.5t47.5 -46.5v135zM410.5 247q14.5 14 28.5 38q1 2 12 21t18 24q-33 9 -63.5 39t-51.5 76v-170q0 -17 9 -29.5t21 -12.5t26.5 14zM314 465h-190v-35q9 -33 59 -72.5t131 -77.5v185zM228.5 107.5q48.5 47.5 95.5 129.5l-7 8q-65 24 -114 54.5t-79 65.5v-275
q0 -12 6 -21t14 -9q36 0 84.5 47.5z" />
    <glyph glyph-name="u099A_u09CD_u099E" horiz-adv-x="771" 
d="M459 -50q-23 33 -57.5 51.5t-72.5 18.5q-17 0 -50 -5t-50 -5q-39 0 -67 28t-28 67h40q0 -23 16 -39t39 -16q17 0 50 5t50 5q38 0 72 -15.5t58 -44.5v315q0 19 -11.5 32t-28.5 13q-36 0 -64 -28.5t-36 -71.5q4 1 7.5 1.5t6.5 0.5q23 0 39.5 -15t16.5 -37q0 -21 -16 -35.5
t-39 -14.5q-27 0 -46 19t-19 46q-28 -40 -62.5 -62.5t-67.5 -22.5t-56.5 26.5t-23.5 63.5v235h-69v35h791v-35h-682q0 -35 51.5 -79.5t138.5 -85.5q16 45 52 72.5t78 27.5q33 0 56.5 -25t23.5 -60v-20q23 39 59 62t76 23q35 0 60 -25t25 -60q0 -20 -12 -39t-33 -31
q20 -7 32.5 -26.5t12.5 -43.5q0 -35 -25 -60t-60 -25q-34 0 -69.5 19.5t-65.5 55.5v-195h-40zM666 123q13 13 13 32q0 17 -12.5 32.5t-32.5 22.5q-6 -7 -15 -11t-20 -4q-14 0 -24.5 9t-10.5 21t10.5 21t24.5 9q8 0 17 -4t18 -11q21 10 33 24.5t12 30.5q0 19 -13 32t-32 13
q-35 0 -74 -32t-71 -88q29 -51 68 -80.5t77 -29.5q19 0 32 13zM198.5 207q33.5 27 60.5 73q-59 22 -100.5 50t-59.5 60v-160q0 -21 10.5 -35.5t24.5 -14.5q31 0 64.5 27z" />
    <glyph glyph-name="u099A_u09CD_u09A8" horiz-adv-x="416" 
d="M106.5 93.5q-26.5 29.5 -26.5 70.5v301h-90v35h436v-35h-306v-35q0 -28 42.5 -61t112.5 -58q47 -17 76 -42t29 -48q0 -20 -14.5 -43.5t-40.5 -45.5v-217h-40q-14 38 -49 61.5t-79 23.5q7 -6 11 -14t4 -17q0 -21 -15 -36t-37 -15q-23 0 -39 15t-16 37q0 29 25 49.5
t60 20.5q38 0 73.5 -17t61.5 -48v128q-31 -19 -60 -29t-55 -10q-37 0 -63.5 29.5zM120 164q0 -25 13 -42.5t32 -17.5q54 0 114.5 40.5t60.5 76.5q0 12 -20.5 27.5t-54.5 27.5q-67 24 -102 42.5t-43 36.5v-191z" />
    <glyph glyph-name="u099A_u09F0_u09CD" horiz-adv-x="429" 
d="M109.5 43.5q-26.5 29.5 -26.5 70.5v351h-97v35h445v-35h-308v-35q0 -28 42.5 -61t112.5 -58q47 -17 76 -42t29 -48q0 -19 -7.5 -40.5t-22.5 -44.5v-256h-40q-5 20 -30.5 32.5t-59.5 12.5q-27 0 -77.5 -20t-77.5 -20q-33 0 -56.5 28t-23.5 67h35q0 -23 13 -39t32 -16
q27 0 77.5 20t77.5 20q32 0 56.5 -9.5t33.5 -25.5v158q-36 -36 -72 -55t-68 -19q-37 0 -63.5 29.5zM123 114q0 -25 13 -42.5t32 -17.5q54 0 114.5 57.5t60.5 109.5q0 12 -20.5 27.5t-54.5 27.5q-67 24 -102 42.5t-43 36.5v-241z" />
    <glyph glyph-name="u099A_u09AC_u09CD" horiz-adv-x="413" 
d="M100.5 85q-16.5 26 -16.5 59v321h-97v35h445v-35h-308v-35q0 -28 42.5 -61t112.5 -58q47 -17 76 -42t29 -48q0 -33 -28 -69.5t-77 -68.5v-238h-40q-25 44 -71 69.5t-99 25.5l-20 35q18 21 42 39.5t53 34.5q-27 10 -43.5 36zM124 144q0 -25 13 -42.5t32 -17.5
q54 0 114.5 47.5t60.5 89.5q0 12 -20.5 27.5t-54.5 27.5q-67 24 -102 42.5t-43 36.5v-211zM239 45q-45 -12 -78 -30t-52 -40q44 -8 78 -26t52 -44v140z" />
    <glyph glyph-name="u099B_u09F0_u09CD" horiz-adv-x="507" 
d="M426 -130h-40q-8 23 -37 36.5t-68 13.5q-22 0 -65 -10t-65 -10q-50 0 -85 38t-35 92q0 29 7.5 53.5t22.5 41.5l35 -25q-12 -14 -18.5 -31t-6.5 -34q0 -39 23.5 -67t56.5 -28q23 0 67.5 10t67.5 10q24 0 50 -9t50 -26v80q-43 25 -82 37.5t-73 12.5q-16 0 -28.5 -2.5
t-21.5 -7.5l-35 55q4 -1 16.5 -0.5t23.5 0.5q93 0 159 51.5t66 123.5q0 29 -14.5 49.5t-35.5 20.5q-15 0 -34 -17.5t-36 -47.5q-21 -46 -52.5 -73t-62.5 -27q-29 0 -49.5 19t-20.5 46v220h-116v35h527v-35h-381l140 -120q16 19 38.5 29.5t46.5 10.5q39 0 67 -31t28 -74
q0 -69 -40.5 -123.5t-104.5 -71.5q81 -29 140 -73t90 -97l-35 -20q-9 19 -29 41.5t-51 48.5v-115zM219 244.5q23 24.5 42 65.5l-115 100v-170q0 -8 9 -14t21 -6q20 0 43 24.5z" />
    <glyph glyph-name="u099B_u09AC_u09CD" horiz-adv-x="466" 
d="M437 -54q-20 26 -45 47v-173h-40q-26 31 -70 53t-100 32l-20 40q44 38 87 61t81 28q-35 18 -74 27t-80 9q-26 0 -37.5 -1t-17.5 -4l-20 50q10 -3 30.5 -4t54.5 -1q75 0 127.5 50t52.5 120q0 25 -16 42.5t-39 17.5q-15 0 -34 -17.5t-36 -47.5q-21 -46 -52.5 -73t-62.5 -27
q-29 0 -49.5 23.5t-20.5 56.5v210h-66v35h486v-35h-380v-10q0 -24 21 -43t54 -25q27 -5 46.5 -16t28.5 -26q14 17 31 26t34 9q39 0 67 -29.5t28 -70.5q0 -60 -34 -111.5t-91 -78.5q73 -19 130.5 -68t89.5 -117l-30 -15q-14 30 -34 56zM171.5 241q24.5 26 44.5 69
q0 14 -17 26.5t-43 18.5q-24 6 -40 15t-20 20v-135q0 -17 9 -28.5t21 -11.5q21 0 45.5 26zM352 -5q-36 0 -71 -15.5t-64 -44.5q49 -9 84 -25.5t51 -39.5v125z" />
    <glyph glyph-name="u099C_u09CD_u099C" horiz-adv-x="807" 
d="M103 213.5q-61 63.5 -78 161.5l35 15q15 -87 66 -143.5t114 -56.5q39 0 67 19t28 46q0 14 -14.5 24.5t-35.5 10.5q-9 0 -27.5 -5t-27.5 -5q-37 0 -63.5 26.5t-26.5 63.5q0 19 14.5 44t40.5 51h-205v35h827v-35h-537q14 -29 58 -49t107 -26q14 21 32.5 34t37.5 16l30 -10
q5 -52 58.5 -82t121.5 -18l25 -45q-14 -31 -21.5 -62.5t-7.5 -63.5q0 -42 10 -81.5t29 -72.5l-40 -10q-20 34 -30 76t-10 89q0 30 6.5 63t18.5 67q-62 -5 -115.5 25t-79.5 85q-26 -15 -40.5 -41.5t-14.5 -58.5q0 -14 7.5 -24.5t17.5 -10.5q12 0 35 5t35 5q35 0 60 -26.5
t25 -63.5q0 -46 -39.5 -78t-95.5 -32q-51 0 -97.5 25t-77.5 70q-14 -10 -35.5 -15t-49.5 -5q-76 0 -137 63.5zM567 135.5q28 20.5 28 49.5q0 21 -13 35.5t-32 14.5q-11 0 -32.5 -5t-32.5 -5q-29 0 -49.5 23.5t-20.5 56.5q0 11 2.5 23.5t7.5 26.5q-63 5 -112.5 30t-77.5 65
q-26 -18 -40.5 -40.5t-14.5 -44.5q0 -19 14.5 -32t35.5 -13q9 0 27.5 5t27.5 5q37 0 63.5 -22t26.5 -53q0 -15 -5 -31.5t-15 -33.5q30 -36 68 -55.5t77 -19.5t67 20.5z" />
    <glyph glyph-name="u099C_u09CD_u099C_u09AC_u09CD" horiz-adv-x="810" 
d="M113.5 205.5q-62.5 65.5 -90.5 169.5l35 15q25 -93 78 -151.5t112 -58.5q39 0 67 22t28 53q0 19 -13 32t-32 13q-14 0 -40 -7.5t-40 -7.5q-31 0 -53 22t-22 53q0 25 11.5 52t33.5 53h-198v35h830v-35h-547q20 -35 65 -57.5t105 -27.5q16 23 34 38t36 22l40 -15
q4 -47 54 -76.5t116 -23.5l40 -40q-18 -38 -27 -78t-9 -80q0 -51 10.5 -100t30.5 -92l-40 -20q-31 31 -76.5 48t-98.5 17l-25 30q33 39 74 66t86 39q-6 32 0.5 74t24.5 91q-79 7 -133 39t-62 76q-28 -16 -44 -44t-16 -61q0 -12 10.5 -21t24.5 -9q10 0 30 5t30 5q35 0 60 -25
t25 -60q0 -46 -38 -78t-92 -32q-43 0 -87.5 25t-82.5 70q-17 -15 -40.5 -22.5t-49.5 -7.5q-72 0 -134.5 65.5zM571.5 135.5q26.5 20.5 26.5 49.5q0 19 -13 32t-32 13q-10 0 -30 -5t-30 -5q-31 0 -53 22t-22 53q0 11 2.5 23.5t7.5 26.5q-63 6 -114.5 32t-80.5 68
q-21 -18 -33 -40.5t-12 -44.5q0 -14 9 -24.5t21 -10.5q14 0 40 7.5t40 7.5q35 0 60 -25t25 -60q0 -15 -5 -29t-15 -26q28 -40 66.5 -62.5t78.5 -22.5q37 0 63.5 20.5zM698 24q-10 34 -10 46q-29 -3 -55.5 -18.5t-44.5 -41.5q33 0 65 -10t60 -30q-5 20 -15 54z" />
    <glyph glyph-name="u099C_u09CD_u099D" horiz-adv-x="722" 
d="M592 -100q-9 35 -41 64t-79 46v-110h-40q-19 32 -64 53.5t-106 26.5l-20 40q31 44 80 76.5t110 48.5v205q-47 8 -89 35.5t-71 69.5q-38 -14 -61.5 -44t-23.5 -66q0 -19 11.5 -32t28.5 -13q11 0 32.5 7.5t32.5 7.5q37 0 63.5 -23.5t26.5 -56.5q0 -50 -42.5 -85t-102.5 -35
q-68 0 -128 64t-87 166l40 10q24 -88 72.5 -144t102.5 -56q43 0 74 23.5t31 56.5q0 17 -14.5 28.5t-35.5 11.5q-11 0 -32.5 -7.5t-32.5 -7.5q-33 0 -56.5 25t-23.5 60t17 67t48 53h-222v35h742v-35h-100v-565h-40zM432 105q-41 -11 -76.5 -34t-63.5 -56q51 -9 87 -24.5
t53 -35.5v150zM592 465h-275q31 -37 71.5 -59t83.5 -26v-330q33 -9 64 -29.5t56 -50.5v495z" />
    <glyph glyph-name="u099C_u09CD_u099E" horiz-adv-x="736" 
d="M119 108q-72 78 -93 197l40 10q19 -106 79.5 -175.5t135.5 -69.5q58 0 99 32t41 78q0 17 -9 41t-26 54q-22 -26 -48 -40.5t-52 -14.5q-46 0 -78 32t-32 78q0 37 21 73t59 62h-266v35h756v-35h-420l85 -140q16 45 57.5 72.5t92.5 27.5q46 0 78 -28t32 -67q0 -17 -9 -34
t-26 -31q24 -16 37 -40t13 -50q0 -39 -31 -67t-74 -28q-31 0 -63.5 15.5t-61.5 44.5q-18 -50 -66 -80t-109 -30q-90 0 -162 78zM623.5 137.5q17.5 17.5 17.5 42.5q0 19 -10.5 36.5t-29.5 28.5q-14 -10 -28 -15t-27 -5q-19 0 -32 10.5t-13 24.5q0 17 13 28.5t32 11.5
q14 0 28 -4t27 -11q14 12 22 24t8 21q0 23 -22 39t-53 16q-46 0 -81.5 -31t-43.5 -79q12 -26 19.5 -47t10.5 -38q28 -33 59.5 -51.5t60.5 -18.5q25 0 42.5 17.5zM328.5 276q21.5 16 37.5 44l-75 120q-35 -20 -55 -49.5t-20 -60.5q0 -29 20.5 -49.5t49.5 -20.5q21 0 42.5 16z
" />
    <glyph glyph-name="u099C_u09F0_u09CD" horiz-adv-x="675" 
d="M100 330q0 -104 54 -177t131 -73q64 0 109.5 32t45.5 78q0 17 -13 28.5t-32 11.5q-17 0 -50 -10t-50 -10q-39 0 -67 31t-28 74t18.5 82.5t51.5 67.5h-280v35h695v-35h-360q26 -55 68 -87.5t87 -32.5q33 0 62.5 10.5t52.5 29.5l35 -25q-27 -47 -41 -103t-14 -117
q0 -45 15 -100.5t45 -119.5l-45 -10q-26 22 -54.5 33.5t-55.5 11.5q-50 0 -147.5 -27.5t-147.5 -27.5q-64 0 -109.5 44t-45.5 106l40 10q0 -50 33.5 -85t81.5 -35q50 0 147.5 27.5t147.5 27.5q29 0 53.5 -6.5t41.5 -18.5q-20 34 -30 77.5t-10 92.5q0 57 7.5 102.5t22.5 77.5
q-13 -7 -34.5 -11t-50.5 -4q-52 0 -102 33.5t-83 91.5q-26 -26 -40.5 -56t-14.5 -59q0 -27 16 -46t39 -19q17 0 50 10t50 10q35 0 60 -23.5t25 -56.5q0 -62 -57 -106t-138 -44q-93 0 -159 83.5t-66 201.5z" />
    <glyph glyph-name="u099C_u09AC_u09CD" horiz-adv-x="638" 
d="M-10 465v35h658v-35h-300q20 -35 59.5 -55.5t87.5 -20.5q18 0 34.5 3t31.5 8l25 -35q-22 -26 -33.5 -90.5t-11.5 -159.5q0 -32 9 -72t26 -88l-40 -15q-35 29 -78.5 44.5t-91.5 15.5l-25 35q20 35 60 67t95 58q0 64 9.5 113.5t27.5 80.5q-11 -2 -20.5 -3t-17.5 -1
q-64 0 -115 27t-72 73q-49 -28 -77 -56t-28 -48q0 -15 11 -26t27 -11q12 0 35 8t35 8q41 0 70.5 -32t29.5 -78q0 -52 -41 -88.5t-99 -36.5q-83 0 -153 64t-97 166l35 10q24 -88 84 -144t131 -56q41 0 70.5 25.5t29.5 61.5q0 28 -17.5 48t-42.5 20q-12 0 -35 -8t-35 -8
q-32 0 -54.5 22.5t-22.5 54.5q0 25 25 56.5t69 62.5h-268zM506.5 46.5q-7.5 31.5 -10.5 68.5q-19 -7 -46 -27.5t-59 -52.5q28 0 62.5 -11.5t72.5 -33.5q-12 25 -19.5 56.5z" />
    <glyph glyph-name="u099D_u09F0_u09CD" horiz-adv-x="582" 
d="M150 347q74 38 157 53v65h-317v35h357v-270q39 -22 66.5 -47.5t43.5 -52.5v430h40v-60h95v-35h-95v-440h-40q0 47 -30 89.5t-80 65.5v-180h-40q0 12 -23 21t-55 9q-28 0 -82.5 -15t-82.5 -15q-39 0 -67 33.5t-28 81.5h40q0 -31 16 -53t39 -22q28 0 82.5 15t82.5 15
q13 0 25 -1.5t22 -3.5q-35 50 -98 89t-146 61l-15 35q59 59 133 97zM307 355q-74 -13 -134 -41t-101 -69q81 -26 141.5 -67.5t93.5 -92.5v270z" />
    <glyph glyph-name="u099E_u09CD_u099A" horiz-adv-x="631" 
d="M307 0q-33 57 -95.5 100t-144.5 65l-30 40q51 61 120.5 101t149.5 54q-21 46 -60.5 73t-84.5 27q-38 0 -66 -14t-34 -36q22 8 41 -4.5t19 -35.5q0 -19 -13 -32t-32 -13q-25 0 -42.5 20.5t-17.5 49.5q0 43 42.5 74t102.5 31q45 0 83.5 -18.5t61.5 -51.5v130h40v-130
q23 33 60 51.5t80 18.5q46 0 78 -31t32 -74q0 -24 -13 -50t-37 -50q24 -20 37 -47.5t13 -57.5q0 -46 -32 -78t-78 -32q-38 0 -75 22.5t-65 62.5v-165h-40zM307 320q-56 -10 -111 -40.5t-104 -79.5q64 -17 119 -51.5t96 -83.5v255zM536.5 140.5q20.5 20.5 20.5 49.5
q0 20 -12 41t-33 39q-18 -10 -28.5 -15t-16.5 -5q-23 0 -39 11.5t-16 28.5q0 19 16 32t39 13q5 0 13.5 -3.5t26.5 -11.5q23 13 36.5 33.5t13.5 41.5q0 27 -20.5 46t-49.5 19q-44 0 -82 -26t-58 -69v-135q23 -50 61 -80t79 -30q29 0 49.5 20.5z" />
    <glyph glyph-name="u099E_u09CD_u099A_u09AC_u09CD" horiz-adv-x="643" 
d="M206 115.5q-54 30.5 -124 49.5l-30 40q57 68 127 108.5t143 46.5q-21 46 -60.5 73t-84.5 27q-38 0 -66 -14t-34 -36q22 8 41 -4.5t19 -35.5q0 -19 -13 -32t-32 -13q-25 0 -42.5 20.5t-17.5 49.5q0 43 42.5 74t102.5 31q45 0 83.5 -18.5t61.5 -51.5v130h40v-130
q23 33 60 51.5t80 18.5q46 0 78 -31t32 -74q0 -24 -13 -50t-37 -50q24 -20 37 -47.5t13 -57.5q0 -46 -32 -78t-78 -32q-38 0 -75 22.5t-65 62.5v-332h-40q-26 31 -70 53t-100 32l-20 40q42 36 82.5 58t77.5 29q-32 40 -86 70.5zM322 320q-50 -4 -105.5 -35t-109.5 -85
q69 -18 124 -50.5t91 -75.5v246zM551.5 140.5q20.5 20.5 20.5 49.5q0 20 -12 41t-33 39q-18 -10 -28.5 -15t-16.5 -5q-23 0 -39 11.5t-16 28.5q0 19 16 32t39 13q5 0 13.5 -3.5t26.5 -11.5q23 13 36.5 33.5t13.5 41.5q0 27 -20.5 46t-49.5 19q-44 0 -82 -26t-58 -69v-135
q23 -50 61 -80t79 -30q29 0 49.5 20.5zM322 8q-36 0 -71 -15.5t-64 -44.5q49 -9 84 -25.5t51 -39.5v125z" />
    <glyph glyph-name="u099E_u09CD_u099B" horiz-adv-x="559" 
d="M266 -75.5q-81 35.5 -175 35.5l-10 55q20 -7 53 -11t77 -4q54 0 92 25t38 60q0 21 -16 35.5t-39 14.5q-26 0 -72.5 -22.5t-72.5 -22.5q-37 0 -63.5 25t-26.5 60t32 74t88 71q37 21 58.5 44t21.5 41q0 27 -28 46t-67 19q-33 0 -56.5 -14.5t-23.5 -35.5q18 3 31.5 -7.5
t13.5 -27.5t-13 -28.5t-32 -11.5q-21 0 -35.5 16t-14.5 39q0 43 38 74t92 31q49 0 85 -21t45 -54q26 38 60.5 59t69.5 21q41 0 70.5 -26.5t29.5 -63.5q0 -20 -12 -40t-33 -35q19 -11 29.5 -31t10.5 -44q0 -37 -28 -63.5t-67 -26.5q-47 0 -91 42.5t-69 112.5l-40 -35
q11 -37 27.5 -69.5t37.5 -60.5q41 0 70.5 -23.5t29.5 -56.5q0 -45 -34 -80.5t-86 -44.5q59 -21 102.5 -50.5t67.5 -64.5l-30 -25q-54 64 -135 99.5zM178.5 138.5q24.5 8.5 62.5 26.5q-21 25 -36.5 54t-23.5 61q-42 -24 -66 -52t-24 -53q0 -19 14.5 -32t35.5 -13
q13 0 37.5 8.5zM455 236q16 16 16 39q0 16 -8 30t-22 20q-7 -7 -17.5 -11t-22.5 -4q-19 0 -32 11t-13 26q0 16 13 27t32 11q12 0 22.5 -4t17.5 -11q17 14 26 27t9 23q0 21 -17.5 35.5t-42.5 14.5q-34 0 -68.5 -27t-61.5 -73q25 -68 60.5 -109t69.5 -41q23 0 39 16z" />
    <glyph glyph-name="u099E_u09CD_u099C" horiz-adv-x="657" 
d="M127 63q-74 83 -87 207l40 10q12 -111 74.5 -185.5t143.5 -74.5q46 0 78.5 26.5t32.5 63.5q0 31 -14 53t-33 22q-6 0 -15 -6t-19 -17t-22 -16.5t-24 -5.5q-38 0 -64.5 28t-26.5 67q0 26 19 54t52 51q38 32 56 52t18 33q0 25 -31.5 42.5t-76.5 17.5q-44 0 -75.5 -20.5
t-31.5 -49.5q4 3 10 5t14 2q20 0 34.5 -14t14.5 -33t-15.5 -32t-37.5 -13q-26 0 -44.5 22t-18.5 53q0 50 44 85t106 35q43 0 77.5 -12t54.5 -34q22 22 52 34t63 12q48 0 82 -28t34 -67q0 -20 -8.5 -37t-24.5 -28q15 -9 24 -25t9 -35q0 -24 -8 -42.5t-22 -26.5l18 -16
q-18 -25 -27 -58.5t-9 -71.5t13 -72t37 -58l-34 -24q-27 27 -41.5 67t-14.5 87q0 41 7.5 73.5t21.5 52.5q-7 -3 -19.5 -4.5t-30.5 -1.5q-53 0 -101 30.5t-77 83.5q-33 -23 -52 -48t-19 -46t14.5 -35.5t34.5 -14.5q5 0 14 5.5t20 16.5t23 17t22 6q37 0 63.5 -33.5t26.5 -81.5
q0 -54 -45 -92t-108 -38q-97 0 -171 83zM531 266q20 16 20 39q0 14 -8.5 25t-21.5 15q-12 -7 -23.5 -11t-21.5 -4q-20 0 -34 10.5t-14 24.5t14 24.5t34 10.5q10 0 21.5 -4t22.5 -11q15 10 23 22t8 23q0 23 -22.5 39t-53.5 16q-25 0 -50 -11.5t-47 -33.5q3 -22 -8.5 -46
t-34.5 -44q30 -47 69.5 -73.5t77.5 -26.5q29 0 49 16z" />
    </font>
</defs>
</svg>
