<?xml version="1.0" standalone="no"?>
<!DOCTYPE svg PUBLIC "-//W3C//DTD SVG 1.1//EN" "http://www.w3.org/Graphics/SVG/1.1/DTD/svg11.dtd" >
<svg xmlns="http://www.w3.org/2000/svg" xmlns:xlink="http://www.w3.org/1999/xlink" version="1.1">
<metadata>
Created by FontForge 20160407 at Sun Oct 30 05:37:24 2016
 By Jimmy Wärting
Developer: Tanbin Islam Siyam
Developed under 'Avro Font Development Project'.
http://www.omicronlab.com

This Font Software is licensed under the SIL Open Font License, Version 1.0. No modification of the license is permitted, only verbatim copy is allowed. This license is copied below, and is also available with a FAQ at: http://scripts.sil.org/OFL
Latin typefaces are from Gentium (http://scripts.sil.org/cms/scripts/page.php?item_id=Gentium). Gentium is a trademark of SIL International.
</metadata>
<defs>
<font id="Kalpurush" horiz-adv-x="469" >
  <font-face 
    font-family="Kalpurush"
    font-weight="400"
    font-stretch="normal"
    units-per-em="1000"
    panose-1="2 0 6 0 0 0 0 0 0 0"
    ascent="800"
    descent="-200"
    x-height="454"
    cap-height="615"
    bbox="-555 -402 1118 1033"
    underline-thickness="20"
    underline-position="-317"
    unicode-range="U+0020-25CC"
  />
<missing-glyph horiz-adv-x="672" 
d="M102 678h465v-678h-465v678zM507 60v558h-344v-558h344z" />
    <glyph glyph-name=".notdef" horiz-adv-x="672" 
d="M102 678h465v-678h-465v678zM507 60v558h-344v-558h344z" />
    <glyph glyph-name="NULL" horiz-adv-x="0" 
 />
    <glyph glyph-name="nonmarkingreturn" horiz-adv-x="0" 
 />
    <glyph glyph-name="space" unicode=" " horiz-adv-x="364" 
 />
    <glyph glyph-name="exclam" unicode="!" horiz-adv-x="272" 
d="M154 190q-9 -7 -11.5 -11t-14.5 -8l-14 10l-28 436q19 12 39 22t37 18l21 -13zM191 60q0 -34 -19 -57t-48 -23q-49 0 -49 55q0 33 20 56.5t48 23.5q48 0 48 -55z" />
    <glyph glyph-name="quotedbl" unicode="&#x22;" horiz-adv-x="425" 
d="M326 407q-8 -4 -22 -7t-25 -3l-26 299q5 3 15 7.5t21.5 8.5t21.5 7t15 4l21 -11zM151 407q-8 -4 -22 -7t-25 -3l-26 299q6 3 16 7.5t21 8.5t21 7t15 4l21 -11z" />
    <glyph glyph-name="numbersign" unicode="#" 
d="M479 457q-2 -11 -6.5 -23.5t-8.5 -20.5h-358l-12 12q2 11 6.5 22.5t8.5 21.5h358zM283 83q-9 -7 -20.5 -11.5t-24.5 -9.5l-12 10l153 539q11 8 22 11.5t22 8.5l14 -11zM136 83q-8 -7 -19.5 -11.5t-24.5 -9.5l-12 10l153 539q11 8 21.5 11.5t21.5 8.5l15 -11zM426 275
q-2 -10 -6 -22.5t-7 -20.5h-360l-11 12q2 10 6 22t9 22h359z" />
    <glyph glyph-name="dollar" unicode="$" 
d="M255 -70q-9 -8 -14 -10t-17 -5l-13 11v736q7 4 10 6t5 3t5.5 2l10.5 3l13 -11v-735zM421 184q0 -33 -12.5 -66.5t-39.5 -60.5t-68.5 -44.5t-99.5 -17.5q-34 0 -70 12t-81 40q-3 2 -5 16t-2 32.5t1.5 37.5t5.5 33l21 -2q27 -58 71 -84t97 -26q22 0 42.5 7.5t37 21t26.5 33
t10 42.5q0 40 -22.5 64.5t-57 41t-74 29.5t-74 31.5t-57 46.5t-22.5 74q0 23 10 49t33.5 48t62 36.5t96.5 14.5q47 0 86.5 -12t59.5 -32q3 -3 -0.5 -12.5t-10.5 -20t-15.5 -20.5t-14.5 -16l-19 4q-28 32 -57.5 46.5t-58.5 14.5q-31 0 -52 -7t-34 -18t-18.5 -24.5t-5.5 -27.5
q0 -32 23 -52t57.5 -35t75 -29t75 -35t57.5 -52.5t23 -80.5z" />
    <glyph glyph-name="percent" unicode="%" horiz-adv-x="690" 
d="M653 151q0 -34 -11.5 -64t-31.5 -52.5t-46 -36t-54 -13.5q-29 0 -52.5 13.5t-41 36t-27 52.5t-9.5 64t12 63.5t31.5 52t45.5 35.5t54 13q29 0 53 -13t41 -35t26.5 -52t9.5 -64zM175 8q-5 -3 -13.5 -6.5t-18 -7t-19 -6.5t-15.5 -5l-12 17l418 580q14 8 32 14t33 10l14 -16
zM311 438q0 -34 -11.5 -64t-31.5 -52.5t-46 -36t-55 -13.5t-52.5 13.5t-41 36t-27 52.5t-9.5 64t12 64t31.5 52.5t45.5 35.5t54 13q29 0 53 -13t41.5 -35.5t27 -52.5t9.5 -64zM583 141q0 69 -22 102t-51 33q-22 0 -40.5 -28t-18.5 -86q0 -71 20 -104t52 -33q24 0 42 29.5
t18 86.5zM240 428q0 70 -22 102.5t-51 32.5q-22 0 -40.5 -28t-18.5 -86q0 -71 20 -104t52 -33q24 0 42 29.5t18 86.5z" />
    <glyph glyph-name="ampersand" unicode="&#x26;" horiz-adv-x="667" 
d="M657 365q-12 -15 -24 -25t-24 -18q-18 8 -42.5 13.5t-41.5 6.5q11 -17 13.5 -32.5t2.5 -44.5q0 -42 -23 -91t-63.5 -91t-95 -70t-116.5 -28q-45 0 -82.5 12t-64.5 35.5t-42 58.5t-15 81q0 66 55 134t158 126q31 17 51.5 35t32 36t16 35.5t4.5 33.5q0 34 -17 59t-52 25
q-18 0 -31 -9t-21.5 -24t-13 -33.5t-4.5 -37.5q0 -39 16 -84t42.5 -91.5t60.5 -92.5t70.5 -87t72.5 -76t66 -59q19 -16 40 -21t50 2l4 -21q-42 -19 -71 -28t-40 -9q-12 0 -44 24.5t-73.5 66t-86.5 96t-82.5 114t-62 121t-24.5 117.5q0 39 13 73t35 58.5t50.5 38.5t59.5 14
t52.5 -10t34.5 -26.5t18.5 -38t5.5 -45.5q0 -51 -32 -96t-90 -81q-53 -33 -88.5 -62.5t-56.5 -57t-30 -54.5t-9 -55q0 -34 11.5 -60.5t31 -44.5t45 -27t52.5 -9q52 0 93.5 20.5t70.5 51t44.5 66t15.5 66.5q0 21 -7 39t-18 31.5t-25 21t-28 7.5l-11 14q5 6 15.5 13.5
t20.5 11.5h217l11 -18v0z" />
    <glyph glyph-name="quotesingle" unicode="'" horiz-adv-x="250" 
d="M151 407q-8 -4 -22 -7t-25 -3l-26 299q6 3 16 7.5t21 8.5t21 7t15 4l21 -11z" />
    <glyph glyph-name="parenleft" unicode="(" horiz-adv-x="317" 
d="M282 -154q-55 25 -97 71t-70 106t-42 131.5t-14 149.5q0 80 16 155t45 137.5t70.5 110.5t91.5 74l16 -22q-32 -27 -60.5 -69.5t-49.5 -99t-33.5 -125.5t-12.5 -147q0 -71 10.5 -139t30 -126.5t48.5 -106t67 -78.5z" />
    <glyph glyph-name="parenright" unicode=")" horiz-adv-x="317" 
d="M259 324q0 -80 -16 -155t-45.5 -138t-71 -111t-91.5 -74l-15 22q31 27 59.5 70t50 99.5t34 125.5t12.5 147q0 71 -10.5 138.5t-30 126.5t-49 106.5t-66.5 77.5l15 22q55 -25 97 -70.5t70 -105.5t42.5 -131.5t14.5 -149.5z" />
    <glyph glyph-name="asterisk" unicode="*" horiz-adv-x="447" 
d="M171 518q-4 2 -5 1t-1.5 -2t-1 -1t-3.5 5l206 155q11 -7 24.5 -16t21.5 -17l1 -20zM228 490q-4 -2 -3.5 -3.5t1.5 -2.5t0.5 -1.5t-6.5 -0.5l-31 257q11 5 26 13t26 10l18 -10zM401 491q-1 -12 -1.5 -28.5t-4.5 -27.5l-18 -11l-210 158q0 4 -1.5 4.5t-3 0.5t-1.5 0.5
t3 5.5zM46 616q1 12 1.5 29t4.5 27l17 11l212 -157q0 -5 1 -5h2.5t1.5 -0.5t-3 -5.5zM258 369q-11 -6 -25.5 -13.5t-25.5 -9.5l-19 9l31 262q4 2 3.5 3.5t-1 2.5t0 1.5t6.5 0.5zM81 431q-11 7 -25 16t-21 17l-1 21l242 104q4 -2 5 -1t1.5 2t1 1t3.5 -5z" />
    <glyph glyph-name="plus" unicode="+" horiz-adv-x="410" 
d="M380 290q-2 -10 -6.5 -22.5t-8.5 -20.5h-323l-12 12q5 21 15 43h323zM233 115q-10 -5 -21.5 -9t-22.5 -6l-12 11v324q9 3 21 7.5t23 6.5l12 -11v-323z" />
    <glyph glyph-name="comma" unicode="," horiz-adv-x="229" 
d="M191 34q0 -19 -7.5 -43t-22 -48.5t-35 -48.5t-45.5 -43l-22 17q27 32 38.5 61t11.5 71q0 22 -13 34.5t-45 10.5l-8 23q4 6 18 13.5t31.5 14.5t33.5 11.5t25 4.5q23 -11 31.5 -30.5t8.5 -47.5z" />
    <glyph glyph-name="hyphen" unicode="-" horiz-adv-x="337" 
d="M307 266q-3 -11 -7 -23.5t-8 -20.5h-250l-12 12q2 11 6 22.5t9 21.5h250l12 -12v0z" />
    <glyph glyph-name="period" unicode="." horiz-adv-x="229" 
d="M180 60q0 -34 -19 -57t-48 -23q-26 0 -37.5 14.5t-11.5 40.5q0 33 20 56.5t48 23.5q48 0 48 -55z" />
    <glyph glyph-name="slash" unicode="/" 
d="M103 -139q-10 -6 -29.5 -13.5t-31.5 -11.5l-18 13l342 908q14 9 30 14.5t30 9.5l18 -10z" />
    <glyph glyph-name="zero" unicode="0" 
d="M432 294q0 -63 -15 -119t-42 -98.5t-65.5 -67t-84.5 -24.5q-47 0 -82 24.5t-58.5 67t-35.5 98.5t-12 119t15 119t42.5 98.5t65.5 67t84 24.5t81.5 -24.5t59 -66.5t35.5 -98t12 -120zM352 276q0 67 -10.5 117.5t-28 84.5t-40.5 51.5t-48 17.5q-50 0 -79 -55t-29 -177
q0 -135 36.5 -204t90.5 -69q51 0 79.5 55t28.5 179z" />
    <glyph glyph-name="one" unicode="1" 
d="M83 0v26q38 4 63.5 9.5t40.5 11.5t21.5 12t6.5 11v389q0 20 -1.5 30.5t-7.5 17.5q-6 6 -35 6t-93 -13l-10 25q20 6 48 16t57 22t55 24t42 21l18 -17v-521q0 -5 5.5 -10.5t19 -11.5t37 -12t60.5 -10v-26h-327z" />
    <glyph glyph-name="two" unicode="2" 
d="M401 0h-339l-14 36q87 101 141.5 168t84.5 112.5t41 76t11 58.5q0 45 -22.5 75.5t-75.5 30.5q-20 0 -36.5 -9.5t-28.5 -24t-19 -32.5t-7 -35q-17 -9 -28.5 -15.5t-34.5 -8.5l-13 15q0 25 17 52.5t45.5 50.5t64 38t73.5 15q30 0 55.5 -8t44 -25t29.5 -43t11 -62
q0 -33 -14 -67.5t-46.5 -80t-84 -108t-126.5 -150.5h204q17 0 26.5 13t14.5 30q6 19 9 44l24 -6z" />
    <glyph glyph-name="three" unicode="3" 
d="M403 186q0 -41 -13 -77.5t-39 -64t-64.5 -43.5t-88.5 -16q-38 0 -79 15.5t-86 57.5l17 33q22 -17 40 -27.5t34.5 -17t33 -9t34.5 -2.5q60 0 96.5 36t36.5 99q0 37 -11.5 62.5t-29.5 41.5t-40 23t-44 7h-10t-5.5 -0.5t-6.5 -1t-11 -1.5l-7 29q45 12 72 28.5t41.5 33.5
t19 34.5t4.5 32.5q0 17 -5 34.5t-16 31.5t-28 23t-40 9q-39 0 -60.5 -24.5t-15.5 -57.5q-17 -8 -32 -12.5t-36 -6.5l-13 15q0 21 15 44t40.5 42.5t59 32.5t70.5 13q36 0 62.5 -12t43 -31t24.5 -43t8 -49q0 -37 -27.5 -71.5t-75.5 -55.5q28 -3 52 -16.5t42 -34.5t28 -47.5
t10 -56.5z" />
    <glyph glyph-name="four" unicode="4" 
d="M427 210q-11 -16 -19.5 -23.5t-19.5 -15.5h-34v-120q0 -8 13.5 -14.5t54.5 -15.5v-21h-239v21q32 5 52 9.5t31.5 9t15.5 8.5t4 8v115h-243l-16 16l242 386q20 9 36.5 18t30.5 17l18 -17v-366h60zM286 508l-182 -283h182v283z" />
    <glyph glyph-name="five" unicode="5" 
d="M408 200q0 -42 -13 -81t-37.5 -69t-60.5 -47.5t-82 -17.5q-45 0 -90 17t-87 56l17 33q52 -36 86.5 -46t62.5 -10q32 0 55.5 12t39.5 32t23.5 46t7.5 54q0 67 -32 107.5t-101 40.5q-21 0 -51 -9.5t-56 -29.5l-23 16q4 27 10.5 65t12.5 78t10.5 77.5t6.5 63.5h213
q14 0 24.5 1t18.5 3q9 2 16 5l14 -14q-11 -16 -27 -33t-27 -25h-189q-1 -14 -3.5 -36.5t-5.5 -45.5t-6.5 -43.5t-5.5 -31.5q20 6 46 9.5t51 3.5q44 0 78 -15t57 -39.5t35 -57.5t12 -69z" />
    <glyph glyph-name="six" unicode="6" 
d="M430 201q0 -34 -11.5 -72t-35 -70t-57.5 -53t-79 -21q-40 0 -75 18t-61.5 50t-41.5 77.5t-15 100.5q0 69 20 132t60.5 114t103 86t147.5 47l9 -29q-67 -15 -116 -48t-81.5 -76.5t-48.5 -94t-16 -100.5q0 -116 36.5 -170.5t97.5 -54.5q26 0 43.5 12.5t28 31.5t15 42.5
t4.5 46.5q0 46 -11 75.5t-27.5 46.5t-36.5 23.5t-38 6.5q-29 0 -64 -18.5t-64 -63.5l-6 47q19 26 40.5 43t42 27.5t39 14.5t32.5 4q79 0 122.5 -47t43.5 -128z" />
    <glyph glyph-name="seven" unicode="7" 
d="M432 570q-34 -79 -68 -160t-63.5 -154.5t-53 -134.5t-36.5 -100q-33 -23 -79 -36l-20 16q42 75 76 143t62.5 132t54.5 125.5t53 123.5h-222q-7 0 -14 -0.5t-14.5 -6.5t-16 -21t-18.5 -43l-22 9q1 11 3.5 28t5.5 35t6 34.5t6 27.5h344l16 -18v0z" />
    <glyph glyph-name="eight" unicode="8" 
d="M422 172q0 -38 -16 -72t-43.5 -59.5t-64 -40.5t-78.5 -15t-74 13t-54.5 34t-34 49t-11.5 58q0 55 36.5 100.5t97.5 78.5l35 -18q-48 -35 -69.5 -68t-21.5 -78q0 -51 32 -85.5t88 -34.5q27 0 46 10.5t31.5 27t18 37.5t5.5 42q0 44 -20.5 71t-50.5 45.5t-66 32.5t-66 32
t-50.5 44.5t-20.5 70.5q0 34 13.5 62.5t37 49.5t55 32.5t68.5 11.5q74 0 113.5 -36.5t39.5 -93.5q0 -22 -8.5 -42t-24 -38t-36.5 -35t-46 -33l-34 21q42 28 59.5 56t17.5 56q0 51 -29 75t-77 24q-22 0 -38 -8.5t-26.5 -21.5t-16 -30t-5.5 -33q0 -31 21.5 -51t53.5 -36
t69 -31.5t69 -37.5t53.5 -54t21.5 -82z" />
    <glyph glyph-name="nine" unicode="9" 
d="M425 357q0 -74 -20 -138t-61 -113t-103.5 -82t-147.5 -45l-9 29q72 18 122 48.5t81 71.5t45 91t14 108q0 65 -11 108t-28.5 69t-38.5 37t-41 11q-51 0 -78.5 -38t-27.5 -96q0 -45 11 -73.5t28 -45t37 -22.5t38 -6q42 0 75.5 27.5t52.5 69.5l6 -51q-12 -22 -29.5 -40
t-38.5 -31.5t-43.5 -21t-43.5 -7.5q-39 0 -69.5 13t-52 36t-32.5 54.5t-11 67.5q0 37 15 75.5t41 69.5t62.5 50.5t79.5 19.5q34 0 66 -14t57 -44t40 -76.5t15 -111.5z" />
    <glyph glyph-name="colon" unicode=":" horiz-adv-x="229" 
d="M180 60q0 -34 -19 -57t-48 -23q-26 0 -37.5 14.5t-11.5 40.5q0 33 20 56.5t48 23.5q48 0 48 -55zM180 414q0 -34 -19 -57t-48 -23q-26 0 -37.5 14.5t-11.5 40.5q0 33 20 56.5t48 23.5q48 0 48 -55z" />
    <glyph glyph-name="semicolon" unicode=";" horiz-adv-x="229" 
d="M191 34q0 -19 -7.5 -43t-22 -48.5t-35 -48.5t-45.5 -43l-22 17q27 32 38.5 61t11.5 71q0 22 -13 34.5t-45 10.5l-8 23q4 6 18 13.5t31.5 14.5t33.5 11.5t25 4.5q23 -11 31.5 -30.5t8.5 -47.5zM180 414q0 -34 -19 -57t-48 -23q-26 0 -37.5 14.5t-11.5 40.5q0 33 20 56.5
t48 23.5q48 0 48 -55z" />
    <glyph glyph-name="less" unicode="&#x3c;" horiz-adv-x="439" 
d="M409 427q-2 -11 -6.5 -25.5t-7.5 -23.5l-353 -131l-12 12q2 10 6 24t9 24l352 132zM409 157q-11 -10 -18.5 -16.5t-22.5 -15.5l-326 122l-12 12q2 10 6 24t9 24l356 -132z" />
    <glyph glyph-name="equal" unicode="=" horiz-adv-x="439" 
d="M409 363q-2 -10 -6.5 -22.5t-7.5 -20.5h-353l-12 12q2 10 6 22t9 21h352zM409 217q-2 -11 -6.5 -23t-7.5 -21h-353l-12 13q5 21 15 43h352z" />
    <glyph glyph-name="greater" unicode="&#x3e;" horiz-adv-x="439" 
d="M409 305q-2 -11 -6 -25t-9 -24l-356 132l-8 19q11 9 21.5 16.5t19.5 15.5l327 -122zM409 305q-2 -11 -6 -25t-9 -24l-352 -131l-12 12q3 10 7 25t8 23l353 132z" />
    <glyph glyph-name="question" unicode="?" horiz-adv-x="433" 
d="M394 499q0 -37 -11.5 -61t-29 -41.5t-38 -32t-39 -31t-32 -39.5t-15.5 -57l-3 -47q-9 -7 -11.5 -11.5t-15.5 -8.5l-12 10l-4 57q-1 28 8 50t23 41t31.5 36t32.5 34.5t25 36.5t10 42q0 60 -27.5 94.5t-78.5 34.5q-18 0 -34 -8t-28 -21.5t-19 -31t-7 -36.5q0 -7 2 -14
l4 -14q-16 -8 -33 -12.5t-39 -6.5l-13 15q-1 4 -1 8v8q0 34 17 63.5t45.5 51t65.5 33.5t78 12q72 0 110.5 -42.5t38.5 -111.5zM263 60q0 -34 -19 -57t-48 -23q-26 0 -37.5 14.5t-11.5 40.5q0 33 20 56.5t48 23.5q48 0 48 -55z" />
    <glyph glyph-name="at" unicode="@" horiz-adv-x="807" 
d="M773 268q0 -63 -21 -115.5t-52 -89.5t-67.5 -57.5t-67.5 -20.5q-24 0 -42 21.5t-25 72.5q-20 -28 -35.5 -46t-30 -28.5t-30 -15t-34.5 -4.5q-25 0 -50.5 16t-46.5 46t-34 73t-13 97q0 42 15 86.5t42.5 81.5t66 60.5t86.5 23.5q11 0 20.5 -1.5t18.5 -6.5t19 -14t23 -23
q27 16 53 45l15 -15q-4 -14 -8 -30q-3 -14 -5 -32.5t-2 -38.5v-214q0 -44 15 -65t38 -21q12 0 28.5 15.5t31 42t24.5 62.5t10 77q0 82 -21 146t-58.5 107.5t-89.5 66.5t-114 23q-75 0 -135 -28t-102 -74.5t-65 -107.5t-23 -127q0 -89 27.5 -159.5t73.5 -119.5t106.5 -75.5
t126.5 -26.5q41 0 80.5 8.5t73 21.5t59.5 28t41 27l13 -27q-18 -18 -46 -38.5t-65 -38t-82.5 -28.5t-97.5 -11q-84 0 -154.5 29t-121 82.5t-79 129t-28.5 169.5q0 83 33 159.5t89.5 135.5t132.5 94t162 35q73 0 132.5 -24.5t101.5 -73t65 -120t23 -165.5zM495 357
q-14 27 -30.5 43t-45.5 16q-54 0 -87.5 -46t-33.5 -138q0 -42 10 -75.5t25.5 -57t34 -36.5t35.5 -13q9 0 18 3t19 11t23.5 22t31.5 36v235z" />
    <glyph glyph-name="bracketleft" unicode="[" horiz-adv-x="308" 
d="M288 -122q-2 -9 -6 -21t-8 -21h-206v945h203l16 -12q-2 -13 -6 -25t-7 -17h-137v-834h134l17 -15v0z" />
    <glyph glyph-name="backslash" unicode="\" 
d="M425 -164q-12 4 -29.5 11.5t-26.5 13.5l-342 910l18 10q14 -4 27.5 -9.5t27.5 -14.5l342 -908z" />
    <glyph glyph-name="bracketright" unicode="]" horiz-adv-x="308" 
d="M37 -164l-16 15q2 11 5.5 23t6.5 19h138v834h-134l-17 12q2 11 6 22.5t7 19.5h206v-945h-202z" />
    <glyph glyph-name="asciicircum" unicode="^" horiz-adv-x="492" 
d="M443 310q-12 -11 -23.5 -18.5t-28.5 -15.5l-18 13l-138 353l-122 -332q-11 -10 -27 -19.5t-26 -14.5l-11 13l157 425q12 11 31.5 23.5t33.5 19.5l172 -447v0z" />
    <glyph glyph-name="underscore" unicode="_" 
d="M438 -76q-2 -11 -6 -23t-8 -21h-382l-12 13q5 21 15 43h382l11 -12v0z" />
    <glyph glyph-name="grave" unicode="`" horiz-adv-x="319" 
d="M214 526q-11 -9 -27 -15l-172 184l10 20q5 1 14.5 3t20.5 4t21 3.5t16 1.5l117 -201v0z" />
    <glyph glyph-name="braceleft" unicode="{" horiz-adv-x="336" 
d="M317 758q-38 -23 -64 -59.5t-26 -87.5q0 -28 3 -46t7 -34t7 -34t3 -46q0 -42 -23 -78t-65 -54q49 -9 68.5 -43t19.5 -88q0 -29 -3 -49.5t-7 -38.5t-7 -36.5t-3 -42.5q0 -27 3.5 -47.5t13 -37.5t26 -31.5t42.5 -28.5l-11 -30q-41 16 -70.5 34.5t-48 41t-27.5 50.5t-9 63
q0 29 3 48t7 36t7 37t3 50q0 40 -20 60t-56 20h-10t-5.5 -0.5t-6 -1l-10.5 -1.5l-8 26q57 15 86.5 45.5t29.5 66.5q0 30 -3 47.5t-7 33t-7 33.5t-3 48q0 66 42.5 115.5t115.5 82.5l13 -23v0z" />
    <glyph glyph-name="bar" unicode="|" horiz-adv-x="229" 
d="M156 -172q-8 -8 -23.5 -14.5t-27.5 -11.5l-17 11v979q14 8 25.5 14t25.5 9l17 -10v-977v0z" />
    <glyph glyph-name="braceright" unicode="}" horiz-adv-x="336" 
d="M287 318q-58 -15 -87 -44.5t-29 -67.5q0 -30 3 -47.5t6.5 -32.5t6.5 -33t3 -48q0 -66 -42.5 -116t-115.5 -83l-13 24q38 24 64 60t26 87q0 28 -3 46t-6.5 34t-6.5 34t-3 47q0 41 23 76.5t65 53.5q-50 10 -69 44t-19 88q0 29 3 49.5t6.5 38.5t6.5 36t3 42q0 28 -3.5 49
t-13.5 37.5t-26.5 30.5t-41.5 28l11 30q82 -32 118.5 -75t36.5 -113q0 -29 -3 -48t-6.5 -36t-6.5 -37t-3 -50q0 -80 76 -80h9h5.5t6 0.5t11.5 2.5l8 -27v0z" />
    <glyph glyph-name="asciitilde" unicode="~" horiz-adv-x="488" 
d="M464 378q-10 -24 -25.5 -49.5t-35 -47t-42 -35t-45.5 -13.5q-21 0 -44 12t-46.5 27t-46.5 27t-44 12q-46 0 -85 -79l-26 13q10 24 26 49.5t35.5 47t41.5 35t45 13.5q22 0 46 -12t47 -27t45 -27t42 -12q46 0 86 78l26 -12v0z" />
    <glyph glyph-name="cent" unicode="&#xa2;" 
d="M276 -4q-9 -8 -14.5 -10t-17.5 -6l-12 12v601q7 4 9.5 6t5 3.5t5.5 2.5t11 3l13 -11v-601zM422 171q-32 -38 -56 -59.5t-44.5 -32t-40 -13.5t-42.5 -3q-35 0 -69 14.5t-60.5 42.5t-42.5 70t-16 96q0 52 19 96t53 76.5t79 50.5t98 18q16 0 33 -2.5t32.5 -8t28.5 -12.5
t21 -16q1 -6 -1.5 -16.5t-7 -22.5t-10 -23t-9.5 -17l-17 5q-5 9 -13.5 19.5t-22.5 19.5t-33.5 15t-44.5 6q-26 0 -49.5 -10t-41.5 -31t-29 -54t-11 -78q0 -42 12.5 -74.5t33 -54t47.5 -33t56 -11.5q14 0 26 1t26 7t32 19t45 36z" />
    <glyph glyph-name="multiply" unicode="&#xd7;" horiz-adv-x="410" 
d="M364 137q-10 -5 -23 -9t-22 -6l-273 273v16q22 10 45 15l273 -273v-16zM45 153l273 273q24 -5 46 -15v-16l-273 -273q-9 2 -22 6t-24 9v16z" />
    <glyph glyph-name="divide" unicode="&#xf7;" horiz-adv-x="410" 
d="M380 290q-2 -10 -6.5 -22.5t-8.5 -20.5h-323l-12 12q5 21 15 43h323zM244 400q0 -21 -13 -37t-32 -16q-33 0 -33 38q0 22 13 37t32 15q33 0 33 -37zM244 166q0 -22 -13 -37.5t-32 -15.5q-33 0 -33 37q0 23 13 38t32 15q33 0 33 -37z" />
    <glyph glyph-name="u0981" unicode="&#x981;" horiz-adv-x="0" 
d="M-28 866q0 -49 -34 -89q-33 -39 -83 -39q-48 0 -87 44.5t-70 125.5l30 -2q52 -107 127 -107q30 0 54.5 25.5t41.5 73.5q21 -2 21 -32zM-187 884q0 15 12 27t28 12t27.5 -12t11.5 -27q0 -16 -11.5 -28t-27.5 -12t-28 12t-12 28z" />
    <glyph glyph-name="u0982" unicode="&#x982;" horiz-adv-x="348" 
d="M292 498q0 -51 -35 -92q-34 -38 -85 -38q-54 0 -93 39t-39 94q0 24 9 47t29 43q39 41 88 41q53 0 89 -41q37 -40 37 -93zM238 527q0 48 -40 48q-39 0 -70 -34q-14 -16 -21.5 -35.5t-7.5 -39.5q0 -44 34 -44q41 0 73 32q32 31 32 73zM334 -2q-31 31 -67 62t-73 58.5
t-73 52t-67 42.5v126q66 -51 148 -138.5t132 -157.5v-45z" />
    <glyph glyph-name="u0983" unicode="&#x983;" horiz-adv-x="378" 
d="M330 154q0 -52 -37 -95q-18 -22 -40.5 -32t-47.5 -10q-55 0 -94 38q-39 39 -39 92q0 52 41 96q22 21 45.5 32t50.5 11q51 0 86 -40t35 -92zM271 160q0 26 -14 47t-40 21q-37 0 -58 -32q-21 -30 -21 -68q0 -64 43 -64q19 0 35.5 8t28.5 21t19 30.5t7 36.5zM330 489
q0 -52 -37 -95q-18 -22 -40.5 -32t-47.5 -10q-55 0 -94 38q-39 39 -39 92q0 52 41 95q44 44 96 44q51 0 86 -40t35 -92zM271 495q0 26 -14 47t-40 21q-37 0 -58 -32q-21 -30 -21 -68q0 -64 43 -64q19 0 35.5 8t28.5 21t19 30.5t7 36.5z" />
    <glyph glyph-name="u0985" unicode="&#x985;" horiz-adv-x="684" 
d="M697 588h-104v-590l-19 12v-1q-38 146 -137 211q-22 -36 -60.5 -56t-89.5 -20q-28 0 -57 12t-57.5 34t-54.5 53t-49 68q-27 46 -44 109t-25 135l34 -14q14 -69 38 -125t56 -96.5t70 -63t78 -22.5q98 0 131 58q22 41 22 81q0 14 -3 30q-7 25 -20.5 45t-24.5 30
q-19 15 -35 18t-33 -4q18 -24 18 -45q0 -18 -10.5 -35t-28.5 -29q-28 -22 -67 -16q-37 7 -58 37q-10 19 -10 41q0 24 12 45.5t30 35.5q48 33 94 33q22 0 45 -7q32 -11 61.5 -33t50.5 -56q26 -47 26 -106q0 -42 -12 -87l73 -66v384h-552l-56 56h712z" />
    <glyph glyph-name="u0986" unicode="&#x986;" horiz-adv-x="889" 
d="M697 588h-104v-590l-19 12v-1q-38 146 -137 211q-22 -36 -60.5 -56t-89.5 -20q-28 0 -57 12t-57.5 34t-54.5 53t-49 68q-27 46 -44 109t-25 135l34 -14q14 -69 38 -125t56 -96.5t70 -63t78 -22.5q98 0 131 58q22 41 22 81q0 14 -3 30q-7 25 -20.5 45t-24.5 30
q-19 15 -35 18t-33 -4q18 -24 18 -45q0 -18 -10.5 -35t-28.5 -29q-28 -22 -67 -16q-37 7 -58 37q-10 19 -10 41q0 24 12 45.5t30 35.5q48 33 94 33q22 0 45 -7q32 -11 61.5 -33t50.5 -56q26 -47 26 -106q0 -42 -12 -87l73 -66v384h-552l-56 56h712zM794 588v-585l-54 56v415
q0 26 -10 47t-27.5 35.5t-40 23t-46.5 8.5l-56 56h64q51 0 79 -22.5t45 -74.5q0 17 -1 42t-4 59q-2 33 -3 57.5t-1 41.5l20 -17q10 -60 35 -86h50l55 -56h-105z" />
    <glyph glyph-name="u0987" unicode="&#x987;" horiz-adv-x="538" 
d="M544 588h-296q7 -11 15 -21.5t16 -19.5q85 -30 114 -64q45 -44 45 -113t-55 -114q-41 -35 -125 -57q57 -34 121.5 -89t139.5 -131l13 -58q-40 45 -88 84.5t-108 74.5q-57 32 -118 56t-122 39l-67 140q71 -39 157 -46q65 -5 115 21q69 34 66 91q0 18 -5.5 35t-16 30
t-24.5 21t-32 8q-8 0 -14.5 -2t-14.5 -4q0 -40 -34 -73q-35 -33 -74 -33q-25 0 -46 15.5t-21 40.5q0 47 40 84q38 35 91 40q0 16 -38 45h-180l-56 56h380q11 0 24 2.5t24 6.5q31 11 31 33q0 21 -35 31q-11 4 -24 5.5t-27 1.5t-34.5 -1t-48.5 -3t-48.5 -3t-34.5 -1
q-63 0 -116 31q-61 36 -61 94q0 12 14 38q14 25 26 23q3 0 7 -0.5t8 -0.5q-24 -17 -24 -47q0 -28 30 -46q24 -15 55 -15q12 0 48.5 2.5t96.5 7.5q105 -2 159 -41.5t49 -117.5h47z" />
    <glyph glyph-name="u0988" unicode="&#x988;" horiz-adv-x="585" 
d="M598 588h-430q4 -10 10 -20t14 -23q66 -5 94.5 -48t28.5 -105q46 48 86 81t73 50l93 -61q-60 -60 -94.5 -136t-34.5 -164q0 -75 44 -169q-11 5 -23 11.5t-22 11.5q-46 100 -46 208q0 93 47 191q-20 -18 -51.5 -53.5t-69.5 -82.5q-44 -55 -73.5 -84t-56.5 -29
q-25 0 -44.5 11t-33.5 28.5t-23 39.5t-13 43l27 24q7 -26 22 -49t41 -23q33 0 69 47q23 31 33.5 55.5t10.5 56.5q0 29 -19 51.5t-46 22.5q-15 0 -31 -9q13 -19 13 -38q0 -22 -16.5 -36.5t-43.5 -14.5q-34 0 -55.5 21t-21.5 54q0 19 8 34t20.5 26t28.5 18.5t31 12.5l-27 47
h-123l-56 56h484q14 0 22.5 13t8.5 25q0 34 -47 34q-62 0 -119 -5.5t-114 -5.5t-103 31q-52 35 -52 88q0 7 2.5 16.5t7.5 19t11.5 18t14.5 13.5l16 -21q-14 -19 -14 -37q0 -51 73 -51q14 0 39 2t52.5 4t53.5 4t41 2q44 0 74 -9.5t53 -25.5q25 -17 38.5 -43t13.5 -59
q0 -3 -0.5 -6.5t-0.5 -6.5h50z" />
    <glyph glyph-name="u0989" unicode="&#x989;" horiz-adv-x="597" 
d="M606 588h-321v-172q0 -17 9.5 -32t26.5 -15q39 13 72 57q33 48 44 48q40 0 73 -63q30 -56 30 -102q4 -99 -50 -167q-65 -66 -154 -69q-246 0 -297 477l39 -22q4 -60 19 -117t43 -110q74 -131 185 -131q34 0 63 11t55 32q53 42 53 108q0 38 -31 72q-12 -20 -29 -40
t-39 -37q-20 -17 -40 -26t-35 -9q-18 0 -34.5 7t-29 20t-20.5 31t-8 40v209h-238l-55 56h474q36 -1 36 30q0 26 -32 40q-25 10 -53 10q-14 0 -33.5 -1t-47.5 -3q-26 -2 -46.5 -3t-33.5 -1q-63 0 -116 32q-60 36 -60 95q0 48 30 65q4 -2 10.5 -5t11.5 -5q-21 -17 -21 -40
q0 -31 40 -50q14 -6 31.5 -10t34.5 -4q14 0 34.5 1t49.5 3q28 2 49.5 3.5t35.5 1.5q78 0 123 -41.5t42 -117.5h55z" />
    <glyph glyph-name="u098A" unicode="&#x98a;" horiz-adv-x="666" 
d="M586 411q15 -29 20.5 -54t5.5 -48q0 -57 -11 -97t-39 -69q-64 -70 -154 -70q-83 0 -145 40t-106 103.5t-72 142t-41 155.5l40 -17q7 -37 19.5 -75.5t30 -75t40.5 -70t51 -60.5q-28 60 -43 145.5t-20 187.5l37 -23q6 -52 15.5 -114t30.5 -116t57.5 -90t96.5 -36
q63 0 118 43q51 42 51 108q0 37 -29 72q-11 -20 -29 -39.5t-40 -36.5q-45 -36 -75 -36q-37 0 -65 27t-28 71v209h-305l-55 56h542q36 0 36 30q0 26 -33 40q-25 10 -51 10q-13 0 -34.5 -1.5t-46.5 -3.5q-14 -1 -31 -1.5t-33.5 -1t-29.5 -0.5h-20q-65 0 -115 32q-60 36 -60 95
q0 51 27 65q5 -2 12 -5t12 -5q-21 -17 -21 -40q0 -32 40 -50q14 -6 31 -10t36 -4q13 0 34 1t50 3q14 1 31.5 2t34 1.5t30 1t20.5 0.5q76 0 120.5 -39t44.5 -120h56l54 -56h-321v-172q0 -17 10 -32t27 -15q20 2 37 18t34 39q33 48 44 48q44 0 77 -63z" />
    <glyph glyph-name="u098B" unicode="&#x98b;" horiz-adv-x="690" 
d="M586 588v-509q-4 5 -8.5 9.5t-7.5 9.5q-4 33 -14.5 66t-27 63t-39.5 55t-52 41v-324q-11 4 -21 21q-23 64 -46 112t-46 76q-64 78 -182 99q-14 20 -29 42.5t-30 43.5q43 32 109 71t154 84q-33 46 -77 49q-11 -19 -29.5 -33t-39.5 -23.5t-44 -14.5t-43 -5q-18 0 -35 6
t-30.5 16.5t-21.5 25.5t-8 33q0 63 62 63q47 0 47 -57q38 4 70 26t53 54q38 -22 72.5 -54t58.5 -72v195l56 -55v-310q32 -20 55 -42t39 -48v450l38 -38q1 -18 5 -35.5t11 -34.5h59l56 -56h-114zM382 475q-49 -25 -92 -51.5t-81 -54.5q98 -53 173 -156v262z" />
    <glyph glyph-name="u098C" unicode="&#x98c;" horiz-adv-x="606" 
d="M434 431q18 -15 38.5 -33.5t38.5 -41.5t31 -51t16 -62q4 -39 -9 -70.5t-38 -56t-58.5 -43t-69.5 -31t-72.5 -18.5t-66.5 -6q8 15 22 35q11 18 22.5 37.5t21.5 40t16 40.5t6 40q0 34 -27 61q-11 10 -30.5 18t-42.5 8t-45.5 -10.5t-36.5 -36.5q-12 -21 -0.5 -29t31.5 -13
q9 -2 18 -5t16.5 -7.5t12.5 -11.5t5 -19q0 -16 -13 -45q-12 -16 -27.5 -24t-31.5 -8q-33 0 -54 24q-11 10 -17.5 24.5t-10 29.5t-4 28t0.5 21q0 18 9.5 41t27 44t41 36.5t51.5 19.5q36 1 68 -8t56.5 -28t38.5 -46.5t14 -61.5q0 -25 -7 -52.5t-23 -58.5q12 4 27 13t30.5 20.5
t30 24t25.5 23.5q16 16 25 33t9 36q0 28 -24.5 61.5t-66.5 61.5l-89 65q-29 20 -57.5 40.5t-51 43t-36.5 46t-14 49.5q0 38 53 64q7 3 14 4t15 1q18 0 34.5 -6.5t16.5 -22.5q0 -18 -24 -42q-12 -11 -7.5 -24.5t19.5 -30.5t38 -36.5t50 -41.5l47 -38z" />
    <glyph glyph-name="u098F" unicode="&#x98f;" horiz-adv-x="670" 
d="M566 -1q-13 7 -21 36q-9 25 -17 42.5t-16 28.5q-30 38 -83 38q-28 0 -86 -9q-29 -4 -50.5 -5.5t-36.5 -1.5q-205 0 -205 211q0 46 13 82.5t36 64.5l21 -22q-14 -23 -22.5 -54t-8.5 -68t12 -63.5t34 -40.5q17 -10 44 -16t63 -6h23.5t30.5 1l53 2q88 0 167 -67v424
q0 17 -40 17q-26 0 -49.5 -15t-48.5 -44q-21 -26 -35 -52t-20 -55q22 3 39 3q41 0 41 -64q0 -31 -22 -48.5t-54 -17.5q-42 0 -69.5 26t-27.5 69q0 90 76 172q38 38 80 60t85 22q27 0 65 -32q36 -30 36 -57v-563z" />
    <glyph glyph-name="u0990" unicode="&#x990;" horiz-adv-x="675" 
d="M663 581q0 -87 -102 -142v-441q-23 22 -34 62q-5 20 -11 35t-11 20q-23 24 -83 24q-14 0 -34 -2t-47 -5q-53 -6 -80 -6q-210 0 -210 202q0 81 48 152q5 -6 9 -13t9 -12q-14 -22 -21 -48.5t-7 -61.5q0 -79 51 -109q18 -10 46.5 -15.5t67.5 -5.5h44q14 1 24 1h17
q125 0 167 -68v421q0 14 -31 14q-49 0 -98 -58q-20 -23 -35 -49t-26 -55q8 1 13 1.5t10 1.5q4 1 9 1q22 0 36.5 -18.5t14.5 -43.5q0 -69 -80 -69q-43 0 -71 36q-11 16 -17.5 36t-6.5 41q0 80 79 158q83 78 163 78q85 0 90 -120q67 7 67 57q0 69 -99 101q-45 13 -90.5 25.5
t-90.5 24.5q-47 18 -71.5 48t-24.5 68q0 43 66 96q3 -4 13.5 -14t14.5 -14q-29 -18 -45 -33.5t-16 -29.5q0 -21 26 -37t75 -28q70 -17 117.5 -31t66.5 -24q98 -50 98 -151z" />
    <glyph glyph-name="u0993" unicode="&#x993;" horiz-adv-x="623" 
d="M572 232q0 -78 -46 -121t-124 -43q-234 0 -370 498l44 -16q24 -88 55 -152t54 -99q46 -70 100 -106.5t115 -36.5q25 0 48.5 7.5t41.5 21t28.5 33.5t10.5 44q0 31 -36 57q-23 -24 -53 -24q-29 0 -49.5 19.5t-20.5 48.5t19 51.5t48 22.5q24 0 47 -13q43 19 43 71
q0 68 -72 68q-25 0 -48.5 -5.5t-46.5 -16.5q-49 -25 -73 -66q36 -24 36 -53q0 -65 -58 -65q-79 0 -79 84q0 38 21.5 71.5t61.5 59.5q73 47 156 47q28 0 53.5 -8.5t45 -24.5t30.5 -38.5t11 -50.5q0 -96 -45 -147q52 -65 52 -118z" />
    <glyph glyph-name="u0994" unicode="&#x994;" horiz-adv-x="696" 
d="M423 68q-235 0 -373 498l38 -19q33 -85 64 -149t54 -99q46 -70 100 -106.5t114 -36.5q132 7 133 104q0 31 -34 62q-25 -28 -56 -28q-69 0 -69 67q0 72 71 72q19 0 44 -11q45 23 45 75q0 61 -69 61q-125 0 -175 -88q36 -23 36 -64q0 -53 -59 -53q-80 0 -80 88
q0 39 20.5 72.5t60.5 58.5q69 42 155 42q56 0 98 -35q43 -38 43 -91q0 -22 -12 -52q-5 -14 -11 -23.5t-15 -14.5v-2q38 6 66 63q11 23 17 46.5t6 44.5q0 65 -102 96l-187 50q-48 19 -73.5 48.5t-25.5 68.5q0 68 74 107l31 -35q-48 -16 -48 -49q0 -25 25 -44.5t73 -34.5
q75 -26 120.5 -42.5t59.5 -23.5q45 -27 70 -66.5t25 -90.5q0 -79 -117 -194q40 -62 40 -121q0 -71 -55 -113q-50 -38 -122 -38z" />
    <glyph glyph-name="u0995" unicode="&#x995;" horiz-adv-x="682" 
d="M401 588v-41q98 0 158 -80q57 -72 57 -158q0 -21 -7 -40t-19 -33.5t-29 -23t-37 -8.5q-14 0 -27 5.5t-23.5 14.5t-17 21.5t-6.5 27.5q0 27 19 45t47 18q17 0 30.5 -8t24.5 -22l5 13q0 58 -46 104q-45 49 -130 48v-467q-6 1 -12 4.5t-8 8.5q-20 49 -47.5 91.5t-60.5 75.5
q-76 76 -170 87l-79 98q143 113 325 172v47h-364l-57 56h708l58 -56h-292zM345 464q-51 -19 -102 -47.5t-108 -68.5q140 -59 208 -187h2v303z" />
    <glyph glyph-name="u0996" unicode="&#x996;" horiz-adv-x="551" 
d="M564 588h-87v-582q-11 10 -20 23.5t-14 26.5q-8 20 -14.5 36t-9.5 21q-20 35 -48 62t-65 49h1q-67 40 -148 48l-95 116q11 -2 22.5 -3.5t23.5 -1.5q28 0 59.5 7.5t63.5 21.5q39 17 60.5 37.5t21.5 43.5q0 36 -29 61q-92 -92 -184 -92q-34 0 -59 22t-25 55q0 24 17.5 43
t42.5 19q51 0 54 -52q17 3 34.5 12.5t35.5 23.5q2 1 18.5 17.5t35.5 34.5q32 -27 52 -45t25 -23q40 -43 40 -89q0 -49 -39 -94q-39 -43 -90 -57q122 -61 177 -158h2v577l31 -20q0 -17 2 -34t4 -23q11 -24 47 -27z" />
    <glyph glyph-name="u0997" unicode="&#x997;" horiz-adv-x="553" 
d="M572 588h-102v-600l-63 77q1 150 3 225q1 44 1 75q0 33 -13 67.5t-36 66.5q-54 71 -118 71q-97 0 -134 -89q42 18 73 18q24 0 44.5 -6.5t35.5 -17.5q16 -14 25 -32.5t9 -42.5q0 -32 -30.5 -80.5t-84.5 -107.5l-65 74q13 9 31 26.5t38 40.5q24 26 37.5 45t13.5 28
q0 27 -33 27q-12 0 -54 -25q-20 -11 -35 -17.5t-24 -6.5q-22 0 -44 28q-19 25 -19 52q0 69 64 114q29 20 61.5 29.5t68.5 9.5q89 0 139 -58q34 -40 73 -149l-9 162q-2 49 -3.5 88t-1.5 71l32 -32q-2 -8 -2 -16q-2 -61 50 -60q6 0 16 1z" />
    <glyph glyph-name="u0998" unicode="&#x998;" horiz-adv-x="538" 
d="M548 588h-91v-587l-27 25v-1q-44 110 -113 161.5t-161 46.5l-74 78q37 40 117 114q-20 -8 -44 -8q-44 0 -80 30q-18 16 -27 35.5t-9 40.5q0 31 19 65h-61l-55 56h551zM400 152v436h-205q-12 0 -23.5 -7t-20.5 -17.5t-14 -23.5t-5 -26q0 -26 19 -43t45 -17q57 0 90 45
l59 -59q-33 -20 -69.5 -54t-71.5 -78q132 -52 196 -156v0z" />
    <glyph glyph-name="u0999" unicode="&#x999;" horiz-adv-x="538" 
d="M333 20q-78 0 -138 44t-102 125q-24 54 -45 133.5t-34 176.5l28 -22q42 -184 112 -275t167 -91q56 0 99 29q45 33 45 89q0 33 -35 71q-18 -27 -66 -61q-24 -18 -43 -26.5t-31 -8.5q-22 0 -50 20q-56 45 -56 121l4 96q-112 85 -158 152l84 23l32 -62q19 -34 44 -57
q45 115 143 115q105 0 105 -96q0 -51 -42 -78q-36 -23 -90 -23q-46 0 -68 15v-106q0 -41 37 -41q28 0 68 40q15 16 27.5 33.5t20.5 34.5q54 -21 87 -75t33 -113q0 -41 -12.5 -75t-35.5 -58t-56 -37t-74 -13zM367 556q-19 0 -38 -6.5t-35 -18t-28 -27.5t-18 -34q7 -9 27 -9
q17 0 36.5 5t36.5 13q47 21 47 53q0 24 -28 24z" />
    <glyph glyph-name="u099A" unicode="&#x99a;" horiz-adv-x="468" 
d="M481 588h-345q-6 -83 142 -128q145 -46 141 -114q0 -83 -78 -183q-81 -106 -164 -106q-30 0 -63 36q-31 38 -31 71v424h-86l-55 56h482zM329 350q-133 42 -191 142v-327q0 -33 25 -33q47 0 108 73q62 73 62 120q0 23 -4 25z" />
    <glyph glyph-name="u099B" unicode="&#x99b;" horiz-adv-x="526" 
d="M561 -84q-88 91 -195 141.5t-232 63.5l-55 104q23 -8 43 -11.5t39 -3.5q48 0 89.5 10t78.5 28q95 47 95 135q-5 66 -94 57q9 -66 -62 -123q-29 -21 -58.5 -34t-54.5 -13q-16 0 -31.5 5.5t-27.5 15.5t-19.5 23.5t-7.5 28.5v245h-75l-55 56h536l54 -56h-408q40 -88 135 -88
q19 0 37.5 4t37.5 4q75 -3 114 -53q35 -48 35 -111q0 -66 -61 -117q-19 -17 -48 -35.5t-71 -39.5q49 -26 84 -46.5t55 -36.5q23 -18 52.5 -46.5t62.5 -66.5zM254 439q-81 18 -130 85v-170q0 -33 20 -33q18 0 37.5 11.5t36.5 28.5q17 19 27.5 39t8.5 39z" />
    <glyph glyph-name="u099C" unicode="&#x99c;" horiz-adv-x="686" 
d="M700 588h-320q-14 -1 -28.5 -12.5t-16.5 -23.5q0 -14 11.5 -24t27.5 -17.5t32.5 -11.5t25.5 -4q46 -4 82 3.5t60 20.5l85 -89q-46 -45 -70 -111t-24 -152q0 -65 43 -160l-55 15q-20 57 -32 113t-13 119q0 82 36 171q-89 0 -144 22q-58 23 -110 90l-5 2q-14 0 -29 -14
t-31 -40q-33 -53 -33 -82q0 -41 44 -41q10 0 26 5t36 15l62 32q36 -16 64 -65q14 -26 22 -50t8 -44q0 -62 -47 -111q-46 -46 -110 -46q-145 0 -209 157q-23 57 -34.5 126.5t-11.5 156.5l29 -18q-3 -24 0 -59q10 -99 52 -165q30 -50 68.5 -77t85.5 -27q43 0 84 19
q54 24 54 62q0 15 -8.5 31.5t-24.5 16.5q-6 0 -45 -14q-35 -14 -60 -14q-56 0 -93 45q-38 44 -38 102q0 34 26 79q28 46 59 69h-246l-56 56h716z" />
    <glyph glyph-name="u099D" unicode="&#x99d;" horiz-adv-x="649" 
d="M663 588h-98v-505l-25 25v-1q-11 31 -22.5 57.5t-26.5 48.5t-35 39.5t-47 30.5v-268l-24 24q-95 228 -279 243l-75 97q72 52 154.5 98.5t170.5 78.5v32h-361l-54 56h468v-296q50 -32 98 -102v503l25 -21q-2 -20 2 -38t17 -34q26 -18 56 -12zM356 164v305
q-51 -17 -102 -45.5t-104 -66.5q136 -63 206 -193z" />
    <glyph glyph-name="u099E" unicode="&#x99e;" horiz-adv-x="930" 
d="M572 -2q-14 0 -27 37q-16 49 -32 71q-30 38 -83 38q-28 0 -86 -9q-29 -4 -50.5 -5.5t-36.5 -1.5q-205 0 -205 211q5 94 47 147l22 -22q-14 -23 -22 -54t-8 -68q0 -75 46 -104q17 -10 44 -16t62 -6h24t31 1l52 2q89 0 167 -67v424q0 17 -40 17q-26 0 -49.5 -15t-48.5 -44
q-21 -26 -35 -52t-19 -55q22 3 39 3q41 0 41 -64q0 -31 -22.5 -48.5t-54.5 -17.5q-42 0 -69.5 26t-27.5 69q0 45 19.5 88t56.5 84q38 38 80 60t86 22q27 0 64 -32q37 -31 37 -57v-137h2q14 51 64 103q55 55 104 55t85 -39q37 -39 37 -87q0 -58 -49 -110q56 -43 56 -119
q0 -20 -4 -41t-14 -39t-27.5 -30t-45.5 -15q-26 0 -55.5 12.5t-58.5 35.5q-55 46 -94 94v-246zM830 244q0 18 -35 53q-43 -25 -61 -25q-28 0 -49.5 18t-21.5 46q0 25 21 42t47 17l61 -15q27 43 27 63q0 26 -20.5 42.5t-46.5 16.5q-59 0 -116 -57q-59 -57 -59 -114
q0 -60 51 -105t112 -45q35 0 59 13q14 9 22.5 21t8.5 29z" />
    <glyph glyph-name="u099F" unicode="&#x99f;" horiz-adv-x="493" 
d="M132 588v-391q19 -38 54 -38q50 0 103 61q48 57 54 115l-19 -2q-27 0 -49.5 19t-22.5 48q0 31 19.5 53t51.5 22q48 0 79 -47q11 -18 17.5 -42.5t6.5 -49.5q0 -83 -69 -164q-70 -86 -152 -86q-53 0 -85 33t-42 93v376h-90l-51 56h425q0 8 0.5 17.5t0.5 17.5q1 50 -70 50
q-16 0 -52 -6q-17 -2 -29 -3t-21 -1q-64 0 -118 31q-59 33 -59 94q0 64 41 67q0 -4 1 -9t1 -10q-14 -12 -14 -30q0 -35 29 -51q27 -15 62 -15q12 0 29.5 1.5t40.5 3.5q45 6 69 6q75 0 113 -44q30 -39 30 -119h31l56 -56h-371z" />
    <glyph glyph-name="u09A0" unicode="&#x9a0;" horiz-adv-x="459" 
d="M468 588h-187q51 -54 86 -140q19 -43 27.5 -81.5t8.5 -73.5q0 -92 -50 -163q-58 -81 -144 -81q-81 0 -129 52q-50 52 -50 132q0 28 8 55q34 10 66.5 31.5t58.5 50.5q29 32 44.5 66t15.5 68q0 17 -3.5 37.5t-9.5 46.5h-217l-58 56h248l-65 114q-17 35 -26 64t-9 52
q0 69 60 120l65 -56q-41 -17 -59.5 -38.5t-18.5 -47.5q0 -46 42 -113q17 -28 35.5 -51.5t38.5 -43.5h163zM279 514q2 -12 3 -24t1 -24q0 -40 -12.5 -78t-34.5 -68q-25 -31 -90 -77q-47 -35 -47 -57q0 -88 86 -88q74 0 124 72q43 64 43 142q0 118 -71 204z" />
    <glyph glyph-name="u09A1" unicode="&#x9a1;" horiz-adv-x="600" 
d="M287 588v-227q28 -4 48.5 8.5t37.5 33t32.5 43t33.5 38.5q25 -14 44 -35t31.5 -46.5t19.5 -54t7 -56.5q0 -96 -53 -157q-55 -64 -151 -64q-250 0 -295 479l37 -18q6 -64 22 -125t41 -108q67 -129 188 -129q44 -1 83.5 20.5t63 54.5t24.5 73t-33 75q-8 -24 -24.5 -44
t-38 -35t-46 -25t-48.5 -13q-78 0 -78 120v192h-236l-56 56h610l54 -56h-318z" />
    <glyph glyph-name="u09A2" unicode="&#x9a2;" horiz-adv-x="477" 
d="M132 588v-391q19 -38 54 -38q50 0 103 61q48 57 54 115l-19 -2q-13 1 -26 6t-23 14t-16.5 21t-6.5 26q0 31 19.5 53t51.5 22q48 0 79 -47q11 -18 17.5 -42.5t6.5 -49.5q0 -83 -69 -164q-70 -86 -152 -86q-53 0 -85 33t-42 93v376h-83l-54 56h499l57 -56h-365z" />
    <glyph glyph-name="u09A3" unicode="&#x9a3;" horiz-adv-x="510" 
d="M426 588v-584l-62 63v318q0 70 -41 123q-45 58 -112 58q-45 0 -77 -35q-31 -32 -31 -80q0 -16 3.5 -31.5t8.5 -27.5q15 -37 45 -37q5 0 6.5 1t-1.5 6v-1q-2 7 -3.5 14t-1.5 16q3 44 54 46q27 0 46.5 -21t19.5 -47q0 -18 -8.5 -33t-22 -25.5t-31.5 -16t-36 -5.5
q-66 0 -111 48q-45 49 -45 114q0 41 13.5 75.5t36.5 62.5q51 57 131 57q59 0 106 -48q40 -42 57 -105h2v260l30 -26q0 -44 16.5 -64t50.5 -19l56 -56h-99z" />
    <glyph glyph-name="u09A4" unicode="&#x9a4;" horiz-adv-x="649" 
d="M663 588h-667l-59 56h667zM593 293q0 -41 -17.5 -77t-47.5 -65q-66 -57 -149 -57q-225 0 -351 457l32 -12q35 -83 64.5 -142.5t48.5 -86.5q87 -127 209 -127q59 0 116 46q48 47 48 105q0 47 -26 83q-31 43 -73 43q-14 0 -41 -7q23 -29 23 -66q0 -81 -89 -81q-44 0 -70 32
t-26 78q0 53 43 87q38 31 92 31q46 0 85 -19.5t70 -54.5q29 -35 44 -77.5t15 -89.5z" />
    <glyph glyph-name="u09A5" unicode="&#x9a5;" horiz-adv-x="554" 
d="M566 588h-98v-588q-51 69 -85 110t-50 56q-40 35 -94 53t-108 19l-90 118q23 -4 43 -3t57 13t75 35q43 26 64.5 53.5t21.5 59.5q0 30 -21.5 51t-51.5 21q-22 0 -56 -18q-34 -19 -44 -37q31 -34 31 -57q0 -12 -6 -23t-16 -19t-23 -12.5t-26 -4.5q-33 0 -53.5 22.5
t-20.5 55.5q0 67 66 111q60 40 128 40q62 0 104 -47q44 -46 44 -108q0 -105 -139 -190q40 -23 67.5 -40.5t42.5 -29.5q29 -24 50.5 -47t33.5 -47h2v613l28 -34l6 -36q2 -10 7 -18.5t14 -15.5h40z" />
    <glyph glyph-name="u09A6" unicode="&#x9a6;" horiz-adv-x="532" 
d="M121 588v-261q30 33 64.5 61.5t70.5 52t70 41t62 28.5l92 -70q-38 -74 -58 -142t-20 -131t22 -172l-39 19q-17 79 -25.5 140t-8.5 100q0 73 19 148q-75 -30 -136.5 -88.5t-97.5 -135.5l-76 79v331h-59l-57 56h552l56 -56h-431z" />
    <glyph glyph-name="u09A7" unicode="&#x9a7;" horiz-adv-x="519" 
d="M434 588v-602l-32 45v-1q-11 19 -22 39t-25 40q-45 66 -90 99q-29 20 -67 32t-84 17l-67 91l148 110q-53 0 -87 25q-17 14 -27 33t-10 43q0 40 27.5 66t67.5 26q68 0 70 -46q1 -23 -12 -36t-34 -13q-10 0 -20.5 4t-22.5 14q-10 -13 -10 -32q0 -27 24 -44t62 -17
q11 0 155 86v77h104l56 -56h-104zM378 464q-51 -19 -103.5 -52t-106.5 -81q137 -66 210 -186v319z" />
    <glyph glyph-name="u09A8" unicode="&#x9a8;" horiz-adv-x="529" 
d="M443 588v-602l-44 28l4 59q1 95 -44 198q-67 117 -156 117q-11 -1 -16 -5q37 -49 37 -71q0 -36 -21 -60.5t-56 -24.5q-108 0 -108 105q0 57 40 94q43 38 98 38q118 0 208 -186h2v310h-394l-55 56h545l58 -56h-98z" />
    <glyph glyph-name="u09AA" unicode="&#x9aa;" horiz-adv-x="612" 
d="M531 588v-584l-60 58l8 299q0 13 -6 28.5t-17 33.5q-11 17 -22 29t-21 20l-197 -198l-80 29q58 55 58 87q0 58 -34 58q-8 0 -17 -3t-23 -8q-25 -11 -40 -11q-17 0 -30.5 14t-13.5 31q0 30 21.5 60t60.5 56q36 23 72 35t68 12q123 0 229 -181l2 1q-3 73 -7 147t-7 148
l25 -21q5 -45 9 -58q12 -28 43 -28q8 0 18 2l56 -56h-95zM365 531q-39 43 -88 43q-93 0 -131 -76q45 0 65.5 -30t15.5 -75z" />
    <glyph glyph-name="u09AB" unicode="&#x9ab;" horiz-adv-x="669" 
d="M157 588q46 -34 86 -75t70 -83l-142 -118q133 -44 204 -165v394q4 1 12.5 1.5t17.5 1.5t16.5 1.5t10.5 0.5q77 1 136 -47q64 -52 64 -143q0 -101 -98 -101q-25 0 -44.5 19.5t-19.5 45.5q0 25 18 41.5t42 16.5q34 0 56 -25l6 17q0 91 -139 91l-23 -2v-456l-34 38v-1
q-8 52 -95 142q-34 27 -80 41t-100 16l-65 95q28 30 69.5 67t92.5 79q-20 16 -41.5 28t-47.5 20q-32 11 -56.5 18t-33.5 12q-46 22 -102 86h687l55 -56h-522z" />
    <glyph glyph-name="u09AC" unicode="&#x9ac;" horiz-adv-x="512" 
d="M425 588v-588l-31 37q-3 9 -7.5 18.5t-17 33.5t-35.5 52.5t-43 47.5q-72 66 -191 78l-73 104q168 117 344 176v41h-383l-55 56h553l54 -56h-115zM371 456q-54 -20 -109.5 -48t-116.5 -69q151 -63 226 -192v309z" />
    <glyph glyph-name="u09AD" unicode="&#x9ad;" horiz-adv-x="615" 
d="M-3 588l-57 56h625l58 -56h-626zM577 335q0 -51 -14 -93.5t-43 -77.5q-62 -75 -161 -75q-138 0 -233 161q-23 38 -51 109.5t-61 171.5l34 -11q20 -66 49.5 -124.5t59.5 -100.5q44 -54 98 -83.5t115 -29.5q62 0 107 44q46 44 46 107q0 83 -26 83q-76 -92 -181 -92
q-52 0 -89 32q-41 32 -41 85q0 89 92 89q29 0 50.5 -19.5t21.5 -48.5q0 -25 -25 -59q38 -1 81 43q17 19 29.5 39t25.5 41q20 -2 41 -20.5t42 -53.5q33 -67 33 -117z" />
    <glyph glyph-name="u09AE" unicode="&#x9ae;" horiz-adv-x="540" 
d="M552 588h-101v-588l-22 22q-45 170 -156 206q-25 -32 -51 -43t-48 -11q-40 0 -67.5 26.5t-27.5 67.5q0 47 35 75q30 24 81 24q27 0 44 -11q0 71 -31 102q-20 19 -77 35q-30 9 -51.5 18.5t-35.5 18.5q-21 14 -52 56l-59 58h563zM398 184v404h-272q87 -71 120 -117
q53 -68 53 -146v-13t-1 -14q32 -27 56.5 -55t41.5 -59h2z" />
    <glyph glyph-name="u09AF" unicode="&#x9af;" horiz-adv-x="505" 
d="M428 588v-590l-37 43v-1q-12 33 -34.5 74t-57.5 71q-63 49 -181 55l-78 96q38 37 83 73.5t90 65.5q-25 19 -86 45q-28 11 -53 23.5t-47 26.5q-14 11 -35 29.5t-49 44.5h517l57 -56h-89zM373 588h-223v-1q57 -30 147 -133q-30 -29 -64.5 -63.5t-73.5 -76.5
q137 -46 214 -166v440z" />
    <glyph glyph-name="u09B0" unicode="&#x9b0;" horiz-adv-x="518" 
d="M425 588v-588l-31 37v-1q-16 40 -26.5 58.5t-33.5 47t-43 47.5q-72 66 -191 78h1l-74 104q168 117 344 176v41h-383l-55 56h551l56 -56h-115zM371 456q-54 -20 -109.5 -48t-116.5 -69q151 -63 226 -192v309zM134 108q0 25 17 41.5t41 16.5t41 -16.5t17 -41.5
q0 -23 -17 -40.5t-41 -17.5t-41 17.5t-17 40.5z" />
    <glyph glyph-name="u09B2" unicode="&#x9b2;" horiz-adv-x="588" 
d="M504 588v-591l-58 54v320q0 30 -21.5 52.5t-51.5 22.5q-48 0 -48 -58q0 -13 5 -35l-23 -9q-8 45 -45 74q-36 29 -84 29q-21 0 -40 -8.5t-33.5 -22.5t-23 -33.5t-8.5 -40.5q0 -68 81 -80q-18 27 -18 47q0 24 19.5 42.5t43.5 18.5q77 -5 77 -83q-1 -33 -24 -54t-67 -24
q-36 0 -66 11.5t-51.5 32.5t-33.5 50.5t-12 65.5q0 58 32 107q36 54 92 54q72 0 129 -74q0 26 23 48q23 23 46 23q70 0 104 -93v154h-458l-58 56h619l57 -56h-104z" />
    <glyph glyph-name="u09B6" unicode="&#x9b6;" horiz-adv-x="601" 
d="M518 588v-589l-58 57l4 359q0 35 -38 87q-38 50 -72 50q-22 0 -42.5 -13.5t-20.5 -33.5q88 -63 88 -104q0 -36 -19.5 -58.5t-55.5 -30.5q-28 1 -51.5 18.5t-34.5 50.5q-26 -70 -92 -70q-30 0 -49.5 24.5t-19.5 55.5q0 20 7.5 39.5t21 36.5t31.5 30t38 20q-40 71 -94 71.5
t-64 -0.5l-56 56h120q44 0 83 -33t48 -80q51 114 141 114q31 0 81 -59q46 -55 57 -90h3l-10 248l34 -32q9 -63 58 -68l56 -56h-94z" />
    <glyph glyph-name="u09B7" unicode="&#x9b7;" horiz-adv-x="515" 
d="M433 588v-584q-20 22 -36.5 42.5t-30.5 42.5q-31 47 -54 76.5t-40 40.5q-24 17 -62 26.5t-86 11.5q-18 24 -38.5 49.5t-38.5 49.5l165 140q-33 31 -87 40q-14 2 -32.5 6.5t-38.5 12.5q-17 7 -43.5 32.5t-64.5 69.5h517l57 -56h-87zM378 588h-230q135 -96 230 -188v188z
M377 343q-29 27 -52 47t-43 34q-21 -14 -49.5 -40t-64.5 -67q119 -44 209 -171v197z" />
    <glyph glyph-name="u09B8" unicode="&#x9b8;" horiz-adv-x="591" 
d="M500 588v-590q-14 16 -27.5 31.5t-26.5 31.5q1 30 2 50.5t1.5 34t0.5 22.5v17q0 67 -13 117t-34.5 74t-50.5 18.5t-60 -49.5q-28 -47 -48.5 -74.5t-35.5 -41.5t-25.5 -17.5t-19.5 -3.5q-26 0 -46.5 12.5t-36.5 31t-28 40t-22 40.5l37 34q3 -10 7.5 -23t11.5 -24.5
t16.5 -19.5t21.5 -8q5 0 12 4t18.5 16.5t30 35t46.5 59.5q-5 40 -13.5 62.5t-24 35t-39 19t-58.5 14.5q-20 5 -40.5 15.5t-42.5 27.5q-8 6 -25 22t-43 42h604l54 -56h-103zM446 588h-264q45 -40 62.5 -74t18.5 -77q28 31 51.5 40.5t44.5 1.5t42 -30t45 -53v192z" />
    <glyph glyph-name="u09B9" unicode="&#x9b9;" horiz-adv-x="504" 
d="M544 588h-296q8 -11 16 -21.5t15 -19.5q86 -30 114 -64q45 -44 45 -116q0 -66 -55 -111q-40 -34 -125 -57q57 -34 121.5 -89t139.5 -131v1l13 -59q-40 45 -88 84.5t-108 74.5q-57 32 -118 56t-122 39l-67 140q69 -38 157 -46q65 -5 115 21q69 34 66 91q0 18 -5.5 35
t-16 30t-24.5 21t-25 8.5t-19.5 -1t-16.5 -5.5q0 -40 -34 -73q-35 -33 -74 -33q-25 0 -46 15.5t-21 40.5q0 47 40 84q39 36 91 40q0 16 -38 45h-200l-56 56h566z" />
    <glyph glyph-name="u09BC" unicode="&#x9bc;" horiz-adv-x="0" 
d="M54 -56q23 0 39.5 -16t16.5 -39t-16.5 -39t-39.5 -16t-39 16t-16 39t16 39t39 16z" />
    <glyph glyph-name="u09BD" unicode="&#x9bd;" horiz-adv-x="523" 
d="M281 547q66 -13 112 -64q45 -44 45 -116q0 -66 -48 -106t-132 -62q57 -34 121.5 -89t139.5 -131l13 -58q-40 45 -88 84.5t-108 74.5q-57 32 -118 56t-122 39l-67 140q71 -39 157 -46q65 -5 115 21q69 34 66 91q0 18 -5.5 35t-16 30t-24.5 21t-30.5 7.5t-30.5 -5.5
q0 -40 -34 -73q-35 -33 -74 -33q-25 0 -46 15.5t-21 40.5q0 49 39 82q19 16 42.5 27.5t47.5 16.5q13 2 33 3t34 -1z" />
    <glyph glyph-name="u09BE" unicode="&#x9be;" horiz-adv-x="207" 
d="M122 588v-585l-54 56v415q0 26 -10 47t-27.5 35.5t-40 23t-46.5 8.5l-56 56h64q51 0 79 -22.5t45 -74.5q0 17 -1 42t-4 59q-2 33 -3 57.5t-1 41.5l20 -17q10 -60 35 -86h50l55 -56h-105z" />
    <glyph glyph-name="u09BF" unicode="&#x9bf;" horiz-adv-x="207" 
d="M586 712q-27 24 -60 47.5t-75 46.5q-38 22 -78.5 32t-83.5 10q-63 0 -129 -44q-73 -48 -77 -107l22 -53h61l57 -56h-98v-585l-57 56v529h-85l-55 56h149l-39 37q-22 22 -22 45q0 68 76 128q74 56 143 56q178 0 340 -168z" />
    <glyph glyph-name="u09C0" unicode="&#x9c0;" horiz-adv-x="208" 
d="M126 588v-585l-55 56v529h-82l-61 56h143q-41 237 -321 237q-23 0 -46 -2.5t-46 -8.5q-68 -15 -68 -46q0 -25 86 -30q115 -6 153 -17q45 -14 67 -39t22 -66q0 -4 -4 -34h-56q24 17 24 40q0 32 -85 41q-65 8 -103.5 13t-49.5 7q-38 12 -60 34t-22 53q0 27 21 48.5t59 38.5
q30 11 64 18.5t66 7.5q273 0 354 -295h54l55 -56h-109z" />
    <glyph glyph-name="u09C1" unicode="&#x9c1;" horiz-adv-x="0" 
d="M100 -268q-15 20 -33 40.5t-37.5 39t-39 34t-36.5 25.5q-44 -62 -114 -67q-43 0 -76 23q-32 24 -32 63q0 20 8.5 36.5t22.5 28.5t32.5 18.5t38.5 6.5q32 0 82 -30q7 15 5.5 45.5t-8.5 67.5l47 -31q11 -24 12.5 -56t-0.5 -56q22 -19 45.5 -42.5t43.5 -46.5
q17 -20 24.5 -31.5t14.5 -23.5v-44zM-154 -73q-56 -1 -58 -34q0 -26 28 -31q24 -3 50 9q23 15 31 31q-10 11 -22.5 16.5t-28.5 8.5z" />
    <glyph glyph-name="u09C2" unicode="&#x9c2;" horiz-adv-x="0" 
d="M160 -290l-160 136q-54 -36 -111 -35q-42 0 -73 31q-32 31 -32 72q0 23 8.5 41.5t26.5 32.5q32 26 78 26q18 0 34 -4l3 68q11 -11 20.5 -24.5t16.5 -24.5q2 -11 -6 -68q-17 6 -32 6q-20 0 -30.5 -0.5t-26.5 -6.5q-35 -20 -32 -52q1 -11 11 -21t34 -11q18 -3 45.5 3.5
t59.5 32.5l167 -144z" />
    <glyph glyph-name="u09C3" unicode="&#x9c3;" horiz-adv-x="0" 
d="M69 -312l-335 201l168 123l19 55l51 -91l-125 -99l203 -131z" />
    <glyph glyph-name="u09C4" unicode="&#x9c4;" horiz-adv-x="0" 
d="M54 -402q-24 27 -294 158l106 62q-25 13 -53.5 26.5t-60.5 28.5l167 99l19 45q11 -18 23.5 -36t23.5 -36l-127 -71l157 -91q11 -14 19.5 -30.5t10.5 -33.5q-21 19 -122 70l-58 -32l157 -92q11 -14 20 -32t12 -35z" />
    <glyph glyph-name="u09C7" unicode="&#x9c7;" horiz-adv-x="326" 
d="M353 588q-63 -15 -109 -47t-78 -80q-29 -45 -44 -100t-15 -123q1 -60 32 -108q54 -75 105 -60q-19 12 -27.5 28t-8.5 33q0 26 21.5 44t47.5 18q28 0 48 -22.5t20 -57.5q0 -20 -8 -37t-22 -29.5t-32.5 -19.5t-38.5 -7q-98 0 -150 98q-44 80 -44 185q0 146 119 285h-186
l-56 56h371z" />
    <glyph glyph-name="u09C8" unicode="&#x9c8;" horiz-adv-x="324" 
d="M356 588q-63 -15 -110 -47t-79 -80q-60 -90 -60 -223q0 -58 32 -108q36 -65 89 -65h4q8 0 12 5q-19 12 -27.5 28t-8.5 33q0 26 21.5 44t47.5 18q28 0 48 -22.5t20 -57.5q0 -20 -8 -37t-22 -29.5t-32.5 -19.5t-38.5 -7q-98 0 -150 98q-44 80 -44 185q0 146 119 285h-186
l-56 56h275l16 23q0 20 -14 34t-39 22q-26 8 -52.5 14.5t-51.5 14.5q-26 13 -40.5 36t-14.5 56q0 12 6 25t17 28l19 -19l-13 -23q0 -47 64 -53q94 -8 116 -20q29 -17 45 -51.5t16 -86.5h56l55 -56h-31z" />
    <glyph glyph-name="u09CB" unicode="&#x9cb;" horiz-adv-x="648" 
d="M561 588v-605q-13 14 -27 29t-27 29v433q0 56 -56 87q-45 27 -103 27q-47 0 -105 -45q-53 -41 -80 -83q-56 -91 -56 -222q0 -28 8.5 -57t23.5 -56q37 -67 89 -67q1 1 4 2q2 1 5 1.5t7 2.5q-36 30 -36 63q0 25 21.5 43t47.5 18q28 0 48 -23.5t20 -51.5q0 -20 -8 -37
t-22 -29.5t-32.5 -19.5t-38.5 -7q-98 0 -150 98q-44 80 -44 185q0 146 119 285h-176l-56 56h436q71 0 106 -42q13 -14 24 -40t25 -65q-23 97 -23 248l21 -16q8 -59 35 -85h40l54 -56h-94z" />
    <glyph glyph-name="u09CC" unicode="&#x9cc;" horiz-adv-x="633" 
d="M529 588v-603l-62 61v542h-121q-45 0 -103 -45q-53 -41 -80 -83q-56 -91 -56 -222q0 -28 8.5 -57t23.5 -56q37 -67 89 -67q1 1 4 2q2 1 5 1.5t7 2.5q-36 30 -36 63q0 25 21.5 43t47.5 18q28 0 48 -23.5t20 -51.5q0 -20 -8 -37t-22 -29.5t-32.5 -19.5t-38.5 -7
q-98 0 -150 98q-44 80 -44 185q0 146 119 285h-176l-56 56h530l15 38q0 56 -106 56q-22 0 -53 -3l-37 -2q-86 0 -142 25q-77 32 -77 104q0 15 8.5 34t24.5 42l22 -19q-20 -16 -20 -41q0 -72 125 -72q12 0 28.5 1t39.5 4q23 2 40 3.5t28 1.5q174 0 174 -130q0 -11 -2 -21
t-4 -21h55l56 -56h-113z" />
    <glyph glyph-name="u09CD" unicode="&#x9cd;" horiz-adv-x="0" 
d="M-28 -222l-177 140v75l178 -168z" />
    <glyph glyph-name="u09D7" unicode="&#x9d7;" horiz-adv-x="243" 
d="M151 588v-601l-60 61v540h-94l-56 56h150q13 20 14 38q0 56 -106 56q-23 0 -45 -2.5t-45 -2.5q-84 -1 -141 25q-78 33 -78 104q0 15 8 34t25 42l22 -19q-20 -16 -20 -41q0 -72 125 -72q12 0 29 1t40 4t40 4t28 1q173 0 173 -130q0 -11 -1.5 -21t-4.5 -21h49l56 -56h-108z
" />
    <glyph glyph-name="u09DC" unicode="&#x9dc;" horiz-adv-x="597" 
d="M268 -61q0 28 19.5 47.5t47.5 19.5t47.5 -19.5t19.5 -47.5q0 -29 -19.5 -48t-47.5 -19t-47.5 19t-19.5 48zM287 588v-227q28 -4 48.5 8.5t37.5 33t32.5 43t33.5 38.5q25 -14 44 -35t31.5 -46.5t19.5 -54t7 -56.5q0 -96 -53 -157q-55 -64 -151 -64q-250 0 -295 479l37 -18
q6 -64 22 -125t41 -108q67 -129 188 -129q44 -1 83.5 20.5t63 54.5t24.5 73t-33 75q-8 -24 -24.5 -44t-38 -35t-46 -25t-48.5 -13q-78 0 -78 120v192h-236l-56 56h610l54 -56h-318z" />
    <glyph glyph-name="u09DD" unicode="&#x9dd;" horiz-adv-x="478" 
d="M148 588v-377q0 -38 28 -38q47 0 100 64q23 28 37.5 56.5t16.5 54.5q-17 -6 -33 -3.5t-28.5 11t-20.5 22.5t-8 30q-1 34 18.5 56.5t51.5 22.5q22 0 41.5 -10.5t33 -27.5t21.5 -38t8 -41q0 -92 -63 -177q-65 -92 -155 -92q-107 0 -107 159v328h-94l-54 56h489l56 -56h-338
zM143 -36q0 28 19.5 47.5t47.5 19.5q29 0 48 -19.5t19 -47.5q0 -27 -19 -47t-48 -20q-28 0 -47.5 20t-19.5 47z" />
    <glyph glyph-name="u09DF" unicode="&#x9df;" horiz-adv-x="514" 
d="M429 588v-595q-23 17 -62 86q-42 73 -81 107q-64 50 -166 55l-75 97q45 43 88.5 82t80.5 66q-10 11 -39 25t-77 32q-113 33 -155 101h519l58 -56h-91zM374 588h-215q26 -16 62 -51t78 -86q-34 -32 -68 -66.5t-69 -72.5q138 -48 210 -170h2v446zM140 92q0 24 17 41t40 17
q24 0 41 -17t17 -41q0 -23 -17 -40t-41 -17q-23 0 -40 17t-17 40z" />
    <glyph glyph-name="u09E0" unicode="&#x9e0;" horiz-adv-x="690" 
d="M586 588v-464l-16 19q-13 117 -133 180v-275l-25 39l-127 -93q54 -38 83.5 -58t62 -48t38.5 -91q-17 24 -50.5 51t-82.5 59l-155 91l191 150q-42 58 -99.5 97t-130.5 62h1q-15 20 -30 42.5t-30 43.5q43 32 109 71t154 84q-33 46 -78 49q-17 -34 -67 -55q-47 -21 -88 -21
q-36 0 -65 21q-30 25 -30 60q0 63 62 63q47 0 47 -57q38 4 70 26t53 54q38 -22 72 -54t57 -72h2v195l56 -55v-310q63 -38 92 -90h2v450l54 -54v-54h59l56 -56h-114zM382 475q-49 -25 -92 -51.5t-81 -54.5q98 -53 173 -156v262z" />
    <glyph glyph-name="u09E1" unicode="&#x9e1;" horiz-adv-x="600" 
d="M468 -32q11 -10 23.5 -21.5t23.5 -25.5t19 -31.5t10 -39.5q3 -36 -16 -63t-49.5 -44.5t-66 -26t-63.5 -9.5q-5 0 -7.5 4t-0.5 9q5 14 5.5 14t2.5 3v-1l4 6l7 11q11 18 22 38.5t11 40.5q0 12 -15 29q-5 4 -15 8t-21 4t-22 -5t-16 -16q-3 -6 0 -8t8 -4h-2h5q12 -4 24 -10
t12 -25q0 -7 -1.5 -14.5t-6.5 -18.5q-9 -11 -20 -17t-22 -6q-23 0 -39 18q-15 13 -19 34.5t-3 34.5q1 12 7.5 26.5t18 27.5t26.5 23t33 13q23 1 44 -4.5t36.5 -18t25 -30.5t9.5 -41t-7 -44q12 8 23 18.5t21 20.5q6 6 9.5 12.5t3.5 16.5q0 13 -13.5 31.5t-36.5 33.5l-53 37
q-17 12 -34.5 25t-31.5 27t-23 29t-9 32q0 27 37 49q5 1 10.5 1h12.5q14 0 26.5 -5.5t12.5 -20.5q0 -11 -17 -31q-7 -7 8.5 -22t37.5 -32l11 -10l29 -23zM434 431q18 -15 38.5 -33.5t38.5 -41.5t31 -51t16 -62q4 -39 -9 -70.5t-38 -56t-58.5 -43t-69.5 -31t-72.5 -18.5
t-66.5 -6q8 15 22 35q11 18 22.5 37.5t21.5 40t16 40.5t6 40q0 34 -27 61q-11 10 -30.5 18t-42.5 8t-45.5 -10.5t-36.5 -36.5q-12 -21 -0.5 -29t31.5 -13q9 -2 18 -5t16.5 -7.5t12.5 -11.5t5 -19q0 -16 -13 -45q-12 -16 -27.5 -24t-31.5 -8q-33 0 -54 24q-11 10 -17.5 24.5
t-10 29.5t-4 28t0.5 21q0 18 9.5 41t27 44t41 36.5t51.5 19.5q36 1 68 -8t56.5 -28t38.5 -46.5t14 -61.5q0 -25 -7 -52.5t-23 -58.5q12 4 27 13t30.5 20.5t30 24t25.5 23.5q16 16 25 33t9 36q0 28 -24.5 61.5t-66.5 61.5l-89 65q-29 20 -57.5 40.5t-51 43t-36.5 46t-14 49.5
q0 38 53 64q7 3 14 4t15 1q18 0 34.5 -6.5t16.5 -22.5q0 -18 -24 -42q-12 -11 -7.5 -24.5t19.5 -30.5t38 -36.5t50 -41.5l47 -38z" />
    <glyph glyph-name="u09E2" unicode="&#x9e2;" horiz-adv-x="349" 
d="M300 -133q11 -10 23.5 -21.5t23.5 -25.5t19 -31.5t10 -39.5q3 -36 -16 -63t-49.5 -44.5t-66 -26t-63.5 -9.5q-5 0 -7.5 4t-0.5 9q5 14 5.5 14t2.5 3v-1l4 6l7 11q11 18 22 38.5t11 40.5q0 12 -15 29q-5 4 -15 8t-21 4t-22 -5t-16 -16q-3 -6 0 -8t8 -4h-2h5q12 -4 24 -10
t12 -25q0 -7 -1.5 -14.5t-6.5 -18.5q-9 -11 -20 -17t-22 -6q-23 0 -39 18q-15 13 -19 34.5t-3 34.5q1 12 7.5 26.5t18 27.5t26.5 23t33 13q23 1 44 -4.5t36.5 -18t25 -30.5t9.5 -41t-7 -44q12 8 21.5 13t19.5 15q6 6 11 18t5 22q0 13 -13.5 31.5t-36.5 33.5l-53 37
q-17 12 -34.5 25t-31.5 27t-23 29t-9 32q0 27 37 49q5 1 10.5 1h12.5q14 0 26.5 -5.5t12.5 -20.5q0 -11 -17 -31q-7 -7 8.5 -22t37.5 -32l11 -10l29 -23z" />
    <glyph glyph-name="u09E3" unicode="&#x9e3;" horiz-adv-x="324" 
d="M229 5q9 -8 18.5 -17t18.5 -20.5t15 -25.5t8 -31q3 -33 -18 -57l12 -9l9 -8l23 -19l9 -7q9 -8 18.5 -17t18.5 -20.5t15 -25.5t8 -31q3 -29 -12.5 -50.5t-39.5 -35.5t-52.5 -21t-51.5 -8q-3 0 -5.5 3t-0.5 8q4 11 4.5 11t1.5 2l4 4l5 9q8 14 17.5 30.5t9.5 32.5
q0 10 -12 24q-5 3 -12.5 6t-16.5 3t-17.5 -4t-13.5 -13q-4 -7 6 -9h3q10 -3 19.5 -8t9.5 -20q0 -5 -1 -11.5t-5 -15.5q-15 -18 -34 -18q-17 0 -31 14q-12 11 -15.5 28t-2.5 28q1 9 6.5 20.5t14.5 22t21 19t26 10.5q38 2 65 -18.5t27 -57.5q0 -8 -1 -17t-4 -18q9 7 18 15
t17 16q5 5 7.5 10.5t2.5 13.5q0 10 -10.5 25t-29.5 27l-42 29l-14 10t-13 10q-24 -13 -50.5 -19.5t-48.5 -7.5q-3 0 -5.5 3t-0.5 8q4 11 4.5 11t1.5 2l4 4l5 9q8 14 17.5 30.5t9.5 32.5q0 10 -12 24q-5 3 -12.5 6t-16.5 3t-17.5 -4t-13.5 -13q-4 -7 6 -9h1h2q10 -3 19.5 -8
t9.5 -20q0 -5 -1 -11.5t-5 -15.5q-15 -18 -34 -18q-17 0 -31 14q-12 11 -15.5 28t-2.5 28q1 9 6.5 20.5t14.5 22t21 19t26 10.5q38 2 65 -18.5t27 -57.5q0 -8 -1 -17t-4 -18q9 7 18 15t17 16q5 5 7.5 10.5t2.5 13.5q0 10 -10.5 25t-29.5 27l-42 29l-28 20t-25.5 21.5
t-18.5 23.5t-7 26q0 22 30 39q5 1 18 1q11 0 21.5 -4.5t10.5 -16.5q0 -9 -14 -25q-5 -5 7.5 -17t29.5 -26l9 -8l23 -19z" />
    <glyph glyph-name="u09E6" unicode="&#x9e6;" horiz-adv-x="561" 
d="M500 292q0 -92 -67 -156q-68 -63 -161 -63q-98 0 -163 67q-66 69 -62 170q11 91 70 149q67 58 159 58q95 0 159 -64q65 -65 65 -161zM425 338q0 51 -29.5 82t-80.5 31q-76 -2 -133 -64q-58 -63 -60 -141q0 -22 8.5 -41.5t22.5 -34t33 -23t41 -8.5q76 2 136 61t62 138z
" />
    <glyph glyph-name="u09E7" unicode="&#x9e7;" horiz-adv-x="441" 
d="M384 219q0 -88 -72 -155q-73 -67 -159 -67q-40 0 -70 23q-37 26 -37 61q0 45 38 75q40 32 85 32q79 0 116 -42q20 20 28.5 41t8.5 43q0 50 -70 121q-31 29 -65 60.5t-66 59.5q-29 26 -50 59.5t-21 52.5q0 30 20 52t50 22q55 0 55 -77v-14.5t-1 -16.5q48 -47 82.5 -83.5
t54.5 -64.5q73 -98 73 -182z" />
    <glyph glyph-name="u09E8" unicode="&#x9e8;" horiz-adv-x="530" 
d="M548 -88q-45 47 -97 87.5t-110 75.5q-60 37 -124 62.5t-124 37.5l-54 183q21 -35 103 -67q40 -16 74 -25t60 -9q40 0 77 20q44 24 44 60q0 55 -73 101q-32 18 -65.5 35.5t-66.5 34.5q-70 38 -70 73q0 26 17.5 46t43.5 20q58 0 62 -61q90 -45 134 -86q65 -62 65 -139
q0 -135 -159 -184q51 -29 114 -79t137 -119z" />
    <glyph glyph-name="u09E9" unicode="&#x9e9;" horiz-adv-x="576" 
d="M546 302q0 -56 -16.5 -103t-46 -81.5t-70 -54t-88.5 -19.5q-56 0 -99.5 23t-76.5 61t-56 87.5t-39 102t-26 105t-16 96.5l47 -23q6 -51 22.5 -111t46.5 -112.5t74 -87.5t105 -35q37 0 70 10.5t58 30t40 48.5t17 66q5 153 -127 196q19 -36 18 -65q-1 -42 -31 -70t-72 -26
q-43 1 -72 38q-28 37 -27 82q6 133 155 130q84 -3 156 -102q57 -88 54 -186z" />
    <glyph glyph-name="u09EA" unicode="&#x9ea;" horiz-adv-x="501" 
d="M467 201q-2 -47 -21.5 -78.5t-51 -50t-72.5 -26.5t-85 -8q-32 0 -66 11.5t-62 32t-46 50t-18 65.5q0 51 40.5 91t92.5 51q-115 32 -115 141q0 41 16 74.5t44.5 57t68.5 36.5t87 13q66 0 114 -38q53 -44 53 -105q0 -43 -30.5 -82t-73.5 -59q125 -39 125 -176zM379 512
q0 22 -11 40.5t-28.5 32t-39 21.5t-43.5 8q-19 -1 -38.5 -6.5t-36 -16.5t-28 -27t-12.5 -38q0 -35 12.5 -57.5t31.5 -36t41.5 -20t43.5 -9.5q108 58 108 109zM385 184q0 26 -12.5 50t-31.5 43t-43.5 30t-48.5 11q-22 -6 -42 -18.5t-37.5 -28t-28 -37.5t-11.5 -45
q5 -24 16.5 -40.5t29 -27.5t38.5 -16.5t39 -5.5q46 -1 88.5 22.5t43.5 62.5z" />
    <glyph glyph-name="u09EB" unicode="&#x9eb;" horiz-adv-x="568" 
d="M562 419q-45 -12 -84 -30t-73 -46q-82 -68 -82 -147q0 -63 33.5 -103.5t104.5 -59.5q-23 -11 -50 -17t-56 -6q-63 0 -118.5 17.5t-97.5 49.5q-48 36 -74.5 86t-26.5 111q0 51 17.5 108.5t60.5 115.5q46 62 103.5 97.5t108.5 49.5l91 -35q-52 -17 -52 -65q0 -15 7.5 -27
t18.5 -20.5t24 -14t24 -8.5q14 -4 25 -5.5t24 -9.5zM401 426q-76 9 -101 109q-43 -19 -77.5 -47.5t-60.5 -67.5q-26 -41 -39.5 -82.5t-13.5 -87.5q0 -80 67 -135q39 -25 71.5 -39.5t76.5 -21.5q-70 63 -70 149q0 71 41 133q40 61 106 90z" />
    <glyph glyph-name="u09EC" unicode="&#x9ec;" horiz-adv-x="590" 
d="M553 267q0 -51 -12.5 -93.5t-38.5 -77.5q-57 -79 -154 -79q-142 0 -238 179q-77 144 -90 307l31 -15q27 -140 91 -239q83 -131 203 -131q73 0 117 44q46 44 46 114q0 21 -6.5 42.5t-20.5 43.5q-19 -45 -60 -69.5t-89 -24.5q-84 0 -117 93q-5 14 -11 56t-14 111
q-22 0 -37.5 17t-15.5 38q0 22 17 38t39 16q80 0 80 -125v-12t-1 -20t-2 -34.5t-2 -55.5q1 -59 41 -59q20 0 41 14.5t44 41.5q18 23 31.5 46t20.5 48q107 -80 107 -214z" />
    <glyph glyph-name="u09ED" unicode="&#x9ed;" horiz-adv-x="541" 
d="M488 58q0 -58 -56 -58q-77 0 -77 153q0 39 4 74t4 70h-173q-53 0 -94 45.5t-41 97.5q0 73 54 130q54 58 127 58q116 0 163 -105q36 -78 36 -226q0 -11 -0.5 -27t-1 -34t-1 -36.5t-0.5 -34.5v-55q26 0 41 -13t15 -39zM364 403q0 24 -6.5 48.5t-20.5 52.5q-34 65 -73 65
q-26 0 -50.5 -13t-44.5 -36q-43 -48 -43 -100q0 -40 58 -40h179z" />
    <glyph glyph-name="u09EE" unicode="&#x9ee;" horiz-adv-x="598" 
d="M579 438q0 -29 -13.5 -49t-35.5 -30q-18 -6 -101 -12q-31 -3 -31 -18q0 -13 9 -40q10 -24 10 -39q0 -77 -74 -151q-72 -72 -149 -72q-12 0 -29 11t-36 31q-18 21 -28 38t-10 29v383l-18 -1q-22 1 -35 19.5t-13 38.5q0 59 50 59q83 0 83 -150v-27.5t-2 -35.5l-3 -50
q38 65 114 65q15 0 30 -7t30 -18l50 -52q14 12 21 27.5t23 32.5q6 6 20 8t30 2q39 0 53 3q14 5 23.5 17t17.5 29l10 -5q4 -19 4 -36zM333 302q0 26 -29 43q-21 14 -51 14q-54 0 -101 -34v-197q0 -12 16 -34q31 0 60 19.5t55 55.5q23 33 36.5 67t13.5 66z" />
    <glyph glyph-name="u09EF" unicode="&#x9ef;" horiz-adv-x="550" 
d="M515 223q1 -45 -23.5 -80t-61.5 -59t-82 -37.5t-85 -14.5q2 18 7 35t10.5 34.5t9 35.5t4.5 36q-1 20 -6.5 42.5t-17.5 38.5t-30 26.5t-42 10.5q-19 -1 -31 -6t-26 -20.5t-18 -35t-6 -40.5q1 -10 3.5 -20t11.5 -14q11 5 30.5 4.5t37.5 -14.5t18 -46q-4 -31 -22.5 -46.5
t-48.5 -14.5q-28 0 -49.5 15t-32 35t-15.5 43t-5 43q-1 33 10 65t31.5 56.5t51 40t67.5 16.5q33 1 60.5 -12t48.5 -35.5t33.5 -51.5t13.5 -60q1 -18 -2.5 -36t-12.5 -35q19 10 37 21t32 24t23 30t9 38q-7 52 -39 83.5t-76.5 55t-92 42t-84.5 45.5q-47 31 -73.5 65.5
t-25.5 74.5q1 33 18 55t43 20t40 -19.5t13 -40.5q-1 -20 -23 -40q-1 -11 26 -28t75 -36q23 -11 47.5 -20.5t48 -21t44.5 -24t40 -29.5q33 -28 60.5 -76.5t26.5 -117.5z" />
    <glyph glyph-name="u09F0" unicode="&#x9f0;" horiz-adv-x="526" 
d="M425 588v-588l-31 37q-17 44 -43.5 83t-59.5 69q-72 66 -190 78l-74 104q168 117 344 176v41h-373l-55 56h533l54 -56h-105zM371 259q-43 40 -86 71.5t-75 49.5q-17 -11 -33 -20.5t-32 -20.5q151 -63 226 -192v112zM371 323v135q-29 -11 -56 -22.5t-50 -22.5z" />
    <glyph glyph-name="u09F1" unicode="&#x9f1;" horiz-adv-x="526" 
d="M319 7q-47 54 -94 84.5t-93 35.5l-11 64q58 -14 109 -50t89 -90v-44zM425 588v-588l-31 37q-37 76 -60 104.5t-43 47.5q-72 66 -191 78l-73 104q168 117 344 176v41h-373l-55 56h533l54 -56h-105zM371 456q-54 -20 -109.5 -48t-116.5 -69q151 -63 226 -192v309z" />
    <glyph glyph-name="u09F2" unicode="&#x9f2;" horiz-adv-x="470" 
d="M416 1q-3 75 -29.5 142t-74.5 123q-49 58 -112 91.5t-137 38.5l37 74q82 -5 148.5 -44.5t114.5 -115.5q41 -64 63 -142t25 -167h-35z" />
    <glyph glyph-name="u09F3" unicode="&#x9f3;" horiz-adv-x="532" 
d="M473 245q-6 -96 -69 -158q-61 -61 -134 -61q-87 0 -118 46q-14 20 -18 47t-4 65v209h-51l-40 53h95v112q0 39 -35 39q-8 0 -14.5 -3.5t-14.5 -6.5l-20 56q32 13 57 13q45 0 65.5 -30t20.5 -99v-81h55l43 -53h-98v-259q3 -50 58 -50q52 0 93 44t41 99q-14 -3 -25 -3
q-29 0 -46 17t-17 50q0 39 21 58.5t54 19.5q101 0 101 -124z" />
    <glyph glyph-name="u09F4" unicode="&#x9f4;" horiz-adv-x="478" 
d="M470 468q-54 -195 -155.5 -312t-244.5 -148q-7 21 -15 42t-15 41q69 20 129 56.5t109 86.5t85.5 113t57.5 136z" />
    <glyph glyph-name="u09F5" unicode="&#x9f5;" horiz-adv-x="598" 
d="M579 437q-12 -191 -115 -306q-50 -56 -119 -92.5t-149 -53.5l-23 73q35 11 53.5 34t18.5 56q0 14 -3.5 25.5t-8.5 21.5q-14 24 -41 24q-31 0 -52 -19t-23 -48l-52 -3q2 26 13.5 51t29.5 48q18 19 43 32t48 13q50 0 80 -30t30 -78q0 -26 -10 -51t-29 -51q105 38 175 126.5
t101 212.5z" />
    <glyph glyph-name="u09F6" unicode="&#x9f6;" horiz-adv-x="707" 
d="M685 503q-37 -17 -61.5 -61t-36.5 -108q-15 -79 -32 -140t-33 -87q-39 -54 -110 -83.5t-174 -29.5q-134 0 -134 78q0 19 12.5 33.5t32.5 23.5q21 9 42 16.5t42 15.5q47 19 47 53q0 12 -5 23t-13 20t-19 14.5t-23 5.5q-21 0 -42 -44q-20 -41 -39 -41q-43 0 -43 43
q0 42 59 73q25 11 51 18t49 7q41 0 70 -32q31 -33 31 -71q0 -47 -54 -81q-13 -10 -37 -21t-59 -25q-55 -23 -57 -40q11 -17 45 -17q97 0 165.5 27t106.5 77q19 30 39 87t34 132q13 72 33.5 119.5t46.5 71.5z" />
    <glyph glyph-name="u09F7" unicode="&#x9f7;" horiz-adv-x="282" 
d="M192 1v542h56v-542h-56z" />
    <glyph glyph-name="u09F8" unicode="&#x9f8;" horiz-adv-x="445" 
d="M418 68l-77 -46v244q0 117 -28 117q-21 0 -60 -54q-33 -47 -50.5 -72t-20.5 -30q-47 -55 -79 -55q-43 0 -43 84v330q18 14 36.5 28.5t36.5 28.5q0 -56 0.5 -109.5t0.5 -109.5l-3 -91l-2 -58h2q21 38 40 66t36 47q51 60 114 60q96 0 96 -177z" />
    <glyph glyph-name="u09F9" unicode="&#x9f9;" horiz-adv-x="333" 
d="M308 243q0 -51 -31.5 -83t-82.5 -32q-52 0 -82 32t-30 83t30 82.5t82 31.5q51 0 82.5 -31.5t31.5 -82.5zM257 243q0 64 -64 64t-64 -64q0 -67 64 -67t64 67z" />
    <glyph glyph-name="u09FA" unicode="&#x9fa;" horiz-adv-x="483" 
d="M231 646q-31 0 -46 20t-14.5 44.5t16 44.5t44.5 20q33 1 49.5 -19t16.5 -44.5t-16.5 -45t-49.5 -20.5zM462 668q-19 -39 -44 -75.5t-54 -65.5t-62 -47t-69 -20.5t-73.5 14t-75.5 57.5q-36 39 -55 94.5t-19 108.5q0 16 5 22t11.5 5t13 -8.5t9.5 -18.5q8 -26 16 -51.5
t21 -48.5q16 -29 40.5 -47t53 -26t59 -5t58.5 18q26 15 47.5 35.5t40 44t34.5 49t30 50.5q16 27 34 58t40 59.5t49 51t60 31.5q11 3 25.5 4.5t29 -1.5t27.5 -12t22 -27q7 -14 4.5 -28t-10.5 -25t-20 -19t-25 -9q10 17 10 38t-18 35q-14 10 -28 10.5t-27.5 -5.5t-25 -16.5
t-21.5 -20.5q-20 -22 -34.5 -47.5t-27.5 -52.5t-25 -55t-26 -54z" />
    <glyph glyph-name="afii61664" unicode="&#x200c;" horiz-adv-x="0" 
d="M1 865h62v-1147h-62v1147z" />
    <glyph glyph-name="afii301" unicode="&#x200d;" horiz-adv-x="0" 
d="M1 865h240v-61h-178v-1086h-62v1147z" />
    <glyph glyph-name="endash" unicode="&#x2013;" 
d="M439 266q-2 -11 -5.5 -23.5t-8.5 -20.5h-383l-12 12q2 11 6 22.5t9 21.5h383l11 -12v0z" />
    <glyph glyph-name="emdash" unicode="&#x2014;" horiz-adv-x="766" 
d="M736 266q-2 -11 -6 -23.5t-8 -20.5h-680l-12 12q2 11 6 22.5t9 21.5h680l11 -12v0z" />
    <glyph glyph-name="quoteleft" unicode="&#x2018;" horiz-adv-x="229" 
d="M187 513q-5 -6 -19 -14t-31 -15t-33 -11.5t-25 -3.5q-17 14 -25.5 31t-8.5 46q0 19 6.5 41t19.5 44t31 42t42 35l21 -17q-21 -22 -31 -51.5t-10 -49.5q0 -22 13 -38t42 -17l8 -22v0z" />
    <glyph glyph-name="quoteright" unicode="&#x2019;" horiz-adv-x="229" 
d="M184 633q0 -19 -6.5 -41.5t-19 -44.5t-31 -42t-41.5 -35l-22 17q21 22 31 51.5t10 49.5q0 22 -13 38t-41 18l-8 22q4 6 18 13.5t31.5 14.5t33.5 11.5t25 4.5q16 -15 24.5 -32t8.5 -45z" />
    <glyph glyph-name="quotedblleft" unicode="&#x201c;" horiz-adv-x="436" 
d="M393 513q-5 -6 -19 -14t-31 -15t-33 -11.5t-25 -3.5q-16 14 -25 31t-9 46q0 19 6.5 41t19.5 44t31 42t42 35l21 -17q-21 -22 -31 -51.5t-10 -49.5q0 -22 13 -38t42 -17zM187 513q-5 -6 -19 -14t-31 -15t-33 -11.5t-25 -3.5q-17 14 -25.5 31t-8.5 46q0 19 6.5 41t19.5 44
t31 42t42 35l21 -17q-21 -22 -31 -51.5t-10 -49.5q0 -22 13 -38t42 -17z" />
    <glyph glyph-name="quotedblright" unicode="&#x201d;" horiz-adv-x="436" 
d="M390 633q0 -19 -6.5 -41.5t-19 -44.5t-31 -42t-41.5 -35l-21 17q20 22 30.5 51.5t10.5 49.5q0 22 -13.5 38t-41.5 18l-8 22q4 6 18 13.5t31.5 14.5t33.5 11.5t25 4.5q16 -15 24.5 -32t8.5 -45zM184 633q0 -19 -6.5 -41.5t-19 -44.5t-31 -42t-41.5 -35l-22 17
q21 22 31 51.5t10 49.5q0 22 -13 38t-41 18l-8 22q4 6 18 13.5t31.5 14.5t33.5 11.5t25 4.5q16 -15 24.5 -32t8.5 -45z" />
    <glyph glyph-name="ellipsis" unicode="&#x2026;" horiz-adv-x="669" 
d="M180 60q0 -34 -19 -57t-48 -23q-26 0 -37.5 14.5t-11.5 40.5q0 33 20 56.5t48 23.5q48 0 48 -55zM400 60q0 -34 -19 -57t-48 -23q-26 0 -37.5 14.5t-11.5 40.5q0 33 20 56.5t48 23.5q48 0 48 -55zM620 60q0 -34 -19.5 -57t-48.5 -23q-49 0 -49 55q0 33 20 56.5t48 23.5
q49 0 49 -55z" />
    <glyph glyph-name="minus" unicode="&#x2212;" horiz-adv-x="410" 
d="M380 290q-2 -10 -6.5 -22.5t-8.5 -20.5h-323l-12 12q5 21 15 43h323l12 -12v0z" />
    <glyph glyph-name="uni25CC" unicode="&#x25cc;" horiz-adv-x="518" 
d="M404 390q-12 17 -24.5 29.5t-28.5 23.5l29 40q40 -26 66 -65zM297 467q-11 2 -20 3.5t-19 1.5t-19 -1.5t-19 -3.5q-2 13 -4 24.5t-4 24.5q24 7 46 7q11 0 23 -1.5t26 -5.5zM477 304q0 -10 -1.5 -22.5t-4.5 -25.5l-50 10q5 20 5 37t-5 39l50 10q6 -29 6 -48zM446 190
q-14 -21 -30.5 -37t-35.5 -28q-8 10 -15 20.5t-14 20.5q16 11 30 23.5t24 28.5zM167 444q-32 -21 -54 -54q-9 7 -20 13t-21 14q26 44 66 67zM46 256q-3 14 -4 25.5t-1 22.5q0 12 1 23.5t4 24.5l50 -10q-2 -9 -3 -19.5t-1 -19.5t1 -19t3 -18zM307 91q-12 -2 -25 -3.5
t-24 -1.5q-18 0 -46 5q2 13 4 25t4 25q10 -4 19 -4.5t19 -0.5q18 0 39 6zM138 125q-20 12 -37 29t-29 37q10 8 21 14t20 13q11 -15 24.5 -29t29.5 -24z" />
    <glyph glyph-name="u09AF_u09CD.pstf" horiz-adv-x="206" 
d="M206 588q-77 -3 -87 -108q-1 -76 15 -155q9 -51 14 -89t5 -64q0 -31 -14 -62.5t-39 -60.5q-23 -20 -51.5 -36t-57.5 -25l-32 24q28 10 54 24.5t43 35.5q24 30 24 93q0 20 -5.5 48.5t-16.5 65.5q-22 73 -22 114q-7 109 87 195h-163l-56 56h282l56 -56h-36z" />
    <glyph glyph-name="u09A4_u09CD" unicode="&#x9ce;" horiz-adv-x="466" 
d="M448 65q0 -21 -3 -42l-43 13q13 16 13 39q0 32 -27 60t-78 54q-49 24 -97.5 45t-95.5 49q-103 71 -103 178q0 79 55 134q56 56 136 56q31 0 58.5 -10t47.5 -28.5t32 -44t12 -56.5q0 -49 -28.5 -79t-76.5 -30q-116 1 -145 142q-37 -15 -40 -70q0 -75 100 -132
q47 -25 92.5 -47t92.5 -51q98 -72 98 -180zM307 529q-11 60 -111 50q-30 -4 -48 -15q0 -44 32 -76q30 -26 60 -22q29 4 49.5 21t17.5 42z" />
    <glyph glyph-name="u0995_u09CD_u0995" horiz-adv-x="651" 
d="M400 588v-44h13q70 -5 128 -58q59 -54 59 -124q0 -81 -63 -82q45 -49 43 -108q-9 -71 -74 -74q-24 0 -43.5 15.5t-19.5 38.5q0 19 16.5 30.5t37.5 11.5q18 0 43 -28l1 6q0 23 -9.5 42t-25.5 33t-37 22.5t-44 11.5l-25 1v-332q-5 4 -11.5 8t-11.5 7v-1
q-42 76 -102.5 121.5t-132.5 50.5h1l-67 86q13 9 26.5 17t27.5 16h-1l36 21q-14 11 -34 15.5t-40 5.5q-36 44 -73 87q70 49 155 90.5t171 67.5v46h-355l-55 56h677l54 -56h-265zM560 366q-4 21 -17 38.5t-39 33.5q-40 23 -90 25h-14v-103q29 -5 51 -16.5t39 -28.5l-4 20
q0 46 33 46q27 0 37 -23q4 6 4 8zM344 456q-56 -17 -110 -43t-106 -62q36 -17 78 -51q35 16 69 30.5t69 27.5v98zM344 276q-34 -11 -77 -33t-94 -54q104 -21 171 -119v206z" />
    <glyph glyph-name="u0995_u09CD_u099F" horiz-adv-x="506" 
d="M509 588h-202l1 -24q31 -5 57.5 -18t45 -34t29 -48.5t10.5 -61.5q0 -35 -15 -59q-19 -28 -52 -28q-53 2 -62 48q0 24 11.5 43t32.5 19q35 -5 39 -32q6 2 10 7t3 19q-21 80 -114 89q1 -71 -34 -152q-4 -10 -21.5 -42t-48.5 -86q-36 -68 -36 -102q0 -59 44 -59q28 0 84 31
q27 16 41.5 31.5t19.5 29.5h-7q-27 0 -48 15t-21 42q0 29 20.5 52t48.5 23q99 0 99 -84q0 -76 -70 -134q-69 -57 -143 -57q-129 0 -129 99q0 65 82 175q-15 47 -48 58q-13 5 -31.5 6.5t-29.5 1.5l-54 78q46 42 105 75.5t124 52.5v26h-252l-56 56h432q6 15 6 24q0 37 -60 37
h-18.5t-20.5 -2q-5 0 -8.5 -0.5t-5.5 -0.5h-96q-150 0 -150 88q0 26 5.5 47.5t17.5 35.5q10 -5 17.5 -10t17.5 -10q-23 -12 -23 -36q0 -52 109 -52h16.5t20.5 1q3 0 5.5 1t5.5 1l37 2q157 0 157 -101q0 -7 -0.5 -13t-1.5 -12h48zM246 498q-83 -27 -135 -78q83 -35 88 -99
q23 31 36 77q15 46 15 83q-1 1 -1 4q-1 2 -1 4.5t-1 7.5z" />
    <glyph glyph-name="u0995_u09CD_u09A4" horiz-adv-x="774" 
d="M789 588h-804l-58 56h809zM729 348q0 -43 -26 -83q-28 -36 -75 -41q-13 -1 -25.5 1.5t-22 11.5t-15 23t-5.5 26q-1 23 12 38q17 16 39 15q27 0 44 -41h5q18 0 21 42q0 35 -18.5 57t-51.5 22q-38 0 -80 -36q-18 -17 -29 -35.5t-11 -37.5l1 -7q40 -41 40 -100.5t-46 -101.5
q-23 -22 -50 -32t-59 -10q-216 0 -349 483l40 -21l64 -160q22 -51 44 -88.5t47 -62.5q67 -65 158 -65q48 0 76.5 24t28.5 70q0 25 -27 53q-25 -22 -47 -22q-29 0 -47.5 19t-18.5 48q0 25 17.5 44.5t40.5 19.5q25 0 50 -14q30 18 30 50q0 24 -29 42q-29 14 -55 14
q-37 0 -73 -17t-53 -47q33 -17 33 -55q0 -49 -50 -49q-31 0 -51 21t-20 53q0 68 66 118q63 46 131 46q75 0 105 -41q27 -35 29 -115q59 64 104 64t76 -38q32 -40 32 -85z" />
    <glyph glyph-name="u0995_u09CD_u09A4_u09F0_u09CD" horiz-adv-x="773" 
d="M477 -54v148q-43 -35 -100 -35q-216 0 -349 483l40 -21l64 -160q22 -51 44 -88.5t47 -62.5q67 -65 158 -65q48 0 76.5 24t28.5 70q0 25 -27 53q-25 -22 -47 -22q-29 0 -47.5 19t-18.5 48q0 25 17.5 44.5t40.5 19.5q25 0 50 -14q30 18 30 50q0 24 -30 40h1q-29 16 -55 16
q-37 0 -73 -17t-53 -47q33 -17 33 -55q0 -49 -50 -49q-31 0 -51 21t-20 53q0 68 66 118q63 46 131 46q75 0 105 -41q27 -35 29 -115q59 64 104 64t76 -38q32 -40 32 -85q0 -43 -28 -82q-29 -42 -73 -42q-12 0 -24.5 4.5t-21.5 13t-15 20.5t-6 24q-1 20 11 38q21 17 39 15
q27 0 44 -41h5q21 -1 21 42q0 35 -18.5 57t-51.5 22q-38 0 -80 -36q-18 -17 -29 -35.5t-11 -37.5l1 -7q40 -41 40 -95q0 -12 -1.5 -22.5t-3.5 -20.5v-311q-4 4 -17 19.5t-34 40.5q-14 16 -32.5 26t-42.5 12h-100q-100 0 -155 23q-87 36 -87 133q0 33 20 99l21 -21
q-8 -11 -8 -37q0 -89 85 -107q45 -2 78.5 -5t56.5 -6q113 -11 163 -86zM789 588h-804l-58 56h809z" />
    <glyph glyph-name="u0995_u09CD_u09A4_u09AC_u09CD" horiz-adv-x="770" 
d="M513 -207q-32 14 -60 58q-17 24 -29.5 39.5t-22.5 23.5q-19 14 -49 21.5t-65 8.5l-54 74l78 52q-172 67 -283 472l40 -21l64 -160q22 -51 44 -88.5t47 -62.5q67 -65 158 -65q48 0 76.5 24t28.5 70q0 25 -27 53q-25 -22 -47 -22q-29 0 -47.5 19t-18.5 48q0 25 17.5 44.5
t40.5 19.5q25 0 50 -14q30 18 30 50q0 24 -30 40h1q-29 16 -55 16q-37 0 -73 -17t-53 -47q33 -17 33 -55q0 -49 -50 -49q-31 0 -51 21t-20 53q0 68 66 118q63 46 131 46q75 0 105 -41q27 -35 29 -115q59 64 104 64t76 -38q32 -40 32 -85q0 -43 -28 -82q-29 -42 -73 -42
q-12 0 -23.5 5.5t-21.5 14t-16 19.5t-6 23q0 11 11 38v-1q17 16 39 16q27 0 44 -41h5q21 -1 21 42q0 35 -18.5 57t-51.5 22q-38 0 -80 -36q-18 -17 -29 -35.5t-11 -37.5l1 -7q40 -41 40 -95q0 -49 -26 -85q7 -11 7 -16v-314zM779 588h-784l-58 56h789zM434 68l-113 -72
q80 -18 140 -96v181q-8 -6 -14.5 -8.5t-11.5 -4.5h-1z" />
    <glyph glyph-name="u0995_u09CD_u09A8" horiz-adv-x="656" 
d="M401 588v-46l13 2q38 -2 74 -18.5t67 -48.5q63 -68 63 -146q0 -24 -5.5 -45.5t-17.5 -39.5q-26 -42 -71 -42q-28 0 -51 20t-23 49q0 27 19 45t47 18q36 0 55 -29q2 4 2.5 6t1.5 4l1 2q0 57 -46 104q-44 49 -101 44l-29 -2v-480l-19 7l-40 101q-33 70 -106 70q-1 -1 -4 -1
q-2 0 -6 -0.5t-10 -0.5q24 -14 24 -47q0 -69 -74 -69q-17 0 -31.5 6.5t-26 18t-18 26t-6.5 31.5q0 56 33 85t89 29q110 0 157 -140h2v12q0 178 -240 208l-78 97q86 48 160 79t137 44v47h-349l-57 56h668l58 -56h-262zM343 464q-88 -13 -186 -69q117 -17 186 -119v188z" />
    <glyph glyph-name="u0995_u09CD_u09AE" horiz-adv-x="639" 
d="M665 588h-88v-602q-3 1 -6.5 3t-6.5 3h1q-25 25 -57 77q-31 48 -49 66q-16 14 -39.5 24.5t-53.5 18.5q0 -37 -25 -59.5t-63 -22.5q-33 0 -57 24t-24 57q0 30 21.5 53t56.5 30q-78 95 -183 98q-15 21 -30 44.5t-29 44.5q57 42 117.5 69t119.5 40v32h-273l-56 56h666z
M271 309v178q-36 -11 -70.5 -26t-66.5 -37q86 -41 137 -115zM523 101v487h-200v-26q66 -9 111 -62q20 -27 30.5 -56t10.5 -56q0 -29 -16 -58q-20 -30 -51 -30q-24 0 -43.5 16t-21.5 40q-1 34 19 49q18 11 37 9q18 -2 28 -19q7 -5 8 8q0 33 -29 60q-27 25 -61 27h-22v-231
q112 -16 198 -159z" />
    <glyph glyph-name="u0995_u09F0_u09CD" horiz-adv-x="804" 
d="M812 588h-817l-57 56h820zM786 299q0 -41 -23 -69t-65 -28q-30 0 -52 14q-25 21 -25 50q0 18 14.5 32t32.5 14q34 0 55 -35q16 4 16 24q0 16 -7.5 30t-20 24.5t-28.5 16t-33 5.5q-58 0 -92 -62v-330l-34 31v-1q-27 94 -103 87q-28 -3 -67 -8q-53 -9 -76.5 -10.5
t-39.5 -1.5q-95 0 -147 58q-50 55 -50 150q0 45 12.5 81.5t35.5 64.5l21 -22q-11 -15 -17.5 -28t-8.5 -21q-3 -17 -3.5 -29t-0.5 -23q1 -83 59 -117q43 -23 127 -23h20t29 1t28.5 1h18.5q35 0 71.5 -8t68.5 -32v322q0 43 -38 43q-39 0 -88 -52q-23 -24 -39 -47t-23 -45
q17 4 34 4q25 -2 36 -21.5t11 -42.5q0 -64 -74 -64q-97 0 -97 113q4 69 84 140q84 76 149 76q26 0 63 -32q38 -30 38 -55v-104q17 23 51 41q37 17 68 16q45 0 78 -40q30 -40 31 -88z" />
    <glyph glyph-name="u0995_u09CD_u09B2" horiz-adv-x="660" 
d="M413 588v-36q97 4 157 -76q29 -36 43.5 -76t14.5 -82q0 -21 -7 -40t-19.5 -33.5t-29.5 -23t-37 -8.5q-14 0 -27 5.5t-23 15t-16.5 22t-6.5 26.5q0 27 18.5 45t46.5 18q32 0 56 -30l5 13q0 55 -46 104q-47 50 -130 37v-520l-22 20q-9 40 -27 70q-23 38 -54 38
q-40 0 -35 -46l3 -31q-13 2 -24 5.5t-24 16.5q-1 24 -6.5 40.5t-13.5 28.5q-22 30 -54 30q-13 0 -26.5 -4.5t-24.5 -13t-18 -21t-7 -28.5q0 -44 28 -60q0 26 14.5 44.5t33.5 18.5q51 0 51 -57q0 -60 -70 -60q-23 0 -43 8t-36 23t-25 36t-9 46q0 26 9 49t25 39.5t36.5 26
t44.5 9.5q70 0 107 -97q-1 62 47 62q41 0 68 -65v56q-16 28 -35.5 51t-41.5 43q-38 34 -81 54t-89 25l-78 88q143 102 324 149v45h-365l-57 56h679l58 -56h-261zM357 461q-50 -11 -102.5 -34t-107.5 -55q140 -49 209 -152z" />
    <glyph glyph-name="u0995_u09AC_u09CD" horiz-adv-x="654" 
d="M415 542q86 0 148 -74q26 -36 41 -76.5t15 -82.5q0 -21 -7 -40t-19 -33.5t-29 -23t-37 -8.5q-29 0 -51.5 20t-22.5 49q0 27 19 45t46 18q34 0 56 -29q5 5 5 12q0 58 -47 104q-41 43 -109 43q-3 0 -5.5 -0.5t-4.5 -0.5h-11v-515q-5 4 -11.5 8t-11.5 7v-1
q-42 77 -102.5 122t-132.5 50q-32 44 -65 86l56 35l31 19q-15 8 -38 12t-46 5l-61 91q69 49 153.5 90.5t171.5 67.5v46h-345l-55 56h657l54 -56h-255v-46h13zM346 276q-35 -11 -76.5 -33t-94.5 -54q104 -21 171 -119v206zM346 456q-108 -32 -215 -105q37 -17 77 -51
q32 16 65.5 30.5t72.5 27.5v98z" />
    <glyph glyph-name="u0995_u09CD_u09B7" horiz-adv-x="759" 
d="M773 588h-260v-93q15 3 40 3q65 0 115 -42q49 -43 49 -105q-2 -45 -20.5 -71.5t-50.5 -32.5q-33 1 -59 15.5t-31 43.5q-1 26 14.5 42.5t34.5 16.5q37 2 66 -35q9 16 9 33q0 32 -44 53q-32 13 -70 13q-29 0 -50 -8v-413l-26 30v-1q-17 48 -28.5 78.5t-19.5 44.5v-1
q-34 60 -96 89q-19 -55 -77 -55q-30 0 -51.5 20.5t-21.5 51.5q0 37 29 57t68 16q6 15 6 32q0 33 -23 58.5t-56 25.5q-8 0 -15 -3.5t-15 -9.5q0 -29 -21.5 -51.5t-50.5 -22.5q-32 0 -56 21t-23 63q5 45 52 66q16 5 30 6l2 7q0 6 -5 15t-12 17.5t-15 15.5t-14 10h-83l-58 56
h780zM459 489v99h-109q-14 0 -14 -26q0 -75 94 -75h13.5t15.5 2zM460 194v224q-66 6 -119 54q-50 49 -59 116h-144q5 -10 12 -25t15 -38q12 -3 20 -6l16 -6q30 -11 58.5 -31t52.5 -47q23 -29 36.5 -62t15.5 -66q67 -43 94 -113h2z" />
    <glyph glyph-name="u0995_u09CD_u09B7_u09CD_u09A3" horiz-adv-x="764" 
d="M513 588v-68h40q65 0 115 -42q49 -43 49 -105q0 -49 -21 -77t-59 -34q-73 11 -73 71q0 23 15 38.5t38 15.5q38 0 54 -35q9 12 9 33q0 34 -43 53q-34 13 -71 13q-29 0 -50 -8v-452q-24 25 -41 55q-23 59 -39 78q-34 37 -94 37h-3q-2 0 -5.5 -0.5t-8.5 -1.5q19 -25 19 -53
q0 -25 -17.5 -41t-41.5 -16q-78 0 -87 78q9 100 118 100q45 0 85 -26t62 -66h2v31q0 87 -119 143q-20 -56 -77 -56q-14 0 -27.5 5.5t-23.5 15.5t-16 22.5t-6 27.5q0 75 97 75l7 10q0 30 -23.5 48.5t-56.5 18.5q-17 -2 -22.5 -5.5t-7.5 -8.5q0 -66 -59 -66q-15 0 -29 5
t-25.5 14t-18.5 21t-7 26q0 30 21 51q7 8 19 15t30 16l2 8q0 17 -35 26t-94 10l-52 56h772l57 -56h-258zM459 588h-109q-14 0 -14 -26q0 -53 65 -53h22q19 0 36 7v72zM460 440q-68 5 -117 43q-55 41 -61 105h-146q13 -11 22 -21t14 -23q48 -12 85.5 -30.5t64.5 -44.5
q41 -35 42 -104q37 -21 60 -46t34 -54h2v175z" />
    <glyph glyph-name="u0995_u09CD_u09B7_u09CD_u09AE" horiz-adv-x="795" 
d="M800 588h-104v-623q-7 6 -14 10.5t-14 9.5v-1q-20 43 -36.5 72.5t-31.5 45.5q-23 25 -53 42.5t-86 21.5q1 -6 1.5 -12t-0.5 -11q0 -13 -6 -25t-16.5 -21.5t-24 -15t-27.5 -5.5t-27 6.5t-22.5 17t-15.5 24t-6 27.5q0 26 16.5 48.5t62.5 31.5q-22 61 -84 85q3 -34 -20 -50
t-55 -13q-24 3 -39 22.5t-14 43.5q0 31 21 50t51 15q9 18 9 31q0 25 -18.5 44.5t-43.5 18.5l-17 -1q2 -5 2 -11.5v-11.5q0 -26 -22.5 -42t-50.5 -16q-26 0 -46 18t-20 45q0 35 19 57q23 23 53 30q-15 44 -72 42h-54l-57 56h804zM396 532v56h-96q-9 -2 -9 -9q0 -25 28 -41
q24 -15 50 -15q14 0 27 8v1zM396 300v154q-54 9 -95.5 45t-57.5 89h-98q6 -6 22 -39q19 -9 37 -19t33 -23q34 -26 53.5 -60t23.5 -76q13 -9 33 -25.5t47 -46.5zM640 104v484h-189v-61q20 4 34 4q57 0 92.5 -36.5t35.5 -93.5q0 -32 -22 -61q-21 -28 -50 -28q-24 0 -43 18.5
t-19 42.5q0 21 16.5 36t38.5 15q29 0 45 -21q-21 66 -78 66q-24 0 -50 -10v-225q122 -27 189 -130z" />
    <glyph glyph-name="u0995_u09CD_u09B7_u09F0_u09CD" horiz-adv-x="789" 
d="M513 588v-95q9 3 19 4t21 1q65 0 115 -42q49 -43 49 -105q0 -100 -71 -100q-90 0 -90 61q0 16 12 33t28 17q60 0 75 -33q3 17 6 25l3 9q0 35 -43 54q-30 12 -71 12q-29 0 -50 -8v-432q-21 6 -57 47q-31 33 -109 33l-49 -2q-15 -1 -25 -1h-16q-198 0 -198 168q0 43 10 77
l33 -23q-2 -8 -3 -14t-2 -10t-1 -8q0 -88 76 -107l163 -16q49 -9 88 -34.5t60 -64.5h2q0 69 -38 125.5t-104 88.5q-19 -55 -77 -55q-29 0 -51 21t-22 51q0 73 97 73q2 8 2.5 13t1.5 10q1 4 2 9q0 16 -6 31.5t-16.5 27t-24 18.5t-29.5 7l-21 -7t-12 -6q0 -29 -21.5 -51.5
t-50.5 -22.5q-74 4 -75 81q7 65 80 81q0 20 -13.5 34t-37.5 20q-8 2 -31.5 3.5t-46.5 1.5l-52 56h772l57 -56h-258zM459 588h-109q-14 0 -14 -26q0 -75 94 -75q12 0 29 6v95zM460 418q-68 6 -120 54q-49 49 -58 116h-143l26 -59q42 -6 76 -23.5t60 -46.5q60 -58 63 -152
q68 -42 96 -113v224z" />
    <glyph glyph-name="u0995_u09CD_u09B7_u09AC_u09CD" horiz-adv-x="764" 
d="M513 588v-82q8 2 18 3t22 1q67 0 113 -34q51 -41 51 -103q0 -109 -71 -109q-80 0 -80 60q0 22 14 38.5t35 16.5q35 0 56 -38l9 32q0 33 -40 53q-32 18 -65 18q-8 0 -23.5 -3t-38.5 -11v-520q-11 6 -25 22v-1q-12 57 -57.5 85t-118.5 30l-48 68q37 30 84 55t100 43
q-53 74 -102 83q-18 -56 -77 -56q-29 0 -51 19t-22 46q0 80 97 80l6 17q0 63 -61 63q-23 0 -48 -11q0 -29 -21.5 -49t-49.5 -20q-29 0 -48.5 23t-19.5 53q0 53 70 73l2 9q0 37 -55 44q-16 0 -37 1t-37 1l-52 56h772l57 -56h-258zM459 588h-109q-14 0 -14 -26
q0 -21 7.5 -33.5t23.5 -20.5q22 -8 63 -8q12 0 29 6v82zM459 430q-67 9 -118 48q-26 22 -40 50t-19 60h-144l31 -54q70 -5 132 -50q62 -50 63 -131q70 -41 93 -102h2v179zM459 142q-23 -8 -50 -20t-60 -29q72 -15 110 -56v105z" />
    <glyph glyph-name="u0995_u09CD_u09B8" horiz-adv-x="787" 
d="M792 588h-96v-660q-11 11 -26 25.5t-26 25.5v97q-15 11 -34.5 21t-38.5 17q-15 6 -31.5 9.5t-31.5 3.5q-39 0 -107 -56q-69 -55 -103 -55t-73 33q-18 16 -31 34t-19 35l30 31q4 -23 24.5 -40t43.5 -17q14 0 27.5 4t27.5 11q34 21 34 44q0 54 -108 121q-83 45 -148 56
l-47 85q65 44 144.5 80.5t169.5 60.5v34h-376l-58 56h795zM642 134v454h-219v-35q33 -9 64.5 -25t55.5 -39.5t39 -53t15 -63.5q0 -29 -11 -56q-10 -17 -24.5 -28.5t-36.5 -15.5q-38 0 -56 16.5t-18 38.5q0 56 54 56q13 0 24 -2t19 -9q0 47 -31 73t-94 37v-307q51 21 80 21
q55 0 139 -62zM373 223v254q-37 -6 -86 -27.5t-112 -58.5q42 -10 111 -69q26 -26 47.5 -51t39.5 -48z" />
    <glyph glyph-name="u0996_u09F0_u09CD" horiz-adv-x="563" 
d="M427 68v26q-1 6 -3 10.5t-5 10.5q-19 33 -47 59.5t-66 49.5h1q-67 40 -148 48l-95 116q11 -2 22.5 -3.5t23.5 -1.5q28 0 59.5 7.5t63.5 21.5q39 17 60.5 37.5t21.5 43.5q0 36 -29 61q-92 -92 -184 -92q-34 0 -59 22t-25 55q0 24 17.5 43t42.5 19q51 0 54 -52
q17 3 34.5 12.5t35.5 23.5q2 1 18.5 17.5t35.5 34.5q32 -27 52 -45t25 -23q40 -43 40 -89q0 -49 -39 -94q-39 -43 -90 -57q122 -61 179 -158v577l31 -20q0 -17 2 -34t4 -23q11 -24 57 -27l57 -56h-97v-612q-5 3 -16.5 18t-34.5 42q-29 33 -75 36h-99q-48 0 -88 6.5t-68 17.5
q-40 19 -63.5 52.5t-23.5 81.5q0 17 5.5 42t14.5 57l21 -21q-7 -11 -7 -38q0 -91 85 -107q45 -5 78 -6.5t56 -4.5q57 -5 97.5 -26t65.5 -59z" />
    <glyph glyph-name="u0996_u09AC_u09CD" horiz-adv-x="561" 
d="M564 588h-87v-419v-288q-27 13 -48 43q-20 31 -27 40.5t-27 26.5q-22 15 -49 21t-55 6l-48 67q81 57 156 106q-30 30 -73 56q-66 40 -147 48l-95 117q22 -6 46 -6q56 0 123 29q79 33 79 58q3 36 -26 61q-92 -79 -184 -79q-34 0 -59 21.5t-25 54.5q0 25 17.5 43.5
t42.5 18.5q51 0 54 -51q33 6 63 22t61 53q32 -27 52 -45t25 -23q40 -43 37 -89q0 -21 -10.5 -41t-27.5 -37t-40 -30t-48 -20q122 -61 179 -148v544l31 -20q0 -17 2 -34t4 -23q11 -24 47 -27zM311 64q56 -11 118 -86v136q-2 10 -5 16.5t-5 9.5q-58 -35 -108 -76z" />
    <glyph glyph-name="u0997_afii61664_u09C1" horiz-adv-x="612" 
d="M573 355q0 -40 -63 -82q28 -37 28 -85q0 -63 -40 -96t-105 -33q-78 0 -145.5 50t-117.5 141q-38 71 -64.5 155t-38.5 180l40 -26q16 -78 43 -148t59 -121q91 -144 231 -144q18 1 36 5t32.5 12t23 21t8.5 31v9.5t-2 9.5q-23 -17 -44 -17q-33 0 -53.5 22t-21.5 51
q-1 25 14.5 45t47.5 21q19 0 32.5 -4.5t19 -8.5t6.5 -4q29 19 29 38q0 29 -19 74q-21 46 -45 59l-57 -90q-11 61 -38.5 96.5t-76.5 39.5q-61 0 -87 -49q28 11 46 11q34 0 62 -20q30 -24 30 -56q0 -61 -97 -144l-70 59q21 14 36.5 25.5t23.5 18.5q38 32 47 58q0 15 -16 15
q-9 0 -21.5 -4t-26 -8.5t-27 -8.5t-23.5 -4q-43 0 -43 47.5t42 89t89 41.5q24 0 47 -8t43 -23t34.5 -35.5t22.5 -44.5l42 127q127 -224 127 -288z" />
    <glyph glyph-name="u0997_u09CD_u0997" horiz-adv-x="580" 
d="M590 588h-102v-669l-32 38t-31 38l1 125q-6 23 -16 47t-24 44q-37 58 -97 58q-72 0 -99 -71l37 9q19 4 37 4q31 0 48 -27q21 -21 17 -52.5t-23.5 -68.5t-51.5 -84l-55 61q39 29 61.5 54t22.5 45q0 13 -11 21t-19 8q-18 0 -48 -20q-30 -21 -43 -21q-11 0 -20.5 6t-17 15.5
t-12 21t-4.5 23.5q0 25 13.5 51t32.5 45q9 6 18 13t19 11l-16 18q24 18 45 40q48 51 48 69q0 24 -30 24q-8 0 -21 -5t-32 -17q-37 -22 -51 -22q-12 0 -22.5 7t-18.5 17.5t-13 23.5t-5 25q0 64 60 105q53 37 118 37q42 0 73.5 -14t54.5 -40q17 -20 33 -54t34 -82h2l-9 147
q-3 97 -3 159l32 -32l-3 -16q0 -61 51 -59h8h9zM371 286q38 -32 54 -67h2l1 164q0 31 -12 63t-34 61q-48 65 -107 65q-89 0 -125 -82q19 9 36.5 12.5t32.5 3.5q43 0 73 -22q31 -26 31 -68q0 -18 -8.5 -41.5t-26.5 -50.5q43 -6 83 -38z" />
    <glyph glyph-name="u0997_u09CD_u09A6" horiz-adv-x="885" 
d="M462 588v-248q60 63 124.5 107t133.5 69l101 -76q-38 -75 -57.5 -143t-19.5 -130q0 -57 20 -172l-36 19q-17 78 -26.5 138t-9.5 102q0 33 4.5 70t14.5 78q-68 -23 -128.5 -74t-111.5 -120l-78 86q2 11 2.5 24.5t0.5 25.5q0 38 -11 78t-32.5 72.5t-53.5 53.5t-73 21
q-89 0 -125 -87q32 22 69 22q29 0 55 -13.5t41 -36.5q6 -9 9 -21.5t3 -25.5q0 -27 -9.5 -52.5t-25 -50t-34.5 -47.5t-37 -44l-65 73q55 42 85 76t30 58q0 14 -11.5 24.5t-24.5 10.5q-17 0 -55 -26q-39 -25 -50 -25q-25 0 -45 26q-19 25 -19 54q0 67 54 112q56 47 122 47
q72 0 134 -51q61 -49 78 -121v173h435l55 -56h-433z" />
    <glyph glyph-name="u0997_u09CD_u09A7" horiz-adv-x="709" 
d="M475 -52l-19 13q-20 28 -46 53.5t-54 39.5q-81 37 -100 39t-34 2q-16 22 -33 44l-34 44q151 101 260 148l1 34q0 33 -13.5 67.5t-36.5 66.5q-52 71 -117 71q-97 0 -135 -90q65 40 95 40q23 0 43.5 -6.5t36.5 -17.5q14 -12 21 -28.5t8 -30.5q-7 -33 -46 -79.5t-108 -101.5
l-59 76q25 14 47.5 28.5t44.5 31.5q28 17 43 31.5t15 23.5q0 27 -25 27q-14 0 -66 -35q-55 -35 -68 -35q-23 0 -45 28q-18 25 -18 52q0 69 64 114q55 39 130 39q89 0 138 -58q36 -42 73 -149h2l-11 162q-2 49 -3.5 88t-1.5 71l33 -32l-4 -16q0 -61 51 -61q16 0 37 0.5
t42.5 0.5t42 0.5t37.5 0.5l55 -56h-243v-233q54 26 80.5 33.5t36.5 7t16 -5.5q27 -17 22 -80q-5 -35 -11 -82.5t-7 -98.5q0 -38 3 -72t11 -66l-55 37v-1q-7 26 -10 58t-3 60q1 42 6 80t7 75q1 14 -7 15.5t-21.5 -3t-67.5 -33.5v-331zM414 252q-82 -38 -164 -92
q50 -18 93 -48t69 -64l2 175v29z" />
    <glyph glyph-name="u0997_u09CD_u09A7_u09AC_u09CD" horiz-adv-x="716" 
d="M475 -190l-19 14q-20 29 -39.5 52.5t-36.5 35.5q-34 25 -82 25h-14t-15 -2l-49 68l132 75q-7 7 -21.5 13t-32 11t-35.5 8t-30 3q-16 22 -33 44l-34 44q24 17 57.5 36.5t68.5 37.5t67.5 33t55.5 23l1 34q0 33 -13.5 67.5t-36.5 66.5q-52 71 -117 71q-97 0 -135 -90
q65 40 95 40q23 0 43.5 -6.5t36.5 -17.5q14 -12 21 -28.5t8 -30.5q-7 -33 -46 -79.5t-108 -101.5l-59 76q25 14 47.5 28.5t47.5 31.5t40 31.5t15 23.5q0 27 -25 27q-14 0 -66 -35q-55 -35 -68 -35q-23 0 -45 28q-18 25 -18 52q0 69 64 114q55 39 130 39q89 0 138 -58
q36 -42 73 -149h2l-11 162q-2 49 -3.5 88t-1.5 71l33 -32l-4 -16q0 -61 51 -61q16 0 37 0.5t42.5 0.5t42 0.5t37.5 0.5l55 -56h-243v-235l41 20q13 6 27 11.5t26.5 8.5t22.5 2.5t16 -5.5q15 -15 17.5 -28.5t3.5 -30.5v-10.5t1 -10.5q-4 -34 -8 -82.5t-4 -92.5q0 -32 2 -63
t6 -55l-55 49v-1q-4 19 -5.5 41.5t-1.5 45.5q0 31 2 63l4 64q0 6 0.5 11t0.5 10q1 14 -7 16.5t-21.5 -2t-31.5 -15.5t-36 -24v-465zM414 252q-32 -15 -70.5 -34.5t-82.5 -44.5q51 -13 86 -40t65 -57l2 147v29zM425 -90v117q-5 5 -8.5 6t-8.5 5l-102 -60q17 -5 33 -9.5
t31 -12t29 -18.5t26 -28z" />
    <glyph glyph-name="u0997_u09CD_u09A7_u09F0_u09CD" horiz-adv-x="718" 
d="M428 -13l-2 44q-19 31 -59 53q-27 14 -59 21t-63 8l-68 88q63 40 124.5 73t124.5 59q-1 57 -15 95t-36 71q-51 71 -115 71q-97 0 -134 -90q65 40 94 40q23 0 43.5 -6.5t36.5 -16.5q14 -13 21.5 -23t8.5 -28q-8 -42 -47 -84.5t-108 -94.5l-58 65l92 60q28 17 43 31.5
t15 23.5q0 27 -26 27q-13 0 -66 -35t-68 -35q-22 0 -44 28q-19 25 -19 52q0 69 64 114q29 20 61.5 29.5t68.5 9.5q89 0 139 -58q34 -40 72 -149l-8 162q-2 49 -3.5 88t-1.5 71l32 -32l-4 -16q0 -61 52 -60h158l56 -55h-244v-233q40 27 67 34t46 7q11 0 20 -6
q14 -10 20 -25.5t6 -31.5q0 -27 -1 -43.5t-2.5 -32.5t-2.5 -37.5t-1 -58.5q0 -9 0.5 -32t1 -48.5t2 -49t3.5 -33.5l-57 49q-4 26 -5 55t-1 59v71.5t1 67.5q-4 17 -19 14q-9 0 -19.5 -5t-21.5 -11.5t-20.5 -12.5t-16.5 -10v-399q-4 3 -15 13.5t-36 40.5q-28 40 -75 44h-74
q-36 0 -61 0.5t-54 12.5q-87 36 -87 133q0 33 20 99l20 -25q-8 -24 -6 -57q0 -65 86 -83q32 -4 66.5 -3t75 -9t82.5 -55zM426 252q-43 -17 -81 -37t-72 -42q98 -25 153 -86v165z" />
    <glyph glyph-name="u0997_u09CD_u09A8" horiz-adv-x="555" 
d="M467 588v-644q-5 2 -10.5 5t-10.5 5l-13 69q-11 39 -21 67t-20 46q-40 70 -123 70l-8 -2q-8 -2 -18 -5q44 -38 44 -79q0 -30 -19 -53t-50 -23q-41 0 -68 24.5t-27 65.5q0 60 37.5 95t99.5 35q51 0 95 -25h-1q45 -29 60 -75h2v138q0 56 -11.5 101t-31.5 79q-51 83 -156 83
q-94 1 -121 -58q27 18 75 18q57 0 88 -23t31 -67q0 -43 -42 -86t-121 -84q-11 22 -21.5 44.5t-21.5 45.5q7 2 26 9.5t49 21.5q74 38 74 51q0 44 -32 44q-14 0 -30.5 -6.5t-36.5 -17.5q-39 -24 -56 -24q-11 0 -23 6.5t-21 17.5q-20 26 -20 48q0 65 59 103h-1q52 30 133 30
q75 0 133 -52q59 -52 76 -120h2v285l32 -32q-2 -5 -2 -7.5t-1 -4.5q-1 -3 -1 -4q0 -67 69 -59l55 -56h-101z" />
    <glyph glyph-name="u0997_u09CD_u09AE" horiz-adv-x="697" 
d="M604 588v-596q-2 1 -6.5 3t-6.5 4q-6 26 -14.5 51t-17.5 46q-19 42 -80 69q3 -35 -13.5 -61t-57.5 -29q-46 -3 -74 28q-11 11 -15.5 28.5t-5.5 34.5q9 38 33.5 59t62.5 21q15 42 15 120q0 73 -66 139t-139 66q-42 0 -74 -23q-38 -27 -38 -66q34 14 90 14q89 0 89 -103
q0 -33 -27.5 -78.5t-81.5 -101.5l-63 73q14 11 33 29t37 38q23 24 36 43.5t13 29.5q0 27 -32 27q-15 0 -57 -25q-20 -11 -34 -17.5t-22 -6.5q-25 0 -45 26q-19 25 -19 54q0 32 13 60t36 49q52 43 118 43q151 0 223 -148h2v263l32 -32q-2 -5 -2 -7.5t-1 -4.5q-1 -3 -1 -4
q0 -59 70 -59h133l55 -56h-98zM549 588h-82v-355q38 -14 82 -79v434z" />
    <glyph glyph-name="u0997_u09F0_u09CD" horiz-adv-x="599" 
d="M615 588h-102v-601l-74 79q-40 41 -130 41q-15 0 -48.5 -2t-69.5 -2q-30 0 -54 7t-42 18t-30.5 25t-21.5 28q-15 23 -21.5 45.5t-6.5 43.5v5q2 96 4 94l32 -33q-5 -15 -5 -26q0 -29 11 -51t29 -37.5t41.5 -23.5t49.5 -8q60 0 101.5 -4.5t57.5 -9.5q35 -8 64 -26t49 -47
q3 121 4 187q1 44 1 75q0 33 -13 67.5t-36 66.5q-54 71 -118 71q-97 0 -134 -89q42 18 73 18q24 0 44.5 -6.5t35.5 -17.5q16 -14 25 -32.5t9 -42.5q0 -32 -30.5 -72.5t-84.5 -99.5l-65 74q13 9 60 50.5t60 73.5q0 27 -33 27q-12 0 -54 -25q-20 -11 -35 -17.5t-24 -6.5
q-22 0 -44 28q-19 25 -19 52q0 69 64 114q29 20 61.5 29.5t68.5 9.5q89 0 139 -58q34 -40 73 -149l-9 162q-2 49 -3.5 88t-1.5 71l32 -32q-2 -8 -2 -16q-2 -61 50 -60q6 0 16 1z" />
    <glyph glyph-name="u0997_u09F0_u09CD_u09C1" horiz-adv-x="798" 
d="M824 588h-246l-57 56h246zM751 324q0 -23 -7.5 -43t-21 -36t-32 -25t-40.5 -9q-31 0 -74 30t-98 88v56q38 -58 75.5 -88t72.5 -30q30 0 49 23t19 53q0 42 -38 65q3 -14 3 -24q0 -29 -17.5 -43.5t-38.5 -14.5t-38.5 14.5t-17.5 43.5q0 16 8.5 29.5t22 23.5t29 15.5
t29.5 5.5q48 0 83 -41q17 -20 24.5 -43.5t7.5 -49.5zM615 588h-102v-601l-74 79q-40 41 -130 41q-15 0 -48.5 -2t-69.5 -2q-30 0 -54 7t-42 18t-30.5 25t-21.5 28q-15 23 -21.5 45.5t-6.5 43.5v5q-2 58 4 94l32 -33q-5 -15 -5 -26q0 -29 11 -51t29 -37.5t41.5 -23.5t49.5 -8
q60 0 101.5 -4.5t57.5 -9.5q35 -8 64 -26t49 -47q3 121 4 187q1 44 1 75q0 33 -13 67.5t-36 66.5q-54 71 -118 71q-97 0 -134 -89q42 18 73 18q24 0 44.5 -6.5t35.5 -17.5q16 -14 25 -32.5t9 -42.5q0 -32 -30.5 -72.5t-84.5 -99.5l-65 74q13 9 60 50.5t60 73.5q0 27 -33 27
q-12 0 -54 -25q-20 -11 -35 -17.5t-24 -6.5q-22 0 -44 28q-19 25 -19 52q0 69 64 114q29 20 61.5 29.5t68.5 9.5q89 0 139 -58q34 -40 73 -149l-9 162q-2 49 -3.5 88t-1.5 71l32 -32q-2 -8 -2 -16q-2 -61 50 -60q6 0 16 1z" />
    <glyph glyph-name="u0997_u09F0_u09CD_u09C2" horiz-adv-x="744" 
d="M615 588h-102v-601l-74 79q-40 41 -130 41q-15 0 -48.5 -2t-69.5 -2q-30 0 -54 7t-42 18t-30.5 25t-21.5 28q-15 23 -21.5 45.5t-6.5 43.5v5q2 96 4 94l32 -33q-5 -15 -5 -26q0 -29 11 -51t29 -37.5t41.5 -23.5t49.5 -8q60 0 101.5 -4.5t57.5 -9.5q35 -8 64 -26t49 -47
q3 121 4 187q1 44 1 75q0 33 -13 67.5t-36 66.5q-54 71 -118 71q-97 0 -134 -89q42 18 73 18q24 0 44.5 -6.5t35.5 -17.5q16 -14 25 -32.5t9 -42.5q0 -32 -30.5 -72.5t-84.5 -99.5l-65 74q13 9 60 50.5t60 73.5q0 27 -33 27q-12 0 -54 -25q-20 -11 -35 -17.5t-24 -6.5
q-22 0 -44 28q-19 25 -19 52q0 69 64 114q29 20 61.5 29.5t68.5 9.5q89 0 139 -58q34 -40 73 -149l-9 162q-2 49 -3.5 88t-1.5 71l32 -32q-2 -8 -2 -16q-2 -61 50 -60q6 0 16 1zM767 588h-171l-58 56h172zM631 56q-12 68 -12 267q2 63 -10 62q-5 1 -11 0.5t-18 -5t-31 -12.5
t-48 -22v86q35 14 66.5 25t56 10t40 -18.5t17.5 -59.5q-9 -94 -5.5 -188.5t20.5 -188.5z" />
    <glyph glyph-name="u0997_u09CD_u09B2" horiz-adv-x="575" 
d="M588 588h-102v-680l-30 15q-1 26 -7 59.5t-21 81.5q-9 28 -25.5 41t-37.5 13q-26 0 -34.5 -18t-8.5 -39q0 -9 1 -17l2 -16l-22 -8q-5 42 -39 70t-79 28q-18 0 -34 -5.5t-28 -14.5q-27 -24 -27 -59q0 -56 72 -69q-9 11 -11 22t-3 22q2 23 20 40.5t41 17.5q30 0 49 -28
q15 -24 15 -57q0 -28 -24.5 -47.5t-55.5 -19.5q-62 0 -110 40q-45 39 -45 105q0 53 26 88q15 21 35.5 31t44.5 10q65 0 124 -68q0 12 6 24t15 21.5t20.5 15.5t23.5 6q29 0 50 -21t34 -42v85t0.5 78.5t0.5 58.5v25q0 31 -13 61.5t-34 59.5q-52 72 -117 72q-97 0 -134 -89
q42 18 73 18q24 0 44.5 -6.5t35.5 -17.5q16 -14 25 -32.5t9 -42.5q0 -32 -30.5 -80.5t-84.5 -107.5l-65 74q13 9 31 26.5t38 40.5q24 26 37.5 45t13.5 28q0 27 -33 27q-12 0 -54 -25q-20 -11 -35 -17.5t-24 -6.5q-22 0 -44 28q-19 25 -19 52q0 69 64 114q29 20 61.5 29.5
t68.5 9.5q89 0 139 -58q34 -40 72 -149l-8 162q-2 49 -3.5 88t-1.5 71l32 -32l-1 -16q0 -32 11.5 -46t37.5 -14q6 0 9.5 0.5t6.5 0.5z" />
    <glyph glyph-name="u0997_u09AC_u09CD" horiz-adv-x="559" 
d="M467 588v-634l-20 10t-21 11q-23 54 -82 81.5t-147 29.5l-66 84q100 63 161 98.5t112 67.5q0 4 1 10.5t1 11.5q1 5 1 11v9q0 67 -50 127q-54 65 -117 65q-97 0 -134 -88l48 8q38 7 45 7q20 0 36 -8.5t27.5 -23t17.5 -33.5t6 -39q0 -33 -47 -82q-20 -21 -75 -65l-63 71
q18 14 37 26t37 24q58 41 58 59q0 27 -32 27q-15 0 -57 -25q-20 -11 -34 -17.5t-22 -6.5q-25 0 -45 26q-19 25 -19 54q0 32 13.5 60.5t37.5 50.5q47 41 116 41q187 0 223 -150h2v265l32 -32q-2 -5 -2 -7.5t-1 -4.5q-1 -3 -1 -4q0 -67 69 -59l55 -56h-101zM404 258
q-118 -67 -169 -105q119 -27 169 -92v197z" />
    <glyph glyph-name="u0998_u09CD_u09A8" horiz-adv-x="513" 
d="M425 588v-656l-18 13q-12 45 -33 84t-49 74q-18 22 -37.5 34t-37.5 12q-10 0 -19 -2.5t-19 -9.5q38 -32 38 -65q-6 -65 -76 -68q-91 0 -91 100q3 51 44 80q39 29 85 29q48 0 103 -47t68 -96l-6 74q-4 27 -23 50t-51 40t-65.5 26.5t-66.5 9.5q-16 0 -28 -3l-75 77l92 84
q-14 -5 -32.5 -6t-35.5 5q-26 10 -42.5 38t-10.5 70q6 32 23 53h-70l-55 56h528l55 -56h-95zM370 588h-188q-60 0 -60 -63q3 -38 38 -52q44 -11 88 34l58 -48l-122 -122q62 -16 104 -41q41 -24 82 -69v361z" />
    <glyph glyph-name="u0998_u09F0_u09CD" horiz-adv-x="538" 
d="M406 12v66q-86 155 -250 155l-74 78q37 40 117 114q-22 -8 -44 -8q-44 0 -80 30q-18 16 -27 35.5t-9 40.5q0 31 19 65h-61l-55 56h551l55 -56h-91v-669q-5 3 -17.5 18.5t-34.5 41.5q-14 16 -32.5 25.5t-41.5 11.5h-100q-49 0 -87 5.5t-55 13.5q-45 20 -63 54.5t-18 83.5
q0 17 5 42t14 57l21 -21q-4 -5 -5 -14t-1 -23q0 -90 85 -108q69 -5 114 -9q114 -13 165 -85zM400 152v436h-205q-12 0 -23.5 -7t-20.5 -17.5t-14 -23.5t-5 -26q0 -26 19 -43t45 -17q57 0 90 45l59 -59q-33 -20 -69.5 -54t-71.5 -78q130 -52 196 -156z" />
    <glyph glyph-name="u0998_u09AC_u09CD" horiz-adv-x="539" 
d="M457 588v-686l-39 31q-30 59 -73 80q-27 12 -44.5 18.5t-49.5 7.5l-48 67l132 91q-44 33 -89.5 50t-89.5 19l-74 77l116 82q-20 -8 -43 -8q-44 0 -80 30q-18 16 -27 35.5t-9 40.5q0 31 19 65h-60l-55 56h548l54 -56h-88zM400 588h-205q-13 0 -24.5 -6t-20 -16.5
t-13.5 -24t-5 -27.5q0 -28 19 -44t45 -16q57 0 90 45l59 -59l-141 -100q152 -61 196 -132v380zM400 160l-97 -72q34 -13 55.5 -30t41.5 -47v149z" />
    <glyph glyph-name="u0999_u09CD_u0995" horiz-adv-x="601" 
d="M604 588h-85q15 -39 15 -57q0 -30 -23 -47t-53 -17q-39 0 -85 45q-17 19 -33.5 37.5t-33.5 38.5h-151q30 -20 36 -48q45 -7 77 -14.5t49 -17.5q25 -16 44 -43t26 -62q74 -15 124 -63q54 -54 54 -124q0 -39 -21 -64q-22 -28 -58 -28q-22 0 -40 15t-18 37q0 25 25 50
q17 5 30 5q29 0 50 -33q0 54 -40 88q-38 32 -85 32h-18v-331l-20 16q-78 160 -226 170l-74 87q58 39 127 76t136 64v12q0 26 -20 49q-21 24 -47 24q-50 0 -72 -30v-15q0 -38 -23.5 -60t-53.5 -22q-35 0 -52 22t-17 51q0 38 22.5 58t69.5 37l1 8q-21 43 -59 52q-5 1 -30 1.5
t-48 0.5l-58 56h599zM482 588h-133l42 -44q24 -21 51 -21q18 0 36 10t18 27q0 16 -14 28zM334 110v205q-38 -14 -76.5 -34.5t-80.5 -47.5q20 -7 41 -20t44 -33q23 -19 40.5 -36.5t31.5 -33.5z" />
    <glyph glyph-name="u0999_u09CD_u0995_u09F0_u09CD" horiz-adv-x="601" 
d="M615 588h-96q15 -39 15 -57q0 -30 -23 -47t-53 -17q-39 0 -85 45q-17 19 -33.5 37.5t-33.5 38.5h-151q30 -20 36 -48q45 0 77 -11t49 -21q25 -16 44 -43t26 -62q74 -15 124 -63q54 -54 54 -124q0 -39 -21 -64q-22 -28 -58 -28q-22 0 -40 15t-18 37q0 25 16 40t39 15
q29 0 50 -33q0 54 -40 88q-20 17 -43.5 24.5t-59.5 7.5v-398q-3 2 -11 8.5t-16 12.5q-14 16 -29 29.5t-32 22.5q-19 10 -36.5 14t-34 5.5t-33.5 1t-36 1.5q-83 1 -127 37.5t-44 120.5q0 33 2 51.5t4 33.5l30 -29q-2 -5 -5.5 -23.5t-3.5 -33.5q0 -31 26 -49.5t64 -22.5t70 -7
t61 -13q22 -8 47 -23.5t53 -46.5v47q-73 107 -195 116l-74 87q58 39 127 76t136 64q0 22 -4.5 35.5t-15.5 25.5q-21 24 -47 24q-50 0 -72 -30q0 -46 -22 -71.5t-55 -25.5q-70 0 -70 59q0 38 23 66t71 51q-22 45 -59 54h-93l-58 56h624zM334 110v205q-38 -14 -76.5 -34.5
t-80.5 -47.5q20 -7 41 -20t44 -33q23 -19 40.5 -36.5t31.5 -33.5zM483 588h-134l42 -44q24 -21 51 -21q18 0 36 10t18 27q0 15 -13 28z" />
    <glyph glyph-name="u0999_u09CD_u0995_u09CD_u09B7" horiz-adv-x="1040" 
d="M1063 588h-260v-92q8 1 17 1.5t23 0.5q65 0 115 -42q47 -42 49 -105q-1 -23 -8.5 -41.5t-20 -32t-28 -21.5t-31.5 -9q-71 0 -73 59q0 26 14.5 42.5t35.5 16.5q37 0 65 -35q9 16 9 33q0 32 -44 53q-32 13 -70 13q-29 0 -51 -8v-413l-24 30q-17 47 -29 77.5t-20 44.5
q-35 59 -96 88q-19 -55 -77 -55q-30 0 -51.5 20.5t-21.5 51.5q0 21 9 36t23 24t31 12.5t34 0.5q6 15 6 32q0 16 -6.5 31.5t-17 27t-25 18.5t-30.5 7q-14 0 -30 -13q0 -29 -22 -51q-20 -20 -46 -23q26 -47 26 -98q0 -4 -1 -14.5t-4.5 -24t-11.5 -29t-21 -28.5
q-17 -17 -42.5 -28t-61.5 -11h-15q-34 4 -69.5 24t-68.5 54t-61.5 80t-46.5 102q-10 31 -15.5 65.5t-11.5 81.5l28 -22l6 -28q10 -43 20.5 -76t31.5 -70q17 -26 36.5 -49.5t54.5 -50.5q23 -17 43.5 -26t50.5 -10h11q32 0 61.5 11.5t39.5 39.5q3 10 3 22q0 23 -10.5 45
t-24.5 37q-8 -11 -21.5 -25t-30.5 -24q-16 -10 -31.5 -13.5t-31.5 -3.5q-25 0 -41 8t-31 23q-13 15 -19 35.5t-6 43.5q0 35 5 65.5t13 56.5q4 11 10 26t16 32h-203l-55 56h1073zM750 194v224q-66 6 -119 54q-52 49 -59 116h-136v-8q0 -29 20 -55l35 -12q29 -11 58.5 -31.5
t52.5 -46.5q23 -29 36.5 -62t15.5 -66q66 -42 96 -113zM232 517q-17 -35 -25.5 -61t-8.5 -52q0 -14 2 -25q4 -15 12 -24t20 -9q11 0 28 5.5t33 23.5q5 5 15 17.5t22 35.5q-4 32 9 56h-8q-34 0 -57 7.5t-42 25.5zM749 489v99h-110q-13 0 -13 -26q4 -75 94 -75h14t15 2z
M252 545q5 -7 11.5 -11.5t15 -7.5t25 -5t30 0.5t30.5 11.5t17 29q-1 15 -11 26h-70q-10 -3 -23 -13.5t-25 -29.5z" />
    <glyph glyph-name="bn_uo_k_shh_ra" horiz-adv-x="1030" 
d="M1063 588h-260v-92q8 1 17 1.5t23 0.5q65 0 115 -42q49 -43 49 -105q-2 -45 -20.5 -71.5t-50.5 -32.5q-34 1 -59.5 15.5t-30.5 43.5q-1 26 14 42.5t36 16.5q36 2 65 -35q9 16 9 33q0 32 -44 53q-32 13 -70 13q-29 0 -51 -8v-481q-5 3 -17.5 18.5t-33.5 41.5
q-14 16 -32.5 25.5t-42.5 11.5q-12 0 -31 -2.5t-43 -8.5q-26 -6 -49 -9.5t-44 -3.5q-36 0 -64 11q-81 34 -87 121q-13 -5 -29 -8t-36 -3h-15q-34 4 -69.5 24t-68.5 54t-61.5 80t-46.5 102q-11 35 -16.5 72.5t-10.5 74.5l28 -22v1q10 -47 22.5 -91.5t35.5 -83.5
q17 -26 36.5 -49.5t54.5 -50.5q23 -17 43.5 -26t50.5 -10h11q32 0 61.5 11.5t39.5 39.5q3 10 3 22q0 23 -10.5 45t-24.5 37q-8 -11 -21.5 -25t-30.5 -24q-16 -10 -31.5 -13.5t-31.5 -3.5q-25 0 -41 8t-31 23q-14 15 -19.5 35.5t-5.5 43.5q0 35 5 65.5t13 56.5q4 11 10 26
t16 32h-203l-55 56h1073zM755 33v72q-8 18 -13 31.5t-10 22.5q-34 60 -96 89q-19 -55 -77 -55q-30 0 -51.5 20.5t-21.5 51.5q0 37 29 57t68 16q6 15 6 32q0 16 -6.5 31.5t-17 27t-25 18.5t-30.5 7q-14 0 -30 -13q0 -29 -22 -51q-20 -20 -46 -23q26 -47 26 -98q0 -4 -1 -14.5
t-4.5 -24t-11.5 -29t-21 -28.5q10 -67 81 -82q15 -3 33 -3q25 0 52 6q28 10 65 12q36 -1 66.5 -19t55.5 -56zM750 194v224q-66 6 -119 54q-52 49 -59 116h-136q0 -2 0.5 -4t0.5 -4q1 -4 1.5 -7t0.5 -7l14 -34l3 -7l35 -12q29 -11 58.5 -31.5t52.5 -46.5q23 -29 36.5 -62
t15.5 -66q67 -43 94 -113h2zM232 517q-17 -35 -25.5 -61t-8.5 -52q0 -14 4 -25q2 -15 10 -24t20 -9q11 0 28 5.5t33 23.5q5 5 15 17.5t22 35.5q-1 6 -1.5 11.5t0.5 11.5q2 19 10 33h-8q-34 0 -57 7.5t-40 26.5zM749 489v99h-110q-13 0 -13 -26q4 -75 94 -75h13.5t14.5 1z
M275 574q-5 -4 -9 -8.5t-7 -9.5q-4 -5 -7 -11q5 -7 12 -11q6 -5 14.5 -8t20.5 -5h11q14 0 25.5 1.5t21.5 6.5q24 13 24 33q0 8 -4 17l-7 9h-70q-5 -1 -9.5 -3.5t-9.5 -5.5h1z" />
    <glyph glyph-name="u0999_u09CD_u0996" horiz-adv-x="890" 
d="M899 588h-87v-582q-11 10 -20 23.5t-14 26.5q-35 97 -110 151t-175 65l-75 94q12 -23 17 -48.5t5 -48.5q0 -4 -1 -14.5t-4.5 -24t-11.5 -29t-21 -28.5q-17 -17 -44 -28t-73 -11q-35 4 -71 24t-69 54t-61.5 80t-46.5 102q-10 31 -15 65.5t-12 81.5l28 -22l14 -56t13 -44.5
t14.5 -38t18.5 -35.5q14 -23 35.5 -49.5t53.5 -50.5q22 -17 43 -25.5t51 -10.5q20 0 40.5 3.5t37 12t27 22.5t10.5 35q0 23 -10.5 45t-24.5 37q-8 -11 -21.5 -24.5t-30.5 -24.5q-16 -10 -31.5 -13.5t-31.5 -3.5q-25 0 -41 8t-31 23q-14 15 -19.5 35.5t-5.5 43.5q0 35 5 65.5
t13 56.5q4 11 11 26t16 32h-194l-55 56h370q48 0 74.5 -10t44.5 -37q30 -9 33 -48q17 3 34.5 12.5t35.5 23.5q2 1 18.5 17.5t35.5 34.5q32 -27 52 -45t25 -23q40 -43 40 -89q0 -49 -39 -94q-39 -43 -90 -57q60 -30 105.5 -69.5t73.5 -88.5v577q6 -5 15 -10t16 -10
q0 -17 2 -34t4 -23q11 -24 47 -27zM333 484q-34 0 -57 7.5t-41 27.5q-17 -36 -25 -62.5t-8 -52.5q0 -9 1 -19t4.5 -19t9.5 -14.5t17 -5.5q12 0 29 5.5t32 23.5q7 7 17.5 20.5t22.5 37.5q17 -8 34 -20t29 -25q11 -2 22 -3.5t25 -1.5q29 0 60 7.5t63 21.5q38 17 60 37.5
t22 43.5q0 35 -29 61q-92 -92 -184 -92q-32 0 -59 22l-5 4q-19 -4 -40 -4zM277 574q-9 -8 -16 -18q-4 -5 -7 -11q5 -6 14 -10q8 -4 19 -7.5t28 -5.5q15 0 24.5 2t19.5 6q14 6 19 13.5t5 18.5q0 17 -13.5 24.5t-27.5 7.5q-23 -1 -37.5 -6t-27.5 -14z" />
    <glyph glyph-name="u0999_u09CD_u0997" horiz-adv-x="551" 
d="M415 588q9 -18 9 -20q0 -14 -6 -26t-16 -22t-23 -15.5t-26 -5.5q-32 0 -71 32l-58 57h-54q-6 -20 -6 -28q0 -11 34 -32q25 -15 40.5 -25t21.5 -18q35 -35 35 -94q35 48 75.5 81.5t83.5 50.5q23 -15 45.5 -30.5t46.5 -30.5q-63 -57 -97.5 -127t-34.5 -161q0 -104 46 -180
l-43 23q-21 57 -33.5 111t-12.5 102q0 40 11 85t34 96q-20 -20 -46 -51t-61 -75q-18 -22 -36.5 -43.5t-37.5 -38t-39 -27t-42 -10.5q-30 0 -59 29q-17 17 -26.5 39.5t-13.5 48.5l24 28q13 -60 48 -60q44 0 87 49q43 52 43 96q0 66 -59 66q-8 0 -15.5 -2.5t-9.5 -8.5
q0 -76 -60 -76q-75 0 -75 75q0 35 26 59.5t61 27.5v2q1 14 -6.5 26t-20.5 23h-109l-54 56h582l54 -56h-156zM366 588h-107q45 -48 75 -54q36 0 36 37z" />
    <glyph glyph-name="u0999_u09CD_u0998" horiz-adv-x="934" 
d="M941 588h-92v-587l-26 25q-85 208 -254 208q-8 0 -13 -0.5t-7 -0.5l-74 78q37 40 117 114q-24 -8 -44 -8q-22 0 -43 8.5t-37.5 23t-26.5 34t-10 42.5q-5 -6 -11 -11q-5 -5 -12 -9.5t-15 -7.5q-32 -13 -62 -13q-34 0 -56.5 7.5t-41.5 27.5q-17 -36 -24 -59.5t-7 -51.5
q0 -9 1 -19t4.5 -19t10 -14.5t16.5 -5.5q8 0 19.5 3t24 11.5t26.5 25t28 43.5q27 -12 46.5 -30t33 -39.5t20 -46t6.5 -48.5q0 -6 -4 -28t-20 -46.5t-47 -44.5t-86 -21q-17 1 -36.5 8t-39 17.5t-38 24.5t-31.5 30q-28 32 -56.5 78.5t-45.5 106.5q-11 37 -16 73.5t-10 73.5
l28 -22q10 -44 20.5 -81.5t26.5 -70.5t40 -63.5t62 -58.5q22 -17 44 -24.5t61 -7.5q19 0 37 3.5t32.5 12t23.5 22t9 34.5q0 22 -10 42.5t-23 36.5q-10 -12 -21.5 -23.5t-26 -21t-31 -15.5t-36.5 -6q-46 0 -71.5 29.5t-25.5 80.5q0 27 2 49.5t7 44t13.5 42.5t21.5 44h-193
l-55 56h943zM793 152v436h-205q-13 0 -24.5 -7t-20 -18t-13.5 -24t-5 -25q0 -26 19 -43t45 -17q56 0 89 45l60 -59q-33 -20 -69.5 -54t-72.5 -78q133 -52 197 -156zM310 591q-17 -5 -35.5 -18.5t-22.5 -27.5q4 -6 17 -16t39 -10q30 0 51.5 10t21.5 33q0 4 -2 11.5t-9 13.5
q-9 5 -16.5 6t-20.5 1t-23 -3z" />
    <glyph glyph-name="u0999_u09CD_u0998_u09F0_u09CD" horiz-adv-x="936" 
d="M941 588h-92v-647q-5 3 -17.5 18.5t-33.5 41.5q-14 16 -32.5 25.5t-42.5 11.5h-99q-50 0 -89 5.5t-67 17.5q-69 27 -84 99l-11 -8q-14 -8 -34 -13t-43 -5h-15q-34 4 -69.5 24t-68.5 54t-61 80t-47 102q-5 16 -9 35t-7.5 38.5t-6 38.5t-4.5 35l28 -22l6 -24
q8 -35 17 -67.5t24.5 -63.5t39.5 -61t62 -58q22 -17 44 -26.5t61 -9.5q19 0 37.5 4t33.5 13t24 22.5t9 33.5q0 23 -11 44.5t-24 37.5q-10 -12 -21.5 -23.5t-26 -21t-31 -15.5t-36.5 -6q-46 0 -71.5 29.5t-25.5 80.5q0 27 2 49.5t7 44t13.5 42.5t21.5 44h-193l-55 56h943z
M799 34v43q-84 157 -230 157h-9q-2 0 -5.5 -0.5t-5.5 -0.5l-74 78q37 40 117 114q-21 -8 -44 -8q-22 0 -43 8.5t-37 23t-26 34.5t-11 44l-6 -7q-5 -5 -11.5 -10.5t-20.5 -12.5q-24 -12 -62 -13q-34 0 -56.5 7.5t-41.5 27.5q-17 -37 -26 -62.5t-9 -51.5q0 -9 1 -19.5t5 -19
t10.5 -14.5t17.5 -6q8 0 19.5 3.5t24.5 13t27.5 26.5t28.5 44q27 -12 46.5 -30t33 -39.5t20 -46t6.5 -48.5q0 -14 -3 -29q-2 -8 -7 -19.5t-10 -21.5q17 -59 82 -71q45 -2 78 -4.5t56 -5.5q113 -12 165 -84zM793 152v436h-205q-13 0 -24.5 -7t-20 -18t-13.5 -24t-5 -25
q0 -26 19 -43t45 -17q56 0 89 45l60 -59q-33 -20 -69.5 -54t-72.5 -78q67 -26 115.5 -64.5t81.5 -91.5zM310 591q-17 -5 -35.5 -18.5t-22.5 -27.5q4 -6 16 -15.5t31 -10.5h9q30 0 51.5 10t21.5 33q0 8 -4 17l-7 8q-9 5 -16 6t-15 1h-6q-13 0 -23 -3z" />
    <glyph glyph-name="u0999_u09CD_u09AE" horiz-adv-x="707" 
d="M661 644l57 -56h-114v-729l-30 24v-1q-48 143 -98 127q-8 -29 -30 -48.5t-50 -19.5q-36 0 -59.5 22t-23.5 57q0 17 6 32.5t19 27.5t32 19t46 7q-3 32 -38 49q-20 -13 -39.5 -17.5t-35.5 -4.5q-43 -1 -81 16t-72.5 50.5t-63.5 82.5t-49 112q-11 36 -16.5 72.5t-10.5 74.5
l28 -22l4 -16q8 -36 18 -70t26.5 -66t40.5 -62.5t60 -59.5q23 -17 46 -27t55 -10q19 0 38 4t34.5 12.5t25.5 22.5t10 35q0 23 -10.5 45t-24.5 37q-19 -23 -48 -44.5t-67 -21.5q-45 0 -71.5 30.5t-26.5 79.5q0 27 2.5 49t8 43t14.5 42t21 45h-194l-55 57h716zM469 98
q32 -19 52 -36.5t26 -35.5h2v562h-110q1 -6 1.5 -11.5t0.5 -10.5q0 -25 -10.5 -42t-26.5 -28t-35 -16t-36 -5q-34 0 -57.5 12t-40.5 32q-17 -36 -26.5 -63t-9.5 -52q0 -26 8.5 -42t26.5 -16q19 0 45 16.5t55 70.5q27 -12 47 -30t33 -40.5t19.5 -47t6.5 -48.5
q0 -5 -3.5 -23.5t-18.5 -39.5q37 -46 50 -105zM254 547q0 -1 3.5 -7t10.5 -13t17.5 -12.5t24.5 -5.5q32 0 52.5 16t20.5 37q0 9 -5 15.5t-12.5 10t-16 5t-14.5 1.5q-30 -1 -51 -13.5t-30 -33.5z" />
    <glyph glyph-name="u0999_u09F0_u09CD" horiz-adv-x="591" 
d="M333 20q-78 0 -138 44t-102 125q-24 54 -45 133.5t-34 176.5l28 -22q42 -184 112 -275t167 -91q56 0 99 29q45 33 45 89q0 33 -35 71q-18 -27 -66 -61q-24 -18 -43 -26.5t-31 -8.5q-22 0 -50 20q-56 45 -56 121l4 96q-112 85 -158 152l84 23l32 -62q19 -34 44 -57
q45 115 143 115q105 0 105 -96q0 -51 -42 -78q-36 -23 -90 -23q-46 0 -68 15v-106q0 -41 37 -41q28 0 68 40q15 16 27.5 33.5t20.5 34.5q54 -21 87 -75t33 -113q0 -41 -12.5 -75t-35.5 -58t-56 -37t-74 -13zM367 556q-19 0 -38 -6.5t-35 -18t-28 -27.5t-18 -34q7 -9 27 -9
q17 0 36.5 5t36.5 13q47 21 47 53q0 24 -28 24zM456 -118v284l50 50v-427q-4 4 -16 19t-35 41q-29 34 -78 41h-48h-48q-49 0 -88.5 4t-67.5 15q-40 19 -63 52.5t-23 82.5q0 17 5 41.5t14 56.5l21 -21q-7 -10 -7 -38q0 -89 85 -108q32 -7 65.5 -6.5t80.5 -0.5q103 -9 153 -86
z" />
    <glyph glyph-name="u099A_u09CD_u099A" horiz-adv-x="750" 
d="M755 588h-361q0 -16 5.5 -31t11.5 -23q13 -19 54 -49q11 -8 29 -16t44 -15q30 -9 51.5 -16t35.5 -15q50 -26 50 -78q0 -32 -11.5 -66.5t-31.5 -66.5q-24 -33 -50 -61.5t-52 -49.5t-50.5 -32.5t-46.5 -11.5q-36 0 -65 44q-15 19 -22 35t-7 28v49q-89 -116 -172 -116
q-35 0 -66 38q-28 42 -28 70v383h-83l-55 56h763zM585 350q-3 3 -13 7t-22 9q-11 5 -24 10t-26 14q-44 26 -66 49.5t-38 52.5h-2v-327q0 -33 24 -33t57 25.5t74 73.5q20 23 32 46.5t12 46.5q0 7 -1.5 14t-6.5 12zM299 350q-10 9 -38 24q-5 2 -11.5 5.5t-14.5 10.5
q-44 26 -66 49.5t-38 52.5h-2v-286q0 -34 24 -34q23 0 55.5 26t74.5 74q11 13 16.5 25t5.5 27q0 7 -1 14t-5 12zM144 534q16 -19 55 -49q11 -7 41.5 -20t59.5 -25l39 -17v165h-210q0 -17 5 -31.5t10 -22.5z" />
    <glyph glyph-name="u099A_u09CD_u099B" horiz-adv-x="808" 
d="M849 -84q-88 91 -194.5 141.5t-231.5 63.5l-56 104q24 -8 44 -11.5t38 -3.5q48 0 90 10t78 28q47 23 71.5 57t24.5 78q0 61 -80 61l-15 -4l4 -22q-5 -49 -66 -101q-28 -21 -57.5 -34t-53.5 -13q-14 0 -26 3.5t-25 11.5q-52 -94 -110.5 -141t-106.5 -47q-35 0 -65 44
q-29 36 -29 64v383h-83l-55 56h818l55 -56h-409q42 -88 136 -88q5 0 16 1t21 3t20 3t17 1q76 -3 115 -53q41 -50 35 -111q0 -66 -61 -117q-38 -34 -119 -75q99 -52 139 -83q23 -18 52.5 -46.5t62.5 -66.5zM309 350q-10 9 -38 24q-5 2 -11.5 5.5t-14.5 10.5q-44 26 -66 49.5
t-38 52.5h-2v-286q0 -34 24 -34q23 0 55.5 26t74.5 74q11 13 16.5 25t5.5 27q0 7 -1 14t-5 12zM358 588h-219q0 -16 5 -31t10 -23q8 -9 22.5 -22t32.5 -27q11 -7 41.5 -20t59.5 -25l38 -17h-2l5 -2.5t7 -2.5v170zM543 439q-81 18 -130 85v-170q0 -33 21 -33q18 0 37 11.5
t36 28.5q17 19 27.5 39t9.5 38z" />
    <glyph glyph-name="u099A_u09CD_u099B_u09F0_u09CD" horiz-adv-x="811" 
d="M849 -84q-23 23 -48 45t-53 42v-184q-5 5 -18 20.5t-34 39.5q-14 16 -32.5 26t-41.5 12h-100q-101 0 -156 23q-87 37 -87 133q0 14 3 34t11 46q-32 -29 -61.5 -42.5t-54.5 -13.5q-35 0 -65 44q-29 36 -29 64v383h-83l-55 56h818l55 -56h-409q42 -88 136 -88q5 0 16 1
t21 3t20 3t17 1q76 -3 115 -53q41 -50 35 -111q0 -66 -61 -117q-38 -34 -119 -75q99 -52 139 -83q23 -18 52.5 -46.5t62.5 -66.5zM697 -88v122q-61 35 -131 57t-143 30l-56 104q24 -8 44 -11.5t38 -3.5q48 0 90 10t78 28q47 23 71.5 57t24.5 78q0 61 -80 61l-15 -4l4 -22
q-5 -49 -66 -101q-28 -21 -57.5 -34t-53.5 -13q-14 0 -26 3.5t-25 11.5q-19 -37 -41.5 -67t-45.5 -53q2 -2 6.5 -7t6.5 -7q-7 -10 -7 -37q0 -89 86 -107q20 -5 47 -6q31 -1 53 -1.5t36 -2.5q112 -12 160 -86zM309 350q-10 9 -38 24q-5 2 -11.5 5.5t-14.5 10.5
q-44 26 -66 49.5t-38 52.5h-2v-286q0 -34 24 -34q23 0 55.5 26t74.5 74q11 13 16.5 25t5.5 27q0 7 -1 14t-5 12zM358 588h-219q0 -16 5 -31t10 -23q8 -9 22.5 -22t32.5 -27q11 -7 41.5 -20t59.5 -25l38 -17h-2l5 -2.5t7 -2.5v170zM543 439q-81 18 -130 85v-170q0 -33 21 -33
q18 0 37 11.5t36 28.5q17 19 27.5 39t9.5 38z" />
    <glyph glyph-name="u099A_u09CD_u099B_u09AC_u09CD" horiz-adv-x="813" 
d="M701 -254q-8 3 -18 8l-18 9q-26 63 -72 97t-104 36q-8 25 -19 51.5t-20 51.5l101 69h-1l32 18q-38 14 -78 22t-81 13l-56 104q24 -8 44 -11.5t38 -3.5q48 0 90 10t78 28q47 23 71.5 57t24.5 78q0 61 -80 61l-15 -4l4 -22q-5 -49 -66 -101q-28 -21 -57.5 -34t-53.5 -13
q-14 0 -26 3.5t-25 11.5q-52 -94 -110.5 -141t-106.5 -47q-35 0 -65 44q-29 36 -29 64v383h-83l-55 56h818l55 -56h-409q42 -88 136 -88q5 0 16 1t21 3t20 3t17 1q76 -3 115 -53q41 -50 35 -111q0 -66 -61 -117q-38 -34 -119 -75q99 -52 139 -83q23 -18 52.5 -46.5
t62.5 -66.5l7 -41q-35 35 -71.5 64.5t-77.5 54.5v-288zM309 350q-10 9 -38 24q-5 2 -11.5 5.5t-14.5 10.5q-44 26 -66 49.5t-38 52.5h-2v-286q0 -34 24 -34q23 0 55.5 26t74.5 74q11 13 16.5 25t5.5 27q0 7 -1 14t-5 12zM358 588h-219q0 -16 5 -31t10 -23q8 -9 22.5 -22
t32.5 -27q11 -7 41.5 -20t59.5 -25l38 -17h-2l5 -2.5t7 -2.5v170zM543 439q-81 18 -130 85v-170q0 -33 21 -33q18 0 37 11.5t36 28.5q17 19 27.5 39t9.5 38zM652 -147v195q-26 -14 -57 -35t-68 -50q39 -9 72 -38.5t51 -71.5h2z" />
    <glyph glyph-name="u099A_u09CD_u099E" horiz-adv-x="1143" 
d="M807 -2q-12 1 -26 37q-9 26 -17.5 43.5t-14.5 27.5q-30 38 -83 38q-36 0 -66.5 -2t-58.5 -2q-13 0 -25 1t-24 3q-49 11 -87 33.5t-53 57.5q-48 -70 -94.5 -104t-91.5 -34q-33 0 -65 44q-30 39 -30 64v383h-83l-54 56h619l38 -38q50 43 117 43q27 0 64 -32q36 -30 36 -57
v-137q8 26 24.5 51t42.5 52q54 55 105 55q46 0 84 -39q36 -38 36 -87q0 -29 -11.5 -58t-36.5 -55q56 -43 56 -116q0 -22 -6.5 -44.5t-15.5 -39.5q-25 -40 -72 -40q-26 0 -54 9.5t-57 32.5q-5 4 -31.5 28t-63.5 66zM163 513q29 -22 63 -39t72 -34q16 -6 33 -14.5t31 -20
t23.5 -26t9.5 -33.5q0 -30 -8 -50q3 -15 12.5 -26.5t22 -20t27.5 -13.5t29 -6q34 -3 68.5 -5t72.5 -8q76 -11 133 -65v424q0 17 -39 17q-51 0 -87 -60q-20 -36 -31 -94q8 3 15 4t13 1q14 0 23.5 -6t15.5 -16t9 -21.5t3 -22.5q0 -61 -76 -66q-97 0 -97 98q0 50 18 93.5
t53 84.5h-445q1 -29 9.5 -45t26.5 -30zM1065 244q0 18 -35 53q-14 -13 -33 -19t-27 -6q-30 0 -50.5 18t-20.5 46q0 25 20.5 42t47.5 17q17 0 32 -4t29 -11q26 42 26 63q0 26 -20 42.5t-46 16.5q-58 0 -118 -57q-58 -58 -58 -114q0 -61 51 -105q51 -45 111 -45q35 0 60 13
q31 19 31 50zM297 350q-10 10 -38 24q-42 20 -75 50.5t-57 67.5v-286q0 -34 24 -34q48 0 130 99q6 7 11.5 17.5t8.5 21.5t2.5 21.5t-6.5 18.5z" />
    <glyph glyph-name="u099A_u09CD_u09A8" horiz-adv-x="474" 
d="M481 588h-345q-6 -83 136 -128q141 -47 135 -114q0 -37 -17 -80q0 -125 1 -247t1 -247l-18 13v-1q-28 92 -83 158q-35 47 -75 47q-19 0 -38 -11q38 -31 38 -66q-6 -64 -75 -68q-88 5 -92 100q5 52 45 80q42 30 84 30q50 0 103 -48q28 -23 44 -44t24 -40h2l-12 262
q-80 -104 -162 -104q-30 0 -63 37q-31 37 -31 70v401h-86l-55 56h482zM317 350q-122 43 -177 142h-2v-304q0 -34 25 -34q48 0 103 68q27 34 41 59t14 44q0 7 -3 24z" />
    <glyph glyph-name="u099A_u09F0_u09CD" horiz-adv-x="432" 
d="M355 -65v268q-4 -5 -8 -9t-6 -8q-39 -49 -81.5 -77.5t-82.5 -28.5q-30 0 -63 37q-31 37 -31 70v401h-86l-55 56h482l57 -56h-345q-6 -83 136 -128q141 -47 135 -114q0 -18 -3 -34v-468q-6 5 -44 49l-7 9q-13 15 -26.5 25.5t-25.5 12.5h-98q-67 0 -122 23q-87 36 -87 134
q0 32 20 98l21 -21q-5 -5 -6 -14t-1 -22q0 -90 85 -108l99 -15q90 -8 141 -81zM317 350q-122 43 -177 142h-2v-304q0 -34 25 -34q48 0 103 68q27 34 41 59t14 44q0 7 -3 24z" />
    <glyph glyph-name="u099A_u09AC_u09CD" horiz-adv-x="471" 
d="M481 588h-345q-6 -83 136 -128q141 -47 135 -114q0 -35 -17 -75t-49 -85q-39 -49 -81.5 -77.5t-82.5 -28.5q-30 0 -63 37q-31 37 -31 70v401h-86l-55 56h482zM317 350q-122 43 -177 142h-2v-304q0 -34 25 -34q48 0 103 68q27 34 41 59t14 44q0 7 -3 24zM383 -204
q-27 15 -53 53q-29 42 -48 58q-37 25 -102 27l-49 66q57 38 108 72.5t99 65.5q0 14 0.5 27.5t0.5 25.5q0 11 -0.5 21t-0.5 18q0 30 45 44v-478zM336 60q-21 -13 -53 -33.5t-72 -48.5q71 -15 125 -86v168z" />
    <glyph glyph-name="u099B_u09F0_u09CD" horiz-adv-x="556" 
d="M595 -84l-27 27t-27 24v-125l-25 20l-62 68q-33 25 -91 25q-14 0 -33.5 -1t-46.5 -3q-51 -6 -78 -6q-85 0 -133.5 44.5t-48.5 127.5q0 33 1.5 52.5t4.5 32.5l51 -37q-7 -8 -11.5 -22.5t-4.5 -34.5q0 -65 84 -77q44 -3 89 -4.5t88 -6.5q55 -9 97.5 -31t67.5 -58l-1 74
q-69 49 -149.5 78t-171.5 38q-14 26 -27.5 51.5t-27.5 52.5q24 -8 44 -11.5t38 -3.5q48 0 90 10t78 28q47 23 71.5 57t24.5 78q0 61 -80 61l-15 -4l3 -22q-3 -48 -65 -101q-28 -21 -57.5 -34t-53.5 -13q-16 0 -31.5 5.5t-28 15.5t-20 23.5t-7.5 28.5v245h-110l-55 56h570
l55 -56h-410q42 -88 137 -88q5 0 16 1t21 3t20 3t17 1q76 -3 115 -53q42 -51 34 -111q0 -67 -60 -117q-38 -34 -119 -75q99 -52 139 -83q23 -18 52.5 -46.5t62.5 -66.5zM289 439q-81 18 -130 85v-170q0 -33 19 -33t38.5 11.5t36.5 28.5q17 19 27.5 39t9.5 38z" />
    <glyph glyph-name="u099B_u09AC_u09CD" horiz-adv-x="528" 
d="M561 -84q-88 91 -195 141.5t-232 63.5l-55 104q23 -8 43 -11.5t39 -3.5q48 0 89.5 10t78.5 28q95 47 95 135q0 61 -80 61q-2 0 -4 -1t-10 -3q1 -5 1 -9t1 -7q0 -4 1 -6q0 -47 -65 -101q-29 -21 -58.5 -34t-54.5 -13q-16 0 -31.5 5.5t-27.5 15.5t-19.5 23.5t-7.5 28.5v245
h-75l-55 56h536l54 -56h-408q40 -88 135 -88q6 0 16.5 1t20.5 3q11 2 20.5 3t17.5 1q75 -3 114 -53q41 -50 35 -111q0 -66 -61 -117q-19 -17 -48 -35.5t-71 -39.5q49 -26 84 -46.5t55 -36.5q23 -18 52.5 -46.5t62.5 -66.5zM254 439q-81 18 -130 85v-170q0 -33 20 -33
q18 0 37.5 11.5t36.5 28.5q17 19 27.5 39t9.5 38zM444 -274q-29 13 -58 56q-14 21 -26.5 36t-22.5 23q-18 14 -47 21.5t-61 8.5l-52 69q57 39 113.5 76.5t105.5 68.5q10 -5 28 -28q20 -21 20 -32v-299zM394 3q-23 -14 -57 -35t-76 -50q75 -16 133 -91v176z" />
    <glyph glyph-name="u099C_u09CD_u099C" horiz-adv-x="910" 
d="M919 588h-607q-21 0 -21 -19q0 -18 19 -30.5t43.5 -20.5t49.5 -12t37 -4q63 0 113 29q7 -11 20 -26.5t33 -29.5t48 -24.5t64 -10.5h14q14 1 33.5 6t42.5 13l69 -78q-43 -54 -66.5 -107t-23.5 -101q0 -23 0.5 -40.5t2 -33.5t3.5 -32.5t5 -37.5l6 -53q-8 4 -18 7.5t-18 7.5
q0 1 -1 1t-1 2q-2 8 -6.5 28t-9 45.5t-8 52.5t-3.5 49q0 20 4 47.5t12 62.5q1 12 31 92q-6 -1 -11.5 -1h-13.5q-35 0 -66 9t-57 22.5t-45 29t-30 28.5q-25 -9 -41 -24.5t-25.5 -31t-13.5 -30t-4 -21.5q0 -32 39 -32h8q19 0 38 10t33 20q8 5 14 8.5t8 3.5q5 0 17.5 -9.5
t25 -26t22.5 -37.5t10 -45q0 -22 -6 -49t-22 -50t-44 -39t-72 -16q-15 0 -35 3t-43 18t-49 46t-53 87q-9 -34 -37 -58.5t-63 -26.5h-14q-27 0 -57.5 9.5t-59 29.5t-52.5 51.5t-38 75.5q-7 20 -12 42t-11 46l-6 29q-2 28 -5.5 54t-6.5 54q7 -4 17.5 -9t17.5 -10
q10 -65 30 -119.5t46 -93.5t56.5 -60.5t61.5 -21.5q45 0 76 23t31 61q0 15 -7 32t-18 17q-5 0 -15.5 -5t-24.5 -11t-29 -11t-24 -5q-44 0 -71 30.5t-27 87.5q0 39 17 74t43 59h-187l-54 56h917zM640 246q0 8 -4 17t-14 20q-5 -4 -14.5 -9.5t-21 -10.5t-24 -8.5t-24.5 -3.5
q-24 0 -43.5 9t-33.5 24.5t-21.5 35.5t-7.5 42q0 8 2 21t5 26q4 15 8 31q-28 6 -54 14q-23 7 -48.5 16.5t-45.5 22.5q-5 3 -13 10t-16.5 15.5t-15 16.5t-8.5 13q-18 0 -31.5 -12t-22.5 -28.5t-14 -35.5t-5 -32q0 -35 38 -35t87 37q4 4 10 4q9 0 20 -8t21.5 -23t19.5 -35.5
t14 -44.5l8 -43q5 -24 20.5 -47.5t37 -42t47 -29.5t50.5 -11q19 0 36.5 6.5t30 18t20 26.5t7.5 33z" />
    <glyph glyph-name="u099C_u09CD_u099C_u09AC_u09CD" horiz-adv-x="910" 
d="M792 -193l-19 12l-30 44l-16 23q-62 54 -141 56l-49 67l201 137l1 23q0 20 4 47.5t12 62.5q1 12 31 92q-6 -1 -11.5 -1h-13.5q-35 0 -66 9t-57 22.5t-45 29t-30 28.5q-25 -9 -41 -24.5t-25.5 -31t-13.5 -30t-4 -21.5q0 -32 39 -32h8q19 0 38 10t33 20q8 5 14 8.5t8 3.5
q5 0 17.5 -9.5t25 -26t22.5 -37.5t10 -45q0 -22 -6 -49t-22 -50t-44 -39t-72 -16q-15 0 -35 3t-43 18t-49 46t-53 87q-9 -34 -37 -58.5t-63 -26.5h-14q-27 0 -57.5 9.5t-59 29.5t-52.5 51.5t-38 75.5q-8 23 -13 48.5t-12 54.5l-3 14q-11 53 -13 108q7 -4 17.5 -9t17.5 -10
q10 -65 30 -119.5t46 -93.5t56.5 -60.5t61.5 -21.5q45 0 76 23t31 61q0 15 -7 32t-18 17q-5 0 -15.5 -5t-24.5 -11t-29 -11t-24 -5q-44 0 -71 30.5t-27 87.5q0 39 17 74t43 59h-187l-54 56h917l55 -56h-607q-21 0 -21 -19q0 -18 19 -30.5t43.5 -20.5t49.5 -12t37 -4
q63 0 113 29q7 -11 20 -26.5t33 -29.5t48 -24.5t64 -10.5h14q14 1 33.5 6t42.5 13l69 -78q-85 -106 -85 -224v-350zM640 246q0 8 -4 17t-14 20q-5 -4 -14.5 -9.5t-21 -10.5t-24 -8.5t-24.5 -3.5q-24 0 -43.5 9t-33.5 24.5t-21.5 35.5t-7.5 42q0 8 2 21t5 26q4 15 8 31
q-28 6 -54 14q-23 7 -48.5 16.5t-45.5 22.5q-5 3 -13 10t-16.5 15.5t-15 16.5t-8.5 13q-18 0 -31.5 -12t-22.5 -28.5t-14 -35.5t-5 -32q0 -35 38 -35t87 37q4 4 10 4q9 0 20 -8t21.5 -23t19.5 -35.5t14 -44.5l8 -43q5 -24 20.5 -47.5t37 -42t47 -29.5t50.5 -11
q19 0 36.5 6.5t30 18t20 26.5t7.5 33zM744 -98v180l-127 -84q16 -4 33.5 -14t34 -23t30.5 -27l24 -24z" />
    <glyph glyph-name="u099C_u09CD_u099D" horiz-adv-x="698" 
d="M692 588h-310q-12 0 -28 -15q-18 -14 -18 -23q0 -14 14.5 -25t39.5 -20q20 -6 38.5 -10t34.5 -4q14 0 43.5 7.5t69.5 20.5l85 -89q-50 -40 -78.5 -106t-29.5 -157v-338l-30 26v-1l-16 45q-5 9 -12.5 21t-15.5 20q-14 14 -28.5 25.5t-26.5 16.5v-198l-60 87
q-60 98 -163 112h1l-64 72q12 1 53 26l44 25q-48 15 -84 53t-61 96q-22 57 -34 127t-12 156l29 -18q0 -9 -0.5 -17t-0.5 -17q-2 -99 53 -190q30 -50 68.5 -77t85.5 -27q43 0 84 19q54 24 54 62q0 15 -8.5 31.5t-24.5 16.5q-6 0 -45 -14q-35 -14 -60 -14q-56 0 -93 45
q-38 44 -38 102q0 34 26 79q28 46 59 69h-236l-56 56h696zM509 216q0 139 38 209q-46 0 -82.5 5.5t-62.5 15.5q-58 25 -110 91l-5 2q-14 0 -29 -14t-31 -40q-33 -53 -33 -82q0 -41 44 -41q10 0 26 6t36 15l62 31q36 -15 65 -65q14 -26 21.5 -50t7.5 -44q0 -50 -32 -93v-125
q4 -2 11.5 -8t15 -13t15 -15t13.5 -14l30 -40v269zM378 -90v208l-76 -37q-4 -2 -20.5 -12.5t-44.5 -29.5q37 -20 78 -58q43 -39 61 -71h2z" />
    <glyph glyph-name="u099C_u09CD_u099E" horiz-adv-x="774" 
d="M722 644l55 -56h-424q-4 -11 -4 -32q0 -18 6.5 -44t16.5 -47.5t18 -34t28 -26.5q14 26 18.5 33t28.5 38q7 8 16 15.5t20 16.5q39 30 77 34q25 2 50 -4.5t44.5 -20.5t33 -34.5t15.5 -46.5q4 -48 -49 -95q52 -52 56 -102q4 -43 -24.5 -70.5t-83.5 -31.5q-103 -9 -177 102
q-24 -133 -150 -140q-145 7 -212 155q-19 37 -37 104.5t-34 168.5l33 -17q15 -63 27 -107.5t21 -67.5q13 -35 33 -63.5t44 -48.5t51 -31t54 -11q26 0 49.5 8t41.5 21.5t28.5 32t10.5 39.5q0 11 -3.5 24.5t-11.5 30.5q-42 -44 -117 -49q-62 0 -94 34.5t-32 96.5q0 21 7.5 46
t20 49t29 44t33.5 31h-237l-55 56h779zM330 448q-26 40 -45 80q-15 0 -30.5 -14t-29 -33.5t-22 -40.5t-8.5 -36q0 -29 13 -41.5t39 -12.5q59 0 113 54q-13 15 -30 44zM587 406q24 2 43 -21q34 34 32 59q-1 11 -9.5 20.5t-21 15.5t-27 8.5t-26.5 1.5q-13 -1 -37 -17
t-47.5 -37.5t-40 -44t-16.5 -37.5q0 -31 18 -60.5t42.5 -53t55.5 -37t62 -11.5q28 3 49 21.5t18 43.5q-2 26 -36 58q-30 -26 -58 -28q-45 -2 -59 47q-5 32 13 51t45 21z" />
    <glyph glyph-name="u099C_u09F0_u09CD" horiz-adv-x="685" 
d="M541 5q-12 47 -17 90.5t-7 87.5v71q1 90 29 171q-46 0 -82 5.5t-62 15.5q-58 25 -110 91l-5 2q-14 0 -29 -14t-31 -40q-33 -53 -33 -82q0 -41 44 -41q10 0 26 6t36 15l62 31q36 -15 65 -65q14 -26 21.5 -50t7.5 -44q0 -64 -48 -110q-44 -47 -109 -47q-145 0 -209 157
q-23 57 -34.5 126.5t-11.5 156.5l29 -18q0 -9 -0.5 -17t-0.5 -17q-2 -99 53 -190q30 -50 68.5 -77t85.5 -27q43 0 84 19q54 24 54 62q0 15 -8.5 31.5t-24.5 16.5q-6 0 -45 -14q-35 -14 -60 -14q-56 0 -93 45q-38 44 -38 102q0 34 26 79q28 46 59 69h-236l-56 56h696l55 -56
h-310q-12 0 -28 -15q-18 -14 -18 -23q0 -14 14.5 -25t39.5 -20q20 -6 38.5 -10t34.5 -4q14 0 43.5 7.5t69.5 20.5l85 -89q-44 -42 -68.5 -108t-25.5 -155q4 -64 13 -125t23 -120l-59 52q-30 29 -79 26l-179 -24q-48 -6 -85 -6q-21 0 -39.5 1.5t-33.5 5.5q-42 12 -69 44
t-36 76q-2 17 -1 42.5t7 57.5q6 -5 12.5 -8.5t12.5 -7.5q-4 -6 -4.5 -17t1.5 -22q8 -42 32 -67t67 -28q48 4 102.5 9t113.5 11q51 0 98.5 -15.5t74.5 -47.5z" />
    <glyph glyph-name="u099C_u09AC_u09CD" horiz-adv-x="685" 
d="M692 588h-310q-12 0 -28 -15q-18 -14 -18 -23q0 -14 14.5 -25t39.5 -20q20 -6 38.5 -10t34.5 -4q14 0 43.5 7.5t69.5 20.5l85 -89q-38 -42 -60 -108t-24 -155v-153v-220q-14 8 -28.5 22t-27.5 34q-31 44 -50 60q-18 14 -47 21t-62 8l-50 69q57 39 109 74t101 67v105
q-2 91 24 171q-46 0 -82 5.5t-62 15.5q-58 25 -110 91l-5 2q-14 0 -29 -14t-31 -40q-33 -53 -33 -82q0 -41 44 -41q10 0 26 6t36 15l62 31q36 -15 65 -65q14 -26 21.5 -50t7.5 -44q0 -64 -48 -110q-44 -47 -109 -47q-145 0 -209 157q-23 57 -34.5 126.5t-11.5 156.5l29 -18
q0 -9 -0.5 -17t-0.5 -17q-2 -99 53 -190q30 -50 68.5 -77t85.5 -27q43 0 84 19q54 24 54 62q0 15 -8.5 31.5t-24.5 16.5q-6 0 -45 -14q-35 -14 -60 -14q-56 0 -93 45q-38 44 -38 102q0 34 26 79q28 46 59 69h-236l-56 56h696zM528 71q-22 -13 -56 -34.5t-76 -50.5
q74 -17 132 -91v176z" />
    <glyph glyph-name="u099D_u09F0_u09CD" horiz-adv-x="649" 
d="M359 50v43q-92 175 -253 189h1l-76 97q72 52 154.5 98.5t170.5 78.5v32h-361l-54 56h468v-296q50 -32 98 -102v503q5 -6 12.5 -11t12.5 -10q-2 -20 2 -38t17 -34q26 -18 56 -12l56 -56h-98v-505l-25 25v-1q-24 73 -44 104q-15 21 -36.5 39.5t-50.5 32.5v-325q-8 7 -51 60
q-28 32 -76 38h-98q-34 1 -65 6.5t-60 16.5q-42 17 -58.5 45t-17.5 71q0 33 20 99l21 -21q-8 -11 -7 -37q1 -21 5.5 -36t13.5 -25t22 -16.5t33 -12.5q21 -5 39.5 -5t35.5 -2q78 -8 122 -30t69 -60zM356 164v305q-51 -17 -102 -45.5t-104 -66.5q137 -64 204 -193h2z" />
    <glyph glyph-name="u099E_u09CD_u099A" horiz-adv-x="739" 
d="M592 141q-74 0 -132 75q-27 33 -42.5 69.5t-22.5 75.5v-365l-16 14v-1q-55 107 -101 144q-55 42 -167 54l-66 110q67 45 135 87.5t133 77.5q-19 89 -137 89q-63 0 -70 -43l5 -12q40 3 40 -46q0 -24 -19 -43.5t-44 -19.5q-38 0 -59 23.5t-21 62.5q0 59 63 97h-1
q56 32 119 32q44 0 89 -30q48 -32 66 -70v176l54 -63v-176q11 31 29 59.5t44 54.5q29 26 60 40.5t60 14.5q49 0 80 -44q11 -19 18 -43.5t7 -48.5q0 -78 -46 -112q51 -38 51 -120q0 -25 -8 -46.5t-22.5 -37.5t-34.5 -25.5t-44 -9.5zM586 546q-21 0 -49 -13t-58 -34
q-33 -25 -50.5 -46.5t-17.5 -41.5q0 -52 55 -122q55 -71 105 -71q31 0 59 20q27 21 27 51q0 32 -35 57q-31 -25 -63 -25q-51 7 -55 69q-2 32 19 51.5t50 19.5q25 0 48 -23q38 23 38 49q0 29 -22 44t-51 15zM343 142v262q-52 -34 -97.5 -64t-80.5 -54q62 -30 105 -66t73 -78z
" />
    <glyph glyph-name="u099E_u09CD_u099A_u09AC_u09CD" horiz-adv-x="684" 
d="M395 -134q-14 7 -28 21t-29 34q-16 23 -28.5 38t-20.5 22q-18 14 -47 21t-62 8l-51 69l40 28q22 15 44.5 30l43.5 29q-53 32 -145 41l-67 110q67 45 135 87.5t133 77.5q-19 89 -137 89q-63 0 -70 -43l5 -12q40 3 40 -46q0 -24 -19 -43.5t-44 -19.5q-38 0 -59 23.5
t-21 62.5q0 59 63 97h-1q56 32 119 32q44 0 89 -30q48 -32 64 -70h2v176q14 -17 27 -31.5t27 -31.5v-176h2q9 31 27 59.5t44 54.5q29 26 60 40.5t60 14.5q49 0 80 -44q11 -19 18 -43.5t7 -48.5q0 -78 -46 -112q51 -38 51 -120q0 -25 -8 -46.5t-22.5 -37.5t-34.5 -25.5
t-44 -9.5q-74 0 -132 75q-27 33 -42.5 69.5t-20.5 75.5h-2v-195v-300zM586 546q-21 0 -49 -13t-58 -34q-33 -25 -50.5 -46.5t-17.5 -41.5q0 -52 55 -122q55 -71 105 -71q31 0 59 20q27 21 27 51q0 32 -35 57q-31 -25 -63 -25q-55 0 -55 63q0 30 20 53.5t49 23.5q25 0 48 -23
q38 23 38 49q0 29 -22 44t-51 15zM343 142v262q-52 -34 -97.5 -64t-80.5 -54q62 -30 105 -66t71 -79zM309 120l-96 -62q76 -17 132 -92v104q-8 15 -17 27t-17 23h-2z" />
    <glyph glyph-name="u099E_u09CD_u099B" horiz-adv-x="614" 
d="M590 371q-2 -93 -81 -99q-72 0 -122 45.5t-72 118.5l-47 -45q11 -21 81 -83q57 -53 57 -92q0 -72 -75 -103q91 -35 154 -74.5t96 -83.5q1 -12 2.5 -23.5t2.5 -22.5q-78 78 -202 124q-45 14 -112 29t-158 30h1q-16 26 -32.5 52.5t-33.5 52.5q40 -21 79 -32.5t77 -11.5
q37 0 84 22q52 28 52 63q0 23 -27 38q-54 -77 -121 -77q-56 0 -106 33q-23 18 -36.5 41.5t-13.5 50.5t17 49.5t47 38.5l119 48q67 30 67 79q0 13 -6.5 25t-17 21t-24 14.5t-28.5 5.5q-61 0 -82 -52q32 -17 32 -44q0 -58 -57 -58q-70 0 -70 80q0 31 11 55.5t30 42t45.5 27
t56.5 9.5q54 0 95.5 -27.5t55.5 -78.5q27 42 70 74q48 36 91 36q20 0 37 -9t29 -24t19 -34t7 -39q0 -50 -35 -93q44 -41 44 -99zM542 385q0 22 -31 47q-17 -26 -40 -26q-22 0 -39 18.5t-17 40.5q0 49 49 49q16 0 32 -10q34 19 34 50q0 37 -41 37q-52 0 -95 -33
q-24 -19 -36 -39.5t-12 -46.5q0 -50 46 -92q45 -42 94 -42q20 0 38 13.5t18 33.5zM259 323q-6 7 -14 17.5t-16 25.5q-18 -7 -36 -13l-36 -12q-50 -20 -50 -43q0 -29 56 -29q23 0 57 16q39 16 39 37v1z" />
    <glyph glyph-name="u099E_u09CD_u099C" horiz-adv-x="637" 
d="M612 274q-39 -25 -65.5 -64.5t-25.5 -99.5q1 -15 10 -38.5t29 -55.5l-27 -25q-29 46 -45.5 88.5t-18.5 77.5q-2 33 4 65.5t20 64.5q-56 0 -81 14q-28 13 -55 52q-29 41 -48 88q-16 -1 -38 -14.5t-45 -34.5q-23 -23 -36.5 -43.5t-12.5 -35.5q3 -20 21.5 -31.5t38.5 -11.5
q23 1 51 26q17 15 27.5 24.5t15.5 11.5q31 2 56 -56q17 -42 18 -79q1 -28 -8 -54.5t-26.5 -47t-43 -33.5t-56.5 -15q-226 -7 -241 381q5 -3 13 -7t14 -6l6 -63q11 -95 49 -155q54 -80 131 -79q110 5 102 133q-49 -35 -102 -38q-48 -1 -78.5 27t-33.5 76q-1 52 59 117
q79 80 89 99q-1 59 -61 58q-35 -2 -49 -47q16 -15 21 -45q-2 -26 -16.5 -40t-37.5 -15q-71 2 -75 74q2 115 126 119q105 3 141 -73q66 69 155 72q48 2 81 -23.5t36 -73.5q-2 -21 -10.5 -38.5t-27.5 -33.5q39 -34 40 -61q1 -59 -46 -93zM540 427q-17 -26 -54 -29
q-28 -1 -45.5 18t-19.5 47q-1 25 15.5 42.5t41.5 19.5q26 0 44 -18q21 9 23 36q-5 47 -47 45q-21 -1 -44 -9.5t-50 -25.5q-56 -37 -56 -75q2 -56 42 -95q41 -39 96 -38q23 1 41 17t24 38q5 13 -9 27h-2z" />
    <glyph glyph-name="u099E_u09CD_u099D" horiz-adv-x="876" 
d="M796 265q0 16 -32 49l-29 -15q-7 -3 -16 -5.5t-14 -2.5q-12 0 -23.5 4.5t-20 12t-14 18t-5.5 21.5t5 21.5t14 18.5t20 13t22 5q10 0 19 -1.5t28 -6.5l11 -1l8 5q17 21 17 47q0 24 -18.5 39t-42.5 15q-55 0 -112 -48q-69 -53 -69 -110q6 -54 61 -95q56 -42 108 -42
q28 0 54 13q29 15 29 45zM543 232v-257q33 -17 55 -60h3v274q-24 17 -56 44zM485 -136v218q-37 -13 -78.5 -33.5t-87.5 -47.5q39 -16 60 -29.5t43 -33.5q45 -44 61 -74h2zM745 135q-42 0 -94 23v-375l-24 27v-1q-36 102 -88 128v-202q-27 22 -67 83q-19 29 -35.5 49.5
t-29.5 31.5q-20 17 -71 31t-84 13l-62 74q144 86 243 128q-17 26 -46 26q-12 0 -29.5 -2t-42.5 -4q-48 -5 -71 -5q-90 0 -140 47t-50 137q0 30 10 71q13 41 32 57l19 -18q-13 -19 -20 -41t-7 -48q0 -85 66 -109q17 -7 51 -11.5t89 -6.5q102 7 132 -16q24 -11 61 -43v372
q0 38 -43 34q-41 0 -89 -51q-21 -23 -35.5 -45.5t-19.5 -45.5q18 3 30 3q18 0 34 -21q3 -8 6.5 -19t3.5 -21q0 -27 -20 -42t-49 -15q-88 0 -88 99q0 71 71 144q73 71 145 71q110 10 110 -137v-35l-1 -34h2q22 40 72 89q26 24 52 37.5t48 13.5q47 0 80 -39q35 -39 35 -84
q0 -60 -42 -103q41 -69 41 -117q1 -94 -85 -98z" />
    <glyph glyph-name="u099E_u09CD_u09A7" horiz-adv-x="723" 
d="M681 465q0 -30 -10.5 -50.5t-33.5 -43.5q23 -42 33 -71t10 -50q0 -102 -89 -102q-44 -3 -94 22t-109 85q0 -7 -0.5 -19.5t-0.5 -28v-33v-33.5q27 12 56 12q17 0 33 -4q77 -8 70 -160v-22.5t-1 -26.5q0 -4 -0.5 -7t-0.5 -8l-2 -47q0 -45 4 -85.5t13 -81.5q-80 35 -80 210
q0 28 3 70l2 57q0 28 -90 -2v-331q-25 11 -53 58v-1q-15 26 -29 45t-24 30q-23 18 -54.5 29t-71.5 13l-56 74q97 71 230 154v421q0 37 -32 37q-43 0 -93 -53q-44 -49 -57 -96q11 2 17.5 2.5t14.5 0.5q18 0 34 -22q4 -7 7.5 -18.5t3.5 -19.5q0 -28 -20.5 -45t-49.5 -17
q-94 0 -94 105q0 73 75 150q76 74 150 74q98 0 98 -128v-34l-2 -33h3q14 47 67 100q56 52 105 52q47 0 83 -40q35 -38 35 -88zM646 269q0 8 -9 27t-26 36l-29 -15q-8 -3 -17 -5.5t-14 -2.5q-25 0 -45.5 17t-20.5 40q0 24 19.5 42.5t42.5 18.5q14 0 25 -2t38 -8l5 5l7 8
q6 9 9.5 14.5t3.5 16.5q0 24 -19.5 40.5t-45.5 16.5q-55 0 -119 -56q-60 -55 -60 -110q0 -28 14.5 -52.5t42.5 -47.5q27 -22 54.5 -26t55.5 -4q31 0 57 15q2 2 5 4t4 2q11 5 16.5 9.5t5.5 16.5zM338 20q-29 -13 -62.5 -32.5t-68.5 -48.5q40 -15 72.5 -40.5t58.5 -63.5v185z
" />
    <glyph glyph-name="u099F_u09CD_u099F" horiz-adv-x="508" 
d="M171 588v-300q0 -61 44 -61q58 0 96 28q44 33 41 88l-1 30q-72 22 -72 67q0 29 19.5 50t47.5 21q89 0 89 -126q0 -57 -45 -151q34 -67 34 -99q0 -63 -47 -99q-42 -33 -108 -33q-106 0 -180 86q-69 79 -79 185q5 -3 12.5 -6t13.5 -6q38 -88 92.5 -136t114.5 -50
q35 -8 80 11q61 30 61 63q0 32 -35 47q-36 -45 -114 -45q-122 2 -122 192v244h-115l-55 56h434l10.5 25.5t3.5 11.5q0 40 -124 40q-11 0 -29.5 -0.5t-40.5 -2.5l-68 -2q-29 0 -56 9.5t-52 26.5q-54 42 -54 97q0 44 27 69l33 -19q-25 -13 -25 -59q0 -31 97 -38
q35 -2 69.5 -2.5t69.5 -1.5q44 -2 76.5 -10t55.5 -23q57 -36 57 -121h33l56 -56h-345z" />
    <glyph glyph-name="u099F_u09CD_u099F_u09F0_u09CD" horiz-adv-x="521" 
d="M361 -123v142q-33 -16 -81 -16q-106 0 -179 86q-70 81 -79 185q5 -3 12.5 -6t12.5 -6q39 -88 93 -136t114 -50q36 -8 81 11q61 30 61 63q0 31 -36 47q-35 -45 -113 -45q-122 2 -122 192v244h-127l-55 56h445q14 31 14 37q0 40 -124 40q-11 0 -29.5 -0.5t-39.5 -2.5
l-68 -2q-58 0 -108 36q-54 42 -54 97q0 45 26 69l33 -19q-24 -11 -24 -59q0 -31 96 -38q35 -2 70 -2.5t70 -1.5q44 -2 76.5 -10t54.5 -23q58 -36 58 -121h32l56 -56h-344v-300q0 -61 44 -61q57 0 95 28q44 32 41 88l-1 30q-71 23 -71 67q0 29 19 50t48 21q88 0 88 -126
q0 -28 -11 -65.5t-34 -85.5q35 -68 35 -99q0 -37 -17 -66v-299q-4 3 -16 18t-34 42q-29 34 -76 37l-59 4q-100 0 -155 23q-87 36 -87 116q0 33 20 99l21 -21q-8 -9 -8 -38q6 -101 180 -106q113 -9 154 -68z" />
    <glyph glyph-name="u099F_u09CD_u09AE" horiz-adv-x="619" 
d="M522 588v-628q-8 4 -18 10t-18 11q-5 14 -15.5 30t-24.5 33q-17 20 -30.5 31t-24.5 11q-1 -1 -3 -1t-4 -0.5t-5 -0.5q-4 -29 -26.5 -49.5t-51.5 -20.5q-14 0 -27.5 4t-24.5 12t-18 21t-8 32q1 18 8 34.5t19.5 29t30.5 19t41 3.5q4 58 -36 89q-59 -48 -132 -48
q-99 1 -99 142l1 236h-74l-51 56h481q0 8 0.5 17t0.5 17q1 53 -104 53q-37 -1 -73.5 -6.5t-73.5 -5.5q-60 0 -103 32q-47 34 -47 93q0 64 40 67q0 -4 1.5 -9.5t1.5 -10.5l-14 -29q1 -64 90 -64q38 0 74.5 4t74.5 5q184 0 184 -163h108l56 -56h-106zM467 588h-346v-275
q0 -41 19 -41q60 0 106 38q23 20 30 42.5t11 48.5q-5 -1 -8.5 -1.5t-5.5 -0.5q-3 -1 -5 -1q-28 0 -45.5 18t-17.5 45q0 34 20.5 55t54.5 21q22 0 39 -7.5t30 -23t20 -36t7 -42.5q0 -70 -49 -135q24 -26 35 -60t3 -69q74 -32 100 -81h2v505z" />
    <glyph glyph-name="u099F_u09F0_u09CD" horiz-adv-x="530" 
d="M191 588v-348q19 -38 54 -38q50 0 103 62q48 55 54 114l-19 -3q-13 1 -26 6.5t-23 14.5t-16.5 20.5t-6.5 25.5q0 32 19.5 54t51.5 22q49 0 79 -47q11 -18 17.5 -42.5t6.5 -49.5q0 -39 -15 -79v-416q2 -2 -5.5 4t-15.5 12l-15 22.5t-12 20.5q-28 29 -63 37.5t-81 8.5
q-12 0 -23.5 -0.5t-25.5 -0.5q-16 -1 -32.5 -1h-34.5q-148 0 -148 152q0 32 20 98l21 -21q-5 -5 -6.5 -17t-1.5 -32q0 -50 37.5 -76.5t97.5 -25.5h23t44 -2q17 -1 33 -2.5t33 -2.5q29 -5 46.5 -17t34.5 -33l8 -11l16 -24v246q-75 -90 -156 -90q-53 0 -85 33t-43 93v333h-142
l-51 56h478q0 8 1 17.5t1 17.5q1 50 -71 50q-18 0 -52 -6q-17 -2 -29.5 -3t-20.5 -1q-64 0 -117 31q-61 35 -61 94q0 32 11 48.5t30 18.5q0 -4 1 -9t1 -10q-5 -5 -9 -13t-4 -17q0 -35 30 -51q25 -15 61 -15q12 0 29 1.5t40 3.5q46 6 70 6q79 0 113 -44q30 -38 30 -119h57
l56 -56h-397z" />
    <glyph glyph-name="u099F_u09AC_u09CD" horiz-adv-x="497" 
d="M132 588v-302q19 -40 54 -40q52 0 93 45q44 44 44 87l-19 -3q-13 1 -26 6.5t-23 14.5t-16.5 20.5t-6.5 25.5q0 32 19.5 54t51.5 22q49 0 79 -47q11 -18 17.5 -42.5t6.5 -49.5q0 -58 -61 -131q-58 -74 -140 -74q-53 0 -85 33t-42 93v288h-90l-51 56h425q0 8 0.5 17.5
t0.5 17.5q1 50 -70 50q-16 0 -52 -6q-17 -2 -29 -3t-21 -1q-64 0 -118 31q-59 33 -59 94q0 64 41 67q0 -4 1 -9t1 -10q-14 -12 -14 -30q0 -35 29 -51q27 -15 62 -15q12 0 29.5 1.5t40.5 3.5q45 6 69 6q75 0 113 -44q30 -39 30 -119h31l56 -56h-371zM350 -87q-14 7 -28 21
t-29 34q-14 22 -27 37t-22 23q-19 14 -48 21.5t-61 8.5l-51 69q57 38 112.5 76t104.5 69l49 -10v-349zM300 190q-22 -14 -56 -35t-76 -50q75 -17 132 -90v175z" />
    <glyph glyph-name="u09A0_u09F0_u09CD" horiz-adv-x="516" 
d="M526 588h-187q21 -21 41.5 -51t39.5 -70q41 -79 41 -139q0 -8 -0.5 -16t-1.5 -16v-209v-209l-25 20l-61 67q-32 26 -91 26q-13 0 -33 -1.5t-46 -3.5q-23 -2 -44 -3.5t-35 -1.5q-26 6 -47 18.5t-36 33t-23.5 49.5t-8.5 70q0 33 1 54.5t5 30.5l51 -38q-8 -6 -12.5 -19.5
t-4.5 -35.5q0 -65 78 -78l118 -10q54 -8 97 -30.5t66 -59.5l-1 216q-29 -35 -64 -53.5t-76 -20.5q-80 -3 -131 46q-49 52 -49 121q0 26 9 47q35 10 66.5 28.5t57.5 44.5q60 57 60 117q0 44 -12 76h-275l-58 56h305l-65 114q-34 71 -34 116q0 69 60 120l65 -56
q-41 -17 -59.5 -38.5t-18.5 -47.5q0 -46 42 -113q17 -28 35 -51.5t38 -43.5h164zM337 522q2 -11 3 -21.5t1 -19.5q0 -37 -12.5 -70.5t-35.5 -59.5q-13 -14 -35 -31.5t-54 -37.5q-48 -30 -48 -49q0 -86 87 -84q75 5 123 69q43 56 43 126q0 103 -70 179z" />
    <glyph glyph-name="u09A1_u09CD_u0997" horiz-adv-x="967" 
d="M287 588v-227q28 -4 48.5 8.5t37.5 33t32.5 43t33.5 38.5q25 -14 44 -35t31.5 -46.5t19.5 -54t7 -56.5q0 -96 -53 -157q-55 -64 -151 -64q-250 0 -295 479l37 -18q6 -64 22 -125t41 -108q67 -129 188 -129q44 -1 83.5 20.5t63 54.5t24.5 73t-33 75q-8 -24 -24.5 -44
t-38 -35t-46 -25t-48.5 -13q-78 0 -78 120v192h-236l-56 56h610l54 -56h-318zM974 588h-102v-600l-63 77q1 150 3 225q1 44 1 75q0 33 -13 67.5t-36 66.5q-54 71 -118 71q-97 0 -134 -89q42 18 73 18q24 0 44.5 -6.5t35.5 -17.5q16 -14 25 -32.5t9 -42.5q0 -32 -30.5 -80.5
t-84.5 -107.5l-65 74q13 9 31 26.5t38 40.5q24 26 37.5 45t13.5 28q0 27 -33 27q-12 0 -54 -25q-20 -11 -35 -17.5t-24 -6.5q-22 0 -44 28q-19 25 -19 52q0 69 64 114q29 20 61.5 29.5t68.5 9.5q89 0 139 -58q34 -40 73 -149l-9 162q-2 49 -3.5 88t-1.5 71l32 -32
q-2 -8 -2 -16q-2 -61 50 -60q6 0 16 1z" />
    <glyph glyph-name="u09A1_u09CD_u09A1" horiz-adv-x="1026" 
d="M1033 588h-324v-191q1 -33 20 -33q11 0 28.5 13t39.5 36q17 16 34 34.5t31 36.5q20 -12 40 -33t36 -48q12 -28 19 -56t7 -55q0 -91 -45 -152q-52 -70 -139 -70q-62 0 -110 36q-17 13 -37.5 35.5t-39.5 50.5l-60 101q-39 -168 -188 -169q-136 0 -219 152q-64 114 -83 274
l33 -18q20 -66 40.5 -118t39.5 -83q34 -53 77.5 -81t97.5 -28q78 -5 125 42q46 46 46 108q0 39 -33 72q-42 -54 -82.5 -84.5t-76.5 -30.5q-80 0 -80 160v99h-237l-56 56h1042zM922 324q0 31 -40 67q-45 -57 -81.5 -87t-71.5 -30q-80 0 -80 187v127h-361v-158q12 -21 43 -8
q16 8 44 37.5t65 77.5q24 -13 46.5 -45.5t43.5 -80.5q25 -63 44.5 -109t28.5 -57q26 -38 64 -59t83 -23q35 -2 65.5 9t53.5 32t37 51.5t16 68.5z" />
    <glyph glyph-name="u09A1_u09CD_u09AE" horiz-adv-x="801" 
d="M346 135q-68 0 -122 32t-97 109q-63 112 -83 274l33 -18q20 -66 40 -118t40 -83q35 -54 78 -77t97 -23q30 2 57.5 13.5t47.5 30.5t32 45t12 56q0 38 -34 72l-9 -11q-35 -48 -64.5 -78t-62.5 -30q-80 0 -80 160v99h-237l-56 56h822l55 -56h-109v-108v-129t0.5 -139
t0.5 -139v-129v-108q-7 3 -21 25.5t-37 61.5v-1q-21 41 -42 66t-40 27q-7 -29 -29 -49t-51 -20q-35 0 -59 22t-24 57q0 17 6 33t16 28t24 19t31 7h19q3 7 1.5 17t-6 21t-11.5 22.5t-14 20.5q-46 -46 -124 -58zM289 430q0 -17 12.5 -20t32.5 12q14 11 34 37.5t49 79.5
q20 -14 45.5 -45.5t45.5 -79.5q13 -43 13 -85q0 -60 -30 -109q17 -17 36.5 -47t25.5 -74l34 -36q14 -16 30 -36t28 -41h2v602h-358v-158z" />
    <glyph glyph-name="u09A1_u09F0_u09CD" horiz-adv-x="602" 
d="M474 -53v284l50 50v-427q-4 4 -16 19t-35 41q-29 34 -78 41h-48h-48q-49 0 -88.5 4t-67.5 15q-40 19 -63 52.5t-23 82.5q0 17 5 41.5t14 56.5l21 -21q-7 -10 -7 -38q0 -89 85 -108q32 -7 65.5 -6.5t80.5 -0.5q103 -9 153 -86zM287 588v-227q28 -4 48.5 8.5t37.5 33
t32.5 43t33.5 38.5q25 -14 44 -35t31.5 -46.5t19.5 -54t7 -56.5q0 -96 -53 -157q-55 -64 -151 -64q-250 0 -295 479l37 -18q6 -64 22 -125t41 -108q67 -129 188 -129q44 -1 83.5 20.5t63 54.5t24.5 73t-33 75q-8 -24 -24.5 -44t-38 -35t-46 -25t-48.5 -13q-78 0 -78 120v192
h-236l-56 56h610l54 -56h-318z" />
    <glyph glyph-name="u09A1_u09AC_u09CD" horiz-adv-x="593" 
d="M285 588v-227q43 0 87 44q15 19 32 39.5t33 39.5q22 -11 41 -31.5t33 -49.5q14 -27 21 -54.5t7 -56.5q0 -96 -53 -157q-55 -64 -151 -64q-250 0 -295 479l37 -18q6 -64 22 -125t41 -108q67 -129 188 -129q66 0 118 41q53 42 53 106q0 40 -33 76q-5 -21 -22 -40.5
t-43 -39.5q-26 -17 -49 -27t-43 -10q-78 0 -78 120v192h-236l-56 56h610l54 -56h-318zM441 -204q-14 8 -28 22t-29 34q-16 23 -28.5 37.5t-20.5 22.5q-18 14 -46.5 21t-61.5 8l-52 69q57 39 113 76.5t105 68.5q5 -4 13 -10.5t16 -17.5q19 -22 19 -31v-300zM392 73
q-47 -27 -133 -85q73 -15 133 -91v176z" />
    <glyph glyph-name="u09A2_u09F0_u09CD" horiz-adv-x="582" 
d="M198 588v-348q20 -38 55 -38q50 0 103 62q48 57 53 114l-17 -3q-14 1 -27 6.5t-23.5 14.5t-17 20.5t-6.5 25.5q0 32 20.5 54t52.5 22q47 0 78 -47q11 -18 17.5 -42.5t6.5 -49.5q0 -37 -14 -79v-417l-21 17l-28 42q-27 30 -62 38.5t-82 8.5q-11 0 -23.5 -0.5t-25.5 -0.5
q-16 -1 -32.5 -1h-34.5q-148 0 -148 152q0 17 4.5 41.5t15.5 56.5l21 -21q-7 -7 -7 -49q0 -50 37 -76.5t96 -25.5h23.5t43.5 -2q17 -1 33.5 -2.5t33.5 -2.5q29 -5 46.5 -16.5t34.5 -33.5v1q5 -8 9.5 -15.5t9.5 -13.5l5 -6v245q-75 -90 -157 -90q-52 0 -84 33t-43 93v333
h-150l-51 56h589l56 -56h-390z" />
    <glyph glyph-name="u09A3_u09CD_u099F" horiz-adv-x="737" 
d="M386 588v-391q19 -38 54 -38q39 0 91 61q49 56 55 115l-19 -2q-28 0 -50 19t-22 48q0 31 19.5 53t51.5 22q48 0 79 -47q10 -18 17 -42.5t7 -49.5q0 -83 -69 -164q-71 -86 -141 -86q-52 0 -84.5 33t-42.5 93v104q0 50 -8 93.5t-22 76.5q-20 45 -52.5 69t-77.5 24
q-88 0 -88 -92q0 -23 8 -47q12 -31 34 -31l3 6l-4 27q0 50 58 53q62 0 62 -69q0 -35 -25 -60.5t-60 -25.5q-69 0 -110 46q-18 22 -26.5 51.5t-8.5 65.5q0 64 46 109q44 45 111 45q55 0 98 -40q45 -40 52 -93h2v120h223q2 8 2.5 17.5t-0.5 17.5q-5 50 -71 50l-98 -3l-98 -4
q-63 -1 -117 27h1q-59 36 -60 95q0 56 41 67q0 -4 1 -9t1 -10q-5 -5 -9.5 -13t-4.5 -17q0 -35 30 -51q27 -15 62 -15q10 0 31.5 1t55.5 3q6 0 13 0.5t15 0.5q93 6 116 6q80 0 112 -44q31 -39 31 -119h89l55 -56h-359z" />
    <glyph glyph-name="u09A3_u09CD_u099F_u09F0_u09CD" horiz-adv-x="739" 
d="M583 -24v177q-64 -67 -124 -67q-52 0 -84.5 33t-42.5 93v104q0 50 -8 93.5t-22 76.5q-20 45 -52.5 69t-77.5 24q-88 0 -88 -92q0 -23 8 -47q12 -31 34 -31l3 6l-4 27q0 50 58 53q62 0 62 -69q0 -35 -25 -60.5t-60 -25.5q-69 0 -110 46q-18 22 -26.5 51.5t-8.5 65.5
q0 64 46 109q44 45 111 45q55 0 98 -40q45 -40 52 -93h2v120h223q2 8 2.5 17.5t-0.5 17.5q-5 50 -71 50q-26 0 -49.5 -1t-47.5 -2q-23 -2 -47.5 -3t-51.5 -1q-63 -1 -117 27h1q-59 36 -60 95q0 56 41 67q0 -4 1 -9t1 -10q-5 -5 -9.5 -13t-4.5 -17q0 -35 30 -51
q27 -15 62 -15q36 0 66.5 2t59.5 4q26 2 51.5 3.5t53.5 1.5q80 0 112 -44q31 -39 31 -119h89l55 -56h-359v-391q19 -38 54 -38q39 0 91 61q49 56 55 115l-19 -2q-28 0 -50 19t-22 48q0 31 19.5 53t51.5 22q48 0 79 -47q10 -18 17 -42.5t7 -49.5q0 -27 -7 -53t-20 -52v-363
q-5 3 -18 19t-34 42q-28 33 -74 36h-100q-99 0 -156 23q-87 38 -87 117q0 17 5.5 42t14.5 57l21 -21q-7 -11 -7 -37q0 -91 85 -92q45 -3 78 -6t56 -5q113 -9 155 -68z" />
    <glyph glyph-name="u09A3_u09CD_u09A0" horiz-adv-x="589" 
d="M412 588q113 -152 113 -303q0 -99 -58 -170q-62 -75 -157 -75q-77 0 -135 53q-56 56 -56 133q0 45 49 75h-1l95 51q47 30 47 82q0 145 -137 145q-64 -6 -87 -58q-6 -24 -6 -42q0 -26 10 -42q17 -25 37 -28l3 6q-2 7 -2 11.5t-1 8.5t-1 7q0 49 57 51q63 -2 63 -67
q0 -35 -25 -60.5t-60 -25.5q-69 0 -110 46q-18 22 -26.5 51.5t-8.5 65.5q0 64 46 109q44 45 111 45q68 0 118 -56q48 -57 48 -129q0 -8 -0.5 -15.5t-1.5 -15.5l2 -1q20 29 20 53q0 62 -67 183q-66 121 -66 186q0 74 66 124l59 -61q-70 -28 -70 -92q0 -84 90 -189h170l56 -56
h-184zM471 321q0 89 -65 175q-4 -45 -13.5 -79t-23.5 -59q-24 -44 -96 -90q-74 -48 -75 -83q0 -19 8 -36t21 -29.5t30 -19.5t36 -7q75 0 130 78q25 35 36.5 72.5t11.5 77.5z" />
    <glyph glyph-name="u09A3_u09CD_u09A0_u09F0_u09CD" horiz-adv-x="589" 
d="M412 588q113 -152 113 -303q0 -99 -58 -170q-62 -75 -157 -75q-77 0 -135 53q-56 56 -56 133q0 45 49 75h-1l95 51q47 30 47 82q0 145 -137 145q-64 -6 -87 -58q-6 -24 -6 -42q0 -26 10 -42q17 -25 37 -28l3 6q-2 7 -2 11.5t-1 8.5t-1 7q0 49 57 51q63 -2 63 -67
q0 -35 -25 -60.5t-60 -25.5q-69 0 -110 46q-18 22 -26.5 51.5t-8.5 65.5q0 64 46 109q44 45 111 45q68 0 118 -56q48 -57 48 -129q0 -8 -0.5 -15.5t-1.5 -15.5l2 -1q20 29 20 53q0 62 -67 183q-66 121 -66 186q0 74 66 124l59 -61q-70 -28 -70 -92q0 -84 90 -189h170l56 -56
h-184zM471 321q0 89 -65 175q-4 -45 -13.5 -79t-23.5 -59q-24 -44 -96 -90q-74 -48 -75 -83q0 -19 8 -36t21 -29.5t30 -19.5t36 -7q75 0 130 78q25 35 36.5 72.5t11.5 77.5zM447 -76v261q15 8 29 17.5t29 17.5v-403q-5 3 -17.5 19t-33.5 41q-14 16 -32.5 25.5t-42.5 11.5
h-100q-100 0 -155 23q-87 36 -87 118q0 32 20 97l21 -21q-8 -10 -8 -37q0 -90 85 -92q45 -2 78.5 -4.5t56.5 -5.5q113 -9 155 -69z" />
    <glyph glyph-name="u09A3_u09CD_u09A1" horiz-adv-x="550" 
d="M514 380q0 -41 -47 -84q51 -57 51 -122q-3 -44 -47 -74q-43 -31 -98 -31q-151 0 -265 189v-1q-81 146 -99 310l25 -23v1q15 -63 41.5 -122t60.5 -112q48 -73 106.5 -113.5t126.5 -40.5q33 0 59 21.5t26 60.5q0 21 -16 34q-22 -19 -46 -19q-15 0 -29.5 6t-25 16.5t-17 24
t-6.5 27.5q0 25 21.5 43.5t47.5 18.5q23 0 40 -11l15 1q23 17 23 45q1 70 -38 110l-64 -90l-22 37q0 5 0.5 9.5t0.5 9.5q0 16 -7.5 29t-20 22t-28.5 14t-33 5q-34 0 -59 -20.5t-27 -51.5q-3 -38 23 -53l11 3q2 58 43 56q32 6 51 -43q-2 -34 -22 -54t-58 -20q-46 0 -76 35
q-29 33 -29 78q0 55 33 100q37 49 92 49q47 0 71 -29q20 -17 42 -71q15 23 30 46.5t30 46.5q48 -60 78 -142q32 -83 32 -121z" />
    <glyph glyph-name="u09A3_u09CD_u09A1_u09F0_u09CD" horiz-adv-x="550" 
d="M514 380q0 -41 -47 -84q51 -57 51 -122q-3 -44 -47 -74q-43 -31 -98 -31q-151 0 -265 189v-1q-81 146 -99 310l25 -23v1q15 -63 41.5 -122t60.5 -112q48 -73 106.5 -113.5t126.5 -40.5q33 0 59 21.5t26 60.5q0 21 -16 34q-22 -19 -46 -19q-15 0 -29.5 6t-25 16.5t-17 24
t-6.5 27.5q0 25 21.5 43.5t47.5 18.5q23 0 40 -11l15 1q23 17 23 45q1 70 -38 110l-64 -90l-22 37q0 5 0.5 9.5t0.5 9.5q0 16 -7.5 29t-20 22t-28.5 14t-33 5q-34 0 -59 -20.5t-27 -51.5q-3 -38 23 -53l11 3q2 58 43 56q32 6 51 -43q-2 -34 -22 -54t-58 -20q-46 0 -76 35
q-29 33 -29 78q0 55 33 100q37 49 92 49q47 0 71 -29q20 -17 42 -71q15 23 30 46.5t30 46.5q21 -28 41.5 -64.5t36.5 -71.5q32 -79 32 -127zM433 -33v145l58 36v-288q-5 4 -17.5 19.5t-33.5 40.5q-14 16 -32.5 25.5t-42.5 11.5h-99q-80 0 -133 23q-87 37 -87 117
q0 17 5.5 41.5t14.5 56.5l21 -21q-7 -10 -7 -36q0 -89 85 -95q25 -2 52.5 -4t58.5 -4q113 -10 154 -69z" />
    <glyph glyph-name="u09A3_u09CD_u09A2" horiz-adv-x="737" 
d="M386 588v-391q19 -38 54 -38q39 0 91 61q49 56 55 115l-19 -2q-28 0 -50 19t-22 48q0 31 19.5 53t51.5 22q48 0 79 -47q10 -18 17 -42.5t7 -49.5q0 -83 -69 -164q-71 -86 -141 -86q-52 0 -84.5 33t-42.5 93v104q0 50 -8 93.5t-22 76.5q-20 45 -52.5 69t-77.5 24
q-88 0 -88 -92q0 -23 8 -47q12 -31 34 -31l3 6l-4 27q0 50 58 53q62 0 62 -69q0 -35 -25 -60.5t-60 -25.5q-69 0 -110 46q-18 22 -26.5 51.5t-8.5 65.5q0 64 46 109q44 45 111 45q55 0 98 -40q45 -40 52 -93h2v120h366l55 -56h-359z" />
    <glyph glyph-name="u09A3_u09CD_u09A2_u09F0_u09CD" horiz-adv-x="739" 
d="M583 -24v177q-64 -67 -124 -67q-52 0 -84.5 33t-42.5 93v104q0 50 -8 93.5t-22 76.5q-20 45 -52.5 69t-77.5 24q-88 0 -88 -92q0 -23 8 -47q12 -31 34 -31l3 6l-4 27q0 50 58 53q62 0 62 -69q0 -35 -25 -60.5t-60 -25.5q-69 0 -110 46q-18 22 -26.5 51.5t-8.5 65.5
q0 64 46 109q44 45 111 45q55 0 98 -40q45 -40 52 -93h2v120h366l55 -56h-359v-391q19 -38 54 -38q39 0 91 61q49 56 55 115l-19 -2q-28 0 -50 19t-22 48q0 31 19.5 53t51.5 22q48 0 79 -47q10 -18 17 -42.5t7 -49.5q0 -27 -7 -53t-20 -52v-363q-5 3 -18 19t-34 42
q-28 33 -74 36h-100q-99 0 -156 23q-87 38 -87 117q0 17 5.5 42t14.5 57l21 -21q-7 -11 -7 -37q0 -91 85 -92q45 -3 78 -6t56 -5q113 -9 155 -68z" />
    <glyph glyph-name="u09A3_u09CD_u09A3" horiz-adv-x="519" 
d="M426 588v-607l-62 63v76q-8 44 -31 79q-36 56 -100 56q-42 0 -69 -22.5t-31 -54.5q-1 -14 1 -30t10 -30q17 -31 45 -26l-4 30q0 43 50 43q27 0 45.5 -20t18.5 -44q0 -17 -8 -31.5t-21 -24.5t-30 -15.5t-35 -5.5q-62 0 -105 46q-22 23 -31.5 50.5t-8.5 57.5q-1 57 45 103
q27 30 62 41v2q-50 9 -84 48q-45 46 -43 114q-2 59 47 109q51 51 120 51q73 0 106 -48q40 -42 57 -105h2v260l30 -26q2 -20 4 -35t7 -23q13 -27 41 -27q5 0 15 2l59 -56h-102zM364 385q0 34 -9.5 65.5t-27.5 57.5q-38 58 -104 58q-44 0 -74 -23.5t-32 -56.5q-3 -31 10 -60
q11 -19 23 -26t26 -5l-4 30q0 46 54 46q26 0 46 -20.5t20 -47.5q0 -35 -31 -58q-6 -4 -12 -7.5t-11 -5.5v-2q55 -8 81 -44q14 -15 24.5 -32t18.5 -37h2v168z" />
    <glyph glyph-name="u09A3_u09CD_u09AE" horiz-adv-x="673" 
d="M523 33q-21 38 -41.5 63.5t-40.5 28.5q-6 -29 -28.5 -48.5t-51.5 -19.5q-35 0 -59 21.5t-24 56.5t22 61t55 26h19l-10 163q-1 32 -11 65t-30 58q-45 58 -112 58q-45 0 -77 -35q-31 -32 -31 -80q0 -16 3.5 -31.5t8.5 -27.5q15 -37 46 -37l4 5l-4 31q0 46 53 46
q27 0 46.5 -21t19.5 -47q0 -18 -8.5 -33t-22 -25.5t-31.5 -16t-36 -5.5q-66 0 -111 48q-45 49 -45 114q0 41 13.5 75.5t36.5 62.5q51 57 131 57q59 0 106 -48q40 -42 57 -105h2v260l30 -26q2 -20 4 -35t7 -23q5 -11 16 -18.5t25 -6.5h169l55 -56h-97v-643q-6 4 -20.5 26
t-37.5 62zM426 588v-380q21 -10 44.5 -40t48.5 -72h2v492h-95z" />
    <glyph glyph-name="u09A3_u09F0_u09CD" horiz-adv-x="520" 
d="M377 67v121l49 50v-263q-5 3 -17.5 18.5t-33.5 41.5q-28 33 -75 36h-99q-42 1 -77 7.5t-63 17.5q-40 19 -63 52.5t-23 81.5q0 17 4.5 42t14.5 57l21 -21q-5 -6 -6 -15t-1 -23q0 -90 85 -107q35 -2 63.5 -5.5t54.5 -6.5q112 -10 164 -85zM426 588v-584l-62 63v318
q0 70 -41 123q-45 58 -112 58q-45 0 -77 -35q-31 -32 -31 -80q0 -16 3.5 -31.5t8.5 -27.5q15 -37 45 -37q5 0 6.5 1t-1.5 6v-1q-2 7 -3.5 14t-1.5 16q3 44 54 46q27 0 46.5 -21t19.5 -47q0 -18 -8.5 -33t-22 -25.5t-31.5 -16t-36 -5.5q-66 0 -111 48q-45 49 -45 114
q0 41 13.5 75.5t36.5 62.5q51 57 131 57q59 0 106 -48q40 -42 57 -105h2v260l30 -26q0 -44 16.5 -64t50.5 -19l56 -56h-99z" />
    <glyph glyph-name="u09A3_u09AC_u09CD" horiz-adv-x="520" 
d="M426 588v-674q-33 15 -64 62q-16 24 -29.5 40.5t-23.5 24.5q-21 14 -53.5 22t-67.5 9l-56 78q63 44 120.5 82t111.5 72v81q0 70 -41 123q-45 58 -112 58q-45 0 -77 -35q-31 -32 -31 -80q0 -16 3.5 -31.5t8.5 -27.5q15 -37 45 -37q5 0 6.5 1t-1.5 6v-1q-2 7 -3.5 14
t-1.5 16q3 44 54 46q27 0 46.5 -21t19.5 -47q0 -18 -8.5 -33t-22 -25.5t-31.5 -16t-36 -5.5q-66 0 -111 48q-45 49 -45 114q0 41 13.5 75.5t36.5 62.5q51 57 131 57q59 0 106 -48q40 -42 57 -105h2v260l30 -26q2 -20 4 -35t7 -23q13 -27 41 -27q5 0 15 2l59 -56h-102z
M229 126q39 -10 73 -31t62 -55v26v148q-24 -14 -58 -35.5t-78 -50.5z" />
    <glyph glyph-name="u09A4_u09CD_u09A4" horiz-adv-x="597" 
d="M1 588l-57 56h599l57 -56h-599zM553 185q0 -160 -170 -160q-223 0 -359 482l36 -20v1q39 -92 68 -151.5t48 -88.5q93 -139 207 -139q50 0 87 26q40 30 40 79q0 27 -34 55q-23 -23 -51 -23q-30 0 -49.5 18.5t-19.5 48.5q0 27 18.5 49t45.5 22q20 0 46 -12q42 19 42 67
q0 30 -20.5 48t-49.5 18q-106 0 -164 -83q35 -27 35 -68q0 -45 -57 -48q-75 3 -78 84q2 36 23 68t59 58q35 22 74 33.5t77 11.5q56 0 98 -39q44 -38 44 -93q0 -89 -42 -137q24 -24 35 -50.5t11 -56.5z" />
    <glyph glyph-name="u09A4_u09CD_u09A4_u09AC_u09CD" horiz-adv-x="597" 
d="M1 588l-57 56h599l57 -56h-599zM553 203q0 -141 -170 -141q-223 0 -359 447l36 -19q38 -84 68 -143t48 -86q93 -120 207 -120q51 -2 86 13q42 21 41 75q0 27 -34 52q-12 -10 -24.5 -16t-26.5 -6q-30 0 -49.5 18t-19.5 46q0 26 18.5 47.5t45.5 21.5q11 0 22 -3.5t24 -8.5
q42 19 42 63q0 29 -20.5 46t-49.5 17q-106 0 -164 -80q35 -26 35 -65q0 -44 -57 -45q-75 2 -78 80q2 35 23 65.5t59 54.5q35 20 74 31t77 11q56 0 98 -36q44 -36 44 -87q0 -43 -11 -75.5t-31 -56.5q46 -42 46 -100zM453 -89v151l-123 -81q61 -8 120 -71zM500 -194l-18 12
q-20 29 -40 51t-37 33q-21 15 -50.5 23t-60.5 9q-12 17 -24.5 32t-23.5 32l201 130v14l53 26v-362z" />
    <glyph glyph-name="u09A4_u09CD_u09A5" horiz-adv-x="626" 
d="M632 588h-107v-616q-3 2 -9 5.5t-11 6.5t-7.5 5t0.5 0l1 -1q-31 58 -67 100t-74 66t-91 40t-118 22h1l-92 126q17 -4 35.5 -6t32.5 -3q33 -2 68 5t66 23q90 52 90 126q0 32 -42 59l-53 -77q-13 5 -23.5 9t-23.5 8q7 13 9 30q0 8 -4.5 18t-12 19t-18 15t-22.5 6
q-13 0 -25 -4.5t-20.5 -11.5t-12 -16.5t-0.5 -19.5q19 -8 31.5 -13.5t17.5 -10.5q17 -14 17 -51q0 -22 -18.5 -36.5t-42.5 -14.5q-41 0 -72 41q-30 36 -30 80q0 45 39 84q20 20 41.5 29t44.5 9q62 6 120 -64l58 78q96 -114 104 -202q1 -23 -5.5 -44t-16.5 -38
q-46 -65 -120 -96q45 -29 95.5 -67t105.5 -87v616l31 -38v-4q-3 -49 49 -49q5 0 9.5 0.5t9.5 1.5z" />
    <glyph glyph-name="u09A4_u09CD_u09A8" horiz-adv-x="657" 
d="M536 171v-434l-23 22v-1q-61 238 -218 238q-13 0 -25 -6q43 -37 43 -80q0 -33 -18 -55t-50 -22q-41 0 -69 25.5t-28 65.5q0 62 39 96t99 34q66 0 123 -51q54 -48 72 -114h2v238zM663 588h-667l-59 56h667zM593 293q0 -41 -17.5 -77t-47.5 -65q-66 -57 -149 -57
q-225 0 -351 457l32 -12q35 -83 64.5 -142.5t48.5 -86.5q87 -122 209 -122q59 0 111 44q53 44 53 102q0 47 -26 83q-31 43 -73 43q-14 0 -41 -7q23 -29 23 -66q0 -81 -89 -81q-44 0 -70 32t-26 78q0 53 43 87q38 31 92 31q46 0 85 -19.5t70 -54.5q29 -35 44 -77.5t15 -89.5z
" />
    <glyph glyph-name="u09A4_u09CD_u09AE" horiz-adv-x="705" 
d="M461 376q0 -30 -11.5 -57.5t-31.5 -48.5l-12 -10h1l-8 -6q14 -15 28.5 -36t19.5 -50q21 -16 41 -34q17 -15 35.5 -34t31.5 -37v525h-562l-56 56h713l60 -56h-97q0 -66 0.5 -148.5t0.5 -168t0.5 -167.5t0.5 -148q-5 2 -19.5 15t-37.5 45q-11 16 -24 30.5t-26 26t-25 19
t-22 8.5q-1 -33 -26 -51t-54 -18q-35 0 -58 18t-25 58q-1 29 21 49.5t55 20.5h19q6 12 -2.5 29.5t-20.5 31.5q-28 -10 -66 -9q-163 2 -254 334l38 -20q17 -56 34.5 -96t33.5 -60q30 -39 68.5 -60t83.5 -19q50 4 77 27.5t29 68.5q0 22 -7 40t-20 29.5t-29.5 16.5t-34.5 3
q26 -19 28 -50q-5 -65 -74 -65q-76 0 -76 86q0 17 7 33.5t20.5 29t32.5 20.5t43 8q87 -2 126 -58q37 -55 31 -121z" />
    <glyph glyph-name="u09A4_u09F0_u09CD" horiz-adv-x="602" 
d="M-10 588l-55 56h627l57 -56h-629zM525 -15q-9 1 -19 9.5t-18 22.5l-21.5 43t-11.5 22q-14 17 -33 26t-45 9q-15 0 -36 -2t-49 -6q-27 -4 -48.5 -5.5t-36.5 -1.5q-86 0 -131 47t-45 141q0 48 13 86t37 67l21 -23q-32 -40 -32 -106t32 -99t92 -33q8 0 20.5 1t29.5 3t30 3.5
t22 1.5q97 0 173 -65v337q0 35 -33 35q-23 0 -47 -7t-48 -31q-47 -42 -60 -93q8 2 16.5 3t16.5 1q12 0 21 -6.5t15 -16t9 -20.5t3 -21q0 -64 -74 -64q-99 0 -99 113q0 72 80 144q40 36 77.5 49t75.5 13q34 0 69 -27q34 -27 34 -61v-489z" />
    <glyph glyph-name="u09A4_u09F0_u09CD_u09C1" horiz-adv-x="822" 
d="M-10 588l-55 56h627l57 -56h-629zM525 -15q-9 1 -19 9.5t-18 22.5l-21.5 43t-11.5 22q-14 17 -33 26t-45 9q-15 0 -36 -2t-49 -6q-27 -4 -48.5 -5.5t-36.5 -1.5q-86 0 -131 47t-45 141q0 48 13 86t37 67l21 -23q-32 -40 -32 -106t32 -99t92 -33q8 0 20.5 1t29.5 3t30 3.5
t22 1.5q97 0 173 -65v337q0 35 -33 35q-23 0 -47 -7t-48 -31q-47 -42 -60 -93q8 2 16.5 3t16.5 1q12 0 21 -6.5t15 -16t9 -20.5t3 -21q0 -64 -74 -64q-99 0 -99 113q0 72 80 144q40 36 77.5 49t75.5 13q34 0 69 -27q34 -27 34 -61v-489zM842 588h-245l-57 56h245zM770 348
q0 -23 -7.5 -43.5t-21 -36.5t-31.5 -25t-40 -9q-31 0 -74.5 30t-98.5 88v55q77 -117 148 -117q30 0 49.5 23t19.5 52q0 42 -39 67q3 -20 3 -32q0 -22 -21.5 -36t-45.5 -14q-16 0 -32 22q-12 18 -12 35q0 31 30 52q27 21 58 21q49 0 82 -41t33 -91z" />
    <glyph glyph-name="u09A4_u09F0_u09CD_u09C2" horiz-adv-x="770" 
d="M-10 588l-55 56h627l57 -56h-629zM525 -15q-9 1 -19 9.5t-18 22.5l-21.5 43t-11.5 22q-14 17 -33 26t-45 9q-15 0 -36 -2t-49 -6q-27 -4 -48.5 -5.5t-36.5 -1.5q-86 0 -131 47t-45 141q0 48 13 86t37 67l21 -23q-32 -40 -32 -106t32 -99t92 -33q8 0 20.5 1t29.5 3t30 3.5
t22 1.5q97 0 173 -65v337q0 35 -33 35q-23 0 -47 -7t-48 -31q-47 -42 -60 -93q8 2 16.5 3t16.5 1q12 0 21 -6.5t15 -16t9 -20.5t3 -21q0 -64 -74 -64q-99 0 -99 113q0 72 80 144q40 36 77.5 49t75.5 13q34 0 69 -27q34 -27 34 -61v-489zM788 588h-171l-58 56h172zM652 56
q-12 68 -12 267q2 63 -10 62q-5 1 -11 0.5t-18 -5t-31 -12.5t-48 -22v86q35 14 66.5 25t56 10t40 -18.5t17.5 -59.5q-9 -94 -5.5 -188.5t20.5 -188.5z" />
    <glyph glyph-name="u09A4_u09CD_u09B2" horiz-adv-x="649" 
d="M544 173q0 -91 -1 -179t-1 -179l-22 20q-3 45 -9.5 75.5t-14.5 45.5q-24 38 -54 38q-40 0 -40 -47l7 -31l-48 13q-1 17 -6.5 33.5t-13.5 29.5q-19 31 -50 31q-14 0 -28 -5t-25 -14t-18 -22t-7 -29q0 -44 27 -61q0 27 14.5 45.5t36.5 18.5q47 0 47 -58q0 -61 -68 -61
q-23 0 -44 8t-36.5 23t-24.5 36t-9 47q0 53 33 91q33 39 82 39q72 0 102 -82h2q0 66 50 66q42 0 68 -71h3q0 31 -1.5 72t-1.5 72zM664 588h-671l-56 56h667zM593 293q0 -41 -17.5 -77t-47.5 -65q-66 -57 -149 -57q-225 0 -351 457l32 -12q35 -83 64.5 -142.5t48.5 -86.5
q87 -122 209 -122q59 0 111 44q53 44 53 102q0 47 -26 83q-31 43 -73 43q-14 0 -41 -7q23 -29 23 -66q0 -81 -89 -81q-44 0 -70 32t-26 78q0 53 43 87q38 31 92 31q46 0 85 -19.5t70 -54.5q29 -35 44 -77.5t15 -89.5z" />
    <glyph glyph-name="u09A4_u09AC_u09CD" horiz-adv-x="608" 
d="M477 -119q-29 16 -57 55q-29 44 -49 61q-19 14 -47 20.5t-62 7.5l-51 69q57 39 112.5 76.5t104.5 68.5q13 -8 30 -28q19 -22 19 -30v-300zM427 157q-22 -13 -56 -34.5t-76 -50.5q75 -15 132 -90v175zM612 588h-620l-55 56h618zM552 319q-6 -78 -67 -131t-139 -53
q-101 0 -183.5 111t-140.5 313l38 -12q34 -78 60.5 -131.5t44.5 -80.5q78 -111 185 -113q55 0 101 34q48 37 49 101q0 44 -23 78q-26 29 -66 29q-15 0 -40 -6q28 -19 28 -53q-5 -78 -87 -78q-21 0 -38.5 8.5t-30 23.5t-19 34.5t-6.5 40.5q0 45 39 83q41 29 89 29
q46 2 85.5 -17t71.5 -57q24 -33 37.5 -72t11.5 -81z" />
    <glyph glyph-name="u09A5_u09CD_u09F0" horiz-adv-x="554" 
d="M566 588h-98v-588q-51 69 -85 110t-50 56q-40 35 -94 53t-108 19l-90 118q23 -4 43 -3t57 13t75 35q43 26 64.5 53.5t21.5 59.5q0 30 -21.5 51t-51.5 21q-22 0 -56 -18q-34 -19 -44 -37q31 -34 31 -57q0 -12 -6 -23t-16 -19t-23 -12.5t-26 -4.5q-33 0 -53.5 22.5
t-20.5 55.5q0 67 66 111q60 40 128 40q62 0 104 -47q44 -46 44 -108q0 -105 -139 -190q40 -23 67.5 -40.5t42.5 -29.5q29 -24 50.5 -47t33.5 -47h2v613l28 -34l6 -36q2 -10 7 -18.5t14 -15.5h40zM410 32v122l58 36v-264q-4 3 -16 18t-35 42q-29 34 -75 37h-99q-48 0 -88 6
t-68 17q-40 19 -63 52.5t-23 81.5q0 17 5 42t14 57l21 -21q-7 -11 -7 -38q0 -45 21 -68.5t64 -31.5q45 -8 78.5 -8t56.5 -4q57 -5 93.5 -21.5t62.5 -54.5z" />
    <glyph glyph-name="u09A5_u09F0_u09CD_u09C1" horiz-adv-x="785" 
d="M566 588h-98v-588q-51 69 -85 110t-50 56q-40 35 -94 53t-108 19l-90 118q23 -4 43 -3t57 13t75 35q43 26 64.5 53.5t21.5 59.5q0 30 -21.5 51t-51.5 21q-22 0 -56 -18q-34 -19 -44 -37q31 -34 31 -57q0 -12 -6 -23t-16 -19t-23 -12.5t-26 -4.5q-33 0 -53.5 22.5
t-20.5 55.5q0 67 66 111q60 40 128 40q62 0 104 -47q44 -46 44 -108q0 -105 -139 -190q40 -23 67.5 -40.5t42.5 -29.5q29 -24 50.5 -47t33.5 -47h2v613l28 -34l6 -36q2 -10 7 -18.5t14 -15.5h40zM410 32v122l58 36v-264q-4 3 -16 18t-35 42q-29 34 -75 37h-99q-48 0 -88 6
t-68 17q-40 19 -63 52.5t-23 81.5q0 17 5 42t14 57l21 -21q-7 -11 -7 -38q0 -45 21 -68.5t64 -31.5q45 -8 78.5 -8t56.5 -4q57 -5 93.5 -21.5t62.5 -54.5zM802 588h-245l-57 56h245zM730 348q0 -23 -7.5 -43.5t-21 -36.5t-31.5 -25t-40 -9q-31 0 -74.5 30t-98.5 88v55
q77 -117 148 -117q30 0 49.5 23t19.5 52q0 42 -39 67q3 -20 3 -32q0 -22 -21.5 -36t-45.5 -14q-16 0 -32 22q-12 18 -12 35q0 31 30 52q27 21 58 21q49 0 82 -41t33 -91z" />
    <glyph glyph-name="u09A5_u09F0_u09CD_u09C2" horiz-adv-x="677" 
d="M566 588h-98v-588q-51 69 -85 110t-50 56q-40 35 -94 53t-108 19l-90 118q23 -4 43 -3t57 13t75 35q43 26 64.5 53.5t21.5 59.5q0 30 -21.5 51t-51.5 21q-22 0 -56 -18q-34 -19 -44 -37q31 -34 31 -57q0 -12 -6 -23t-16 -19t-23 -12.5t-26 -4.5q-33 0 -53.5 22.5
t-20.5 55.5q0 67 66 111q60 40 128 40q62 0 104 -47q44 -46 44 -108q0 -105 -139 -190q40 -23 67.5 -40.5t42.5 -29.5q29 -24 50.5 -47t33.5 -47h2v613l28 -34l6 -36q2 -10 7 -18.5t14 -15.5h40zM410 32v122l58 36v-264q-4 3 -16 18t-35 42q-29 34 -75 37h-99q-48 0 -88 6
t-68 17q-40 19 -63 52.5t-23 81.5q0 17 5 42t14 57l21 -21q-7 -11 -7 -38q0 -45 21 -68.5t64 -31.5q45 -8 78.5 -8t56.5 -4q57 -5 93.5 -21.5t62.5 -54.5zM718 588h-171l-58 56h172zM582 56q-12 68 -12 267q2 63 -10 62q-5 1 -11 0.5t-18 -5t-31 -12.5t-48 -22v86
q35 14 66.5 25t56 10t40 -18.5t17.5 -59.5q-9 -94 -5.5 -188.5t20.5 -188.5z" />
    <glyph glyph-name="u09A5_u09AC_u09CD" horiz-adv-x="554" 
d="M468 -187q-31 16 -56 55q-33 47 -51 61q-18 13 -46.5 20t-61.5 8l-51 69q56 39 112 76.5t105 68.5q5 -4 13 -11t16 -17q20 -20 20 -31v-299zM418 90q-23 -14 -56.5 -35.5t-75.5 -50.5q73 -15 132 -90v176zM566 588h-98v-588q-51 69 -85 110t-50 56q-40 35 -94 53t-108 19
l-90 118q23 -4 43 -3t57 13t75 35q43 26 64.5 53.5t21.5 59.5q0 30 -21.5 51t-51.5 21q-22 0 -56 -18q-34 -19 -44 -37q31 -34 31 -57q0 -12 -6 -23t-16 -19t-23 -12.5t-26 -4.5q-33 0 -53.5 22.5t-20.5 55.5q0 67 66 111q60 40 128 40q62 0 104 -47q44 -46 44 -108
q0 -105 -139 -190q40 -23 67.5 -40.5t42.5 -29.5q29 -24 50.5 -47t33.5 -47h2v613l28 -34l6 -36q2 -10 7 -18.5t14 -15.5h40z" />
    <glyph glyph-name="u09A6_u09CD_u0997" horiz-adv-x="928" 
d="M121 588v-248q72 67 136.5 111t121.5 65l35 -26q3 66 64 108q29 20 61.5 29.5t68.5 9.5q89 0 139 -58q34 -40 72 -149h2l-10 162q-6 97 -6 159l33 -32l-4 -16q0 -61 51 -61q2 0 8 0.5t9 1.5l56 -56h-102v-600q-16 20 -32 39t-31 38l4 300q0 33 -13 67.5t-36 66.5
q-54 71 -119 71q-96 0 -133 -89q42 18 73 18q24 0 44.5 -6.5t35.5 -17.5q33 -28 33 -75q0 -32 -30 -80.5t-84 -107.5l-65 74q13 9 30.5 26.5t37.5 40.5q25 26 38.5 45t13.5 28q0 27 -33 27q-11 0 -55 -25q-20 -11 -35 -17.5t-23 -6.5q-10 0 -15 1q-60 -129 -60 -238
q0 -63 22 -172q-7 4 -19 9.5t-20 9.5q-17 79 -25.5 140t-8.5 100q0 73 19 148q-58 -22 -126 -86t-108 -137l-76 78v331h-59l-57 56h401l57 -56h-281z" />
    <glyph glyph-name="u09A6_u09CD_u0998" horiz-adv-x="821" 
d="M121 588v-261q30 33 64.5 61.5t70.5 52t70 41t62 28.5l92 -70q-38 -74 -58 -142t-20 -131t22 -172l-39 19q-17 79 -25.5 140t-8.5 100q0 73 19 148q-75 -30 -136.5 -88.5t-97.5 -135.5l-76 79v331h-59l-57 56h552l56 -56h-431zM828 588h-91v-587l-27 25v-1
q-44 110 -113 161.5t-161 46.5l-74 78q37 40 117 114q-20 -8 -44 -8q-44 0 -80 30q-18 16 -27 35.5t-9 40.5q0 31 19 65h-61l-55 56h551zM680 152v436h-205q-12 0 -23.5 -7t-20.5 -17.5t-14 -23.5t-5 -26q0 -26 19 -43t45 -17q57 0 90 45l59 -59q-33 -20 -69.5 -54
t-71.5 -78q132 -52 196 -156v0z" />
    <glyph glyph-name="u09A6_u09CD_u09A6" horiz-adv-x="616" 
d="M642 588h-539v-223q36 54 83 97t103 72l81 -65q-82 -90 -87 -191q12 22 34.5 48t54.5 54q31 24 60.5 43t52.5 30l84 -59q-40 -57 -63.5 -119.5t-23.5 -124.5q0 -35 6.5 -72.5t20.5 -79.5l-40 28q-36 89 -36 188q0 31 7 66t22 74q-34 -24 -59 -46.5t-41 -43.5
q-14 -20 -29.5 -47.5t-33.5 -67.5l-68 69q-9 118 40 217q-26 -20 -50 -42.5t-45 -51.5q-20 -29 -35 -56q-15 -25 -28 -56l-65 65v294h-58l-55 56h650z" />
    <glyph glyph-name="u09A6_u09CD_u09A6_u09F0_u09CD" horiz-adv-x="652" 
d="M559 -100q-56 120 -167 120q-7 0 -15 -0.5t-16 -1.5q-9 0 -31 -2.5t-57 -7.5q-68 -9 -87 -9q-70 0 -120 44q-48 43 -48 112q0 26 1 46.5t4 37.5l4.5 -4.5l8 -8l9 -9l6.5 -6.5q-5 -10 -5 -23q12 -103 121 -104h34q206 0 245 -18q10 -3 19.5 -8t20.5 -13q-12 40 -17.5 79
t-5.5 79q0 33 7 69t23 77q-68 -49 -101 -95q-30 -37 -65 -118l-71 71v-1q-1 10 -1.5 19.5t-0.5 20.5q0 91 43 183q-28 -19 -52 -42t-47 -52q-41 -58 -62 -116l-68 68v301h-81l-58 56h689l59 -56h-552v-229q73 112 190 173q20 -16 41.5 -33t41.5 -34q-40 -45 -63.5 -95.5
t-25.5 -100.5h2q10 22 33.5 48.5t55.5 55.5q31 26 60.5 44.5t56.5 29.5q20 -15 42.5 -29.5t43.5 -29.5q-42 -58 -66 -122t-24 -128q0 -35 6.5 -70.5t19.5 -73.5q20 -41 17 -94h3z" />
    <glyph glyph-name="u09A6_u09CD_u09A6_u09AC_u09CD" horiz-adv-x="628" 
d="M514 -151q-14 7 -28.5 21t-27.5 34q-32 46 -51 60q-18 14 -46.5 21t-61.5 8l-51 69q56 38 108 73t100 67q-1 16 -1.5 30.5t-0.5 27.5q0 26 1.5 49t6.5 45q-34 -24 -59 -46.5t-41 -43.5q-14 -20 -29.5 -47.5t-33.5 -67.5l-68 69v-1q-1 9 -1 18v18q0 88 41 182
q-26 -20 -50 -42.5t-45 -51.5q-20 -29 -35.5 -55.5t-26.5 -54.5l-66 63v294h-48l-55 56h640l57 -56h-539v-223q36 54 83 97t103 72l81 -65q-82 -90 -87 -191h3q9 22 31.5 48t54.5 54q31 24 60.5 43t52.5 30l84 -59q-57 -68 -57 -256q0 -16 0.5 -36.5t1.5 -37.5v-56v-159z
M335 39q71 -17 129 -89v170q0 4 -2 6q-22 -14 -54 -35t-74 -50z" />
    <glyph glyph-name="u09A6_u09CD_u09A7" horiz-adv-x="637" 
d="M111 588v-179q31 28 52.5 47t32.5 28q59 46 117 45q43 0 70 -44q26 -39 26 -87q62 38 88 38q73 0 70 -160v-23t-1 -26q0 -4 -0.5 -7.5t-0.5 -7.5l-2 -47q0 -45 4 -86t13 -81q-80 35 -80 210v24t1 29q0 4 0.5 8.5t0.5 7.5l3 58q0 29 -90 -31v-329q-25 10 -53 58v-2
q-15 26 -29 45t-24 29q-23 18 -54.5 29.5t-71.5 13.5l-56 74q48 35 104 72t122 78v46q0 6 -3 13.5t-9 13.5t-14 9.5t-18 1.5q-94 -25 -208 -186l-44 64v254h-55l-58 56h645l55 -56h-533zM359 279q-22 -14 -56 -34.5t-76 -47.5q81 -29 132 -103v185z" />
    <glyph glyph-name="u09A6_u09CD_u09A7_u09AC_u09CD" horiz-adv-x="637" 
d="M415 -159q-28 16 -54 53q-31 44 -47 58q-17 12 -44 19t-59 8l-48 65l116 80q-20 11 -44.5 16.5t-51.5 7.5l-56 74q48 35 104 72t122 78v46q0 6 -3 13.5t-9 13.5t-14 9.5t-18 1.5q-94 -25 -208 -186l-44 64v254h-55l-58 56h645l55 -56h-533v-179q31 28 52.5 47t32.5 28
q59 46 117 45q43 0 70 -44q26 -39 26 -87q62 38 88 38q73 0 70 -160v-23t-1 -26q0 -4 -0.5 -7.5t-0.5 -7.5l-2 -47q0 -45 4 -86t13 -81q-80 35 -80 210v24t1 29q0 4 0.5 8.5t0.5 7.5l3 58q0 29 -90 -31v-463zM359 279q-22 -14 -56 -34.5t-76 -47.5q81 -29 132 -103v185z
M362 33q-8 14 -16.5 26t-16.5 23l-88 -59q72 -13 126 -86v86z" />
    <glyph glyph-name="u09A6_u09CD_u09A8" horiz-adv-x="541" 
d="M121 588v-221q70 66 135 107.5t123 58.5q25 -22 50 -46t50 -46q-44 -68 -44 -317q0 -46 1.5 -99t4.5 -111h-21q-7 38 -23.5 72t-40.5 59q-51 53 -115 53q-8 0 -25 -14q11 -4 17.5 -17t6.5 -30q0 -33 -22 -57t-53 -24q-18 0 -34 7.5t-27.5 20t-18.5 29.5t-7 36
q0 22 9.5 41t25 33t36.5 22.5t45 8.5q97 -2 186 -90q-5 54 -8 101.5t-6 84.5q-1 8 -1 17.5v20.5q0 32 3.5 69.5t9.5 81.5q-81 -41 -141 -97.5t-101 -134.5l-76 79v302h-59l-57 56h552l56 -56h-431z" />
    <glyph glyph-name="u09A6_u09CD_u09AD" horiz-adv-x="564" 
d="M237 588v-161q99 89 163 116q17 -11 44.5 -30t62.5 -47q-62 -51 -62 -124q20 -30 30 -47.5t13 -23.5q11 -20 15.5 -39.5t4.5 -39.5q0 -70 -45 -122q-48 -55 -138 -57q-67 1 -129.5 52t-115.5 143q-78 154 -77 338l39 -21q6 -69 23.5 -136t46.5 -125q86 -165 198 -165
q51 0 96 27q53 32 53 80q0 8 -2.5 18t-9.5 21q-96 -84 -153 -84q-33 0 -64 24q-32 24 -32 56q0 27 16.5 48.5t41.5 21.5q55 0 55 -53q0 -6 -1.5 -14.5t-6.5 -16.5q33 7 93 48q-2 26 -3 49.5t-1 44.5q0 55 8 82q-120 -41 -157 -128l-57 71v194h-188l-56 56h575l54 -56h-334z
" />
    <glyph glyph-name="u09A6_u09CD_u09AD_u09F0_u09CD" horiz-adv-x="481" 
d="M153 588v-161q99 89 163 116q17 -11 44.5 -30.5t62.5 -46.5q-63 -55 -63 -123q1 -2 2 -5t2 -7t3 -9q42 -22 42 -35v-374q-19 23 -31.5 37t-19.5 22q-36 33 -71 33q-11 0 -26.5 -1t-35.5 -3t-36.5 -2.5t-25.5 -0.5q-148 0 -148 172q0 42 14.5 62.5t40.5 22.5
q-8 -24 -13 -44.5t-5 -28.5q0 -66 60 -94q35 -16 126 -28q42 -6 71.5 -13.5t45.5 -17.5v214q-88 -88 -154 -88q-87 0 -87 100q0 24 16.5 41.5t39.5 17.5q56 0 56 -45q0 -25 -13 -42q33 1 105 58q-1 1 -2 4.5t-2 5.5l-5 20q-7 18 -7 31q0 26 3.5 52t9.5 52q-24 -8 -47 -20.5
t-43 -26.5q-51 -34 -65 -70l-58 61v194h-111l-57 56h500l54 -56h-335z" />
    <glyph glyph-name="u09A6_u09CD_u09AE" horiz-adv-x="592" 
d="M503 588v-590q-6 3 -13.5 8l-13.5 9q-16 36 -26 58t-15 30q-33 52 -72 52q0 -1 -1 -1t-3 -0.5t-4 -0.5q-5 -72 -75 -72q-36 0 -62.5 23.5t-26.5 57.5q0 87 108 87q-5 28 -7 58t-1 65q-1 15 1 34t8 43q-41 -36 -81.5 -84t-93.5 -117l-65 59v281h-62l-55 56h605l56 -56
h-101zM447 588h-333v-208q17 22 48 53.5t56 52.5q26 23 52.5 39t52.5 24l78 -56q-29 -41 -45 -104.5t-16 -149.5q32 -11 107 -85v434z" />
    <glyph glyph-name="u09A6_u09F0_u09CD" horiz-adv-x="570" 
d="M174 588v-210q96 93 232 138l102 -76q-28 -55 -42.5 -112t-14.5 -117q0 -11 0.5 -24t2.5 -24q3 -39 10 -84t17 -92l-17 4h1q-2 2 -15 16.5t-37 43.5q-32 38 -76 38q-9 0 -24 -1t-38 -3q-22 -2 -37 -3t-24 -1q-216 -8 -216 160q0 64 23 122l31 -19q-13 -30 -13 -58
q0 -69 27 -96q22 -21 72 -21q6 0 21 1t35 3q2 0 3.5 0.5t3.5 0.5q25 2 42 4t26 2q56 0 89 -24q29 -19 70 -78l2 1q-16 36 -28 77.5t-20 83.5q0 19 1 42.5t3 46t4.5 42t6.5 31.5q-66 -15 -125 -68q-26 -26 -48.5 -54t-40.5 -56l-69 71v293h-121l-57 56h587l57 -56h-406z" />
    <glyph glyph-name="u09A6_u09F0_u09CD_u09C1" horiz-adv-x="799" 
d="M174 588v-210q96 93 232 138l102 -76q-28 -55 -42.5 -112t-14.5 -117q0 -11 0.5 -24t2.5 -24q3 -39 10 -84t17 -92l-17 4h1q-2 2 -15 16.5t-37 43.5q-32 38 -76 38q-9 0 -24 -1t-38 -3q-22 -2 -37 -3t-24 -1q-216 -8 -216 160q0 64 23 122l31 -19q-13 -30 -13 -58
q0 -69 27 -96q22 -21 72 -21q6 0 21 1t35 3q2 0 3.5 0.5t3.5 0.5q25 2 42 4t26 2q56 0 89 -24q29 -19 70 -78l2 1q-16 36 -28 77.5t-20 83.5q0 19 1 42.5t3 46t4.5 42t6.5 31.5q-66 -15 -125 -68q-26 -26 -48.5 -54t-40.5 -56l-69 71v293h-121l-57 56h587l57 -56h-406z
M802 588h-246l-56 56h245zM730 319q0 -23 -7.5 -43.5t-21 -36t-32 -24.5t-40.5 -9q-31 0 -74 30t-97 87v56q76 -118 147 -118q30 0 49 23.5t19 52.5q0 41 -39 66q3 -18 3 -31q0 -23 -21 -37t-46 -14q-16 0 -30 22q-13 19 -13 36q0 31 29 51q27 21 58 21q50 0 83 -40
q33 -42 33 -92z" />
    <glyph glyph-name="u09A6_u09F0_u09CD_u09C2" horiz-adv-x="691" 
d="M692 588h-151l-57 56h151zM629 -13l-58 47v-1q-4 30 -5.5 95t-1.5 165q0 42 -10 62q-17 0 -53 -17l-22 -9l-30 -12q0 18 -1 42.5t-1 42.5q48 17 74.5 26t31.5 9q72 3 73 -78q-1 -19 -2.5 -41t-2.5 -42q-4 -25 -5.5 -47t-1.5 -37q0 -45 3 -96t10 -110zM174 588v-210
q96 93 232 138l102 -76q-28 -55 -42.5 -112t-14.5 -117q0 -11 0.5 -24t2.5 -24q3 -39 10 -84t17 -92l-17 4h1q-2 2 -15 16.5t-37 43.5q-32 38 -76 38q-9 0 -24 -1t-38 -3q-22 -2 -37 -3t-24 -1q-216 -8 -216 160q0 64 23 122l31 -19q-13 -30 -13 -58q0 -69 27 -96
q22 -21 72 -21q6 0 21 1t35 3q2 0 3.5 0.5t3.5 0.5q25 2 42 4t26 2q56 0 89 -24q29 -19 70 -78l2 1q-16 36 -28 77.5t-20 83.5q0 19 1 42.5t3 46t4.5 42t6.5 31.5q-66 -15 -125 -68q-26 -26 -48.5 -54t-40.5 -56l-69 71v293h-121l-57 56h587l57 -56h-406z" />
    <glyph glyph-name="u09A6_u09AC_u09CD" horiz-adv-x="485" 
d="M111 588v-179q31 28 52.5 47t32.5 28q59 46 117 45q43 0 78 -44q11 -20 18 -42t6 -43v-425q-25 10 -53 58v-2q-15 26 -29 45t-24 29q-23 18 -54.5 29.5t-71.5 13.5l-56 74q48 35 104 72t122 78v46q0 6 -3 13.5t-9 13.5t-14 9.5t-18 1.5q-94 -25 -208 -186l-44 64v254h-55
l-58 56h495l54 -56h-382zM359 279q-22 -14 -56 -34.5t-76 -47.5q81 -29 132 -103v185z" />
    <glyph glyph-name="u09A7_u09CD_u09A8" horiz-adv-x="505" 
d="M434 433v-538h-21q-8 38 -24.5 72t-40.5 59q-50 53 -115 53q-8 0 -25 -14q24 -11 24 -48q0 -16 -6 -30.5t-16.5 -26t-24 -18t-28.5 -6.5q-37 0 -62.5 27.5t-25.5 66.5q0 42 35 74q34 31 82 31q60 0 113.5 -35t86.5 -95h2v120zM434 588v-602l-32 45v-1q-11 19 -22 39
t-25 40q-45 66 -90 99q-29 20 -67 32t-84 17l-67 91l148 110q-53 0 -87 25q-17 14 -27 33t-10 43q0 40 27.5 66t67.5 26q68 0 70 -46q1 -23 -12 -36t-34 -13q-10 0 -20.5 4t-22.5 14q-10 -13 -10 -32q0 -27 24 -44t62 -17q11 0 155 86v77h104l56 -56h-104zM378 464
q-51 -19 -103.5 -52t-106.5 -81q137 -66 210 -186v319z" />
    <glyph glyph-name="u09A7_u09CD_u09AE" horiz-adv-x="679" 
d="M589 588v-654q-14 8 -24.5 22.5t-15.5 30.5q-5 19 -12 35.5t-9 20.5q-20 23 -86 38q0 -26 -18.5 -46t-43.5 -20q-74 0 -74 71q0 56 68 66q-43 67 -120 86q-17 5 -52 9.5t-89 9.5h1q-16 23 -33 45.5t-34 45.5l18 12q31 23 64.5 47.5t65.5 50.5q-53 0 -87 25q-17 14 -27 33
t-10 43q0 40 28 66t68 26q26 0 47.5 -12.5t21.5 -33.5q0 -44 -43 -44q-20 0 -45 15l-3.5 -14t-3.5 -11l-3 -9q0 -27 23.5 -44t52.5 -17q10 0 29.5 8.5t50.5 27.5l84 50v77h255l57 -56h-101zM534 588h-100v-437q23 -10 48.5 -28t51.5 -42v507zM378 464q-100 -38 -211 -134
q151 -22 211 -123v257z" />
    <glyph glyph-name="u09A7_u09F0_u09CD" horiz-adv-x="524" 
d="M383 22v121l51 50v-263q-5 3 -17.5 18.5t-34.5 40.5q-14 16 -32.5 25.5t-41.5 11.5h-100q-32 0 -63.5 6t-59.5 17q-39 20 -62.5 53.5t-23.5 81.5q0 32 20 98l21 -21q-7 -10 -7 -37q0 -91 85 -107q27 -3 52 -5.5t48 -5.5q114 -10 163 -85zM434 588v-602l-32 45v-1
q-11 19 -22 39t-25 40q-45 66 -90 99q-29 20 -67 32t-85 17h1q-16 23 -33 45.5t-34 45.5l148 110q-53 0 -87 25q-17 14 -27 33t-10 43q0 40 27.5 66t67.5 26q70 0 70 -46q0 -44 -42 -44q-21 0 -46 15q-10 -13 -10 -34q0 -27 23.5 -44t61.5 -17q11 0 155 86v77h96l55 -56h-95
zM378 464q-51 -19 -103.5 -52t-106.5 -81q137 -66 210 -186v319z" />
    <glyph glyph-name="u09A7_u09F0_u09CD_u09C1" horiz-adv-x="760" 
d="M383 22v121l51 50v-263q-5 3 -17.5 18.5t-34.5 40.5q-14 16 -32.5 25.5t-41.5 11.5h-100q-32 0 -63.5 6t-59.5 17q-39 20 -62.5 53.5t-23.5 81.5q0 32 20 98l21 -21q-7 -10 -7 -37q0 -91 85 -107q27 -3 52 -5.5t48 -5.5q114 -10 163 -85zM434 588v-602l-32 45v-1
q-11 19 -22 39t-25 40q-45 66 -90 99q-29 20 -67 32t-85 17h1q-16 23 -33 45.5t-34 45.5l148 110q-53 0 -87 25q-17 14 -27 33t-10 43q0 40 27.5 66t67.5 26q70 0 70 -46q0 -44 -42 -44q-21 0 -46 15q-10 -13 -10 -34q0 -27 23.5 -44t61.5 -17q11 0 155 86v77h96l55 -56h-95
zM378 464q-51 -19 -103.5 -52t-106.5 -81q137 -66 210 -186v319zM762 588h-245l-57 56h245zM690 348q0 -23 -7.5 -43.5t-21 -36.5t-31.5 -25t-40 -9q-31 0 -74.5 30t-98.5 88v55q77 -117 148 -117q30 0 49.5 23t19.5 52q0 42 -39 67q3 -20 3 -32q0 -22 -21.5 -36t-45.5 -14
q-16 0 -32 22q-12 18 -12 35q0 31 30 52q27 21 58 21q49 0 82 -41t33 -91z" />
    <glyph glyph-name="u09A7_u09F0_u09CD_u09C2" horiz-adv-x="667" 
d="M383 22v121l51 50v-263q-5 3 -17.5 18.5t-34.5 40.5q-14 16 -32.5 25.5t-41.5 11.5h-100q-32 0 -63.5 6t-59.5 17q-39 20 -62.5 53.5t-23.5 81.5q0 32 20 98l21 -21q-7 -10 -7 -37q0 -91 85 -107q27 -3 52 -5.5t48 -5.5q114 -10 163 -85zM434 588v-602l-32 45v-1
q-11 19 -22 39t-25 40q-45 66 -90 99q-29 20 -67 32t-85 17h1q-16 23 -33 45.5t-34 45.5l148 110q-53 0 -87 25q-17 14 -27 33t-10 43q0 40 27.5 66t67.5 26q70 0 70 -46q0 -44 -42 -44q-21 0 -46 15q-10 -13 -10 -34q0 -27 23.5 -44t61.5 -17q11 0 155 86v77h96l55 -56h-95
zM378 464q-51 -19 -103.5 -52t-106.5 -81q137 -66 210 -186v319zM688 588h-171l-58 56h172zM552 56q-12 68 -12 267q2 63 -10 62q-5 1 -11 0.5t-18 -5t-31 -12.5t-48 -22v86q35 14 66.5 25t56 10t40 -18.5t17.5 -59.5q-9 -94 -5.5 -188.5t20.5 -188.5z" />
    <glyph glyph-name="u09A7_u09AC_u09CD" horiz-adv-x="880" 
d="M779 588v-588l-31 37q-3 9 -7.5 18.5t-17 33.5t-35.5 52.5t-43 47.5q-72 66 -191 78l-73 104q168 117 344 176v41h-253l-55 56h423l54 -56h-115zM725 456q-54 -20 -109.5 -48t-116.5 -69q151 -63 226 -192v309zM434 588v-602l-32 45v-1q-11 19 -22 39t-25 40
q-45 66 -90 99q-29 20 -67 32t-84 17l-67 91l148 110q-53 0 -87 25q-17 14 -27 33t-10 43q0 40 27.5 66t67.5 26q68 0 70 -46q1 -23 -12 -36t-34 -13q-10 0 -20.5 4t-22.5 14q-10 -13 -10 -32q0 -27 24 -44t62 -17q11 0 155 86v77h104l56 -56h-104zM378 464
q-51 -19 -103.5 -52t-106.5 -81q137 -66 210 -186v319z" />
    <glyph glyph-name="u09A8_u09CD_u099F" horiz-adv-x="709" 
d="M346 588v-391q8 -37 55 -38q50 0 103 61q25 29 38 58t16 57l-18 -2q-29 0 -51.5 19t-22.5 48q0 31 20.5 53t52.5 22q48 0 77 -47q26 -40 26 -92q0 -82 -70 -164q-71 -86 -153 -86q-124 6 -127 126v65l-10 60q-16 90 -83 90q-15 0 -24 -5q21 -14 21 -41q0 -25 -21.5 -43
t-48.5 -18q-76 0 -76 68q0 24 8.5 44.5t23.5 36t35 24.5t44 9q42 0 80 -32q20 -15 31.5 -33t17.5 -38h2v189h-293l-55 56h587q0 8 0.5 17.5t0.5 17.5q1 50 -70 50q-8 0 -23.5 -1t-36.5 -4q-2 0 -4 -0.5t-4 -0.5q-26 -2 -43.5 -3t-26.5 -1q-65 0 -116 31q-60 33 -60 94
q0 64 40 67l3 -19q-5 -5 -10 -13.5t-5 -16.5q0 -34 31 -51q25 -15 61 -15q11 0 32.5 1.5t53.5 3.5q64 6 87 6q79 0 113 -44q31 -39 31 -119h76l56 -56h-371z" />
    <glyph glyph-name="u09A8_u09CD_u099F_u09F0_u09CD" horiz-adv-x="652" 
d="M532 -38v169q-29 -22 -56.5 -33.5t-56.5 -11.5q-124 6 -127 126v65l-10 60q-16 90 -83 90q-15 0 -24 -5q21 -14 21 -41q0 -25 -21.5 -43t-48.5 -18q-76 0 -76 68q0 24 8.5 44.5t23.5 36t35 24.5t44 9q42 0 80 -32q20 -15 31.5 -33t17.5 -38h2v189h-293l-55 56h587
q0 8 0.5 17.5t0.5 17.5q1 50 -70 50q-8 0 -23.5 -1t-36.5 -4q-2 0 -4 -0.5t-4 -0.5q-26 -2 -43.5 -3t-26.5 -1q-65 0 -116 31q-60 33 -60 94q0 64 40 67l3 -19q-5 -5 -10 -13.5t-5 -16.5q0 -34 31 -51q25 -15 61 -15q11 0 32.5 1.5t53.5 3.5q64 6 87 6q79 0 113 -44
q31 -39 31 -119h76l56 -56h-371v-391q8 -37 55 -38q50 0 103 61q25 29 38 58t16 57l-18 -2q-29 0 -51.5 19t-22.5 48q0 31 20.5 53t52.5 22q48 0 77 -47q26 -40 26 -92q0 -78 -60 -151v-316q-5 4 -17 19.5t-34 41.5q-28 33 -74 36h-100q-48 0 -88 6t-68 17
q-40 20 -63.5 53.5t-23.5 81.5q0 17 5.5 41.5t14.5 56.5l21 -21q-7 -12 -7 -37q0 -91 85 -107q45 -2 78 -5t56 -6q57 -5 97.5 -26t65.5 -59z" />
    <glyph glyph-name="u09A8_u09CD_u09A0" horiz-adv-x="533" 
d="M371 588q112 -151 112 -298q0 -100 -57 -169q-60 -75 -157 -75q-71 0 -124 44q-55 46 -55 117q0 20 10.5 40t28.5 38l10 7q16 12 32.5 23.5t33.5 23.5q39 36 39 79q0 22 -13 41.5t-36 19.5q-1 -1 -3 -1q-2 -1 -4 -1t-4 -1q4 -9 7.5 -20t7.5 -20q-2 -29 -22 -49t-49 -20
q-32 0 -52 26t-20 60q0 44 31.5 71t77.5 27q24 0 44 -9t34.5 -24t22 -35.5t7.5 -44.5q0 -15 -3 -29.5t-11 -28.5l2 -1q12 8 22.5 21.5t17.5 29t11 33t4 33.5q0 54 -19 92h-299l-57 56h340q-97 125 -97 223q0 69 66 119l59 -61q-68 -27 -68 -84q0 -64 92 -197h150l56 -56
h-168zM430 312q0 99 -65 185q0 -45 -8.5 -82t-26.5 -65q-24 -36 -82 -83q-66 -52 -92 -87q0 -37 26.5 -61.5t64.5 -24.5q37 0 70.5 19.5t60.5 54.5q25 32 38.5 68.5t13.5 75.5z" />
    <glyph glyph-name="u09A8_u09CD_u09A1" horiz-adv-x="635" 
d="M644 588h-293v-216q0 -11 5 -19q10 -15 33 1t54 55q2 4 16 23t37 53q19 -14 33 -34.5t25 -49.5q23 -53 23 -104t-15.5 -93.5t-44 -73t-70 -47.5t-92.5 -17q-77 0 -137.5 40t-105.5 116q-23 50 -52 118t-56 141l34 -9q26 -60 55 -114t59 -96q41 -56 91.5 -84t113.5 -28
q68 0 124 41q59 47 59 111q0 44 -26 85q-5 -17 -22 -35.5t-41 -37.5q-25 -18 -46.5 -28t-37.5 -10q-43 0 -70 73q-17 49 -39.5 80.5t-50.5 39.5l-2 -5q12 -20 11 -39q0 -19 -13 -30.5t-37 -12.5q-69 2 -66 81q3 33 29 53q22 17 58 16q40 -2 75 -45q27 -32 31 -61h2v162h-301
l-53 56h647z" />
    <glyph glyph-name="u09A8_u09CD_u09A1_u09F0_u09CD" horiz-adv-x="637" 
d="M644 588h-293v-216q0 -11 5 -19q10 -15 33 1t54 55q2 4 16 23t37 53q19 -14 33 -34.5t25 -49.5q23 -53 23 -104t-15.5 -93.5t-44 -73t-70 -47.5t-92.5 -17q-77 0 -137.5 40t-105.5 116q-23 50 -52 118t-56 141l34 -9q26 -60 55 -114t59 -96q41 -56 91.5 -84t113.5 -28
q68 0 124 41q59 47 59 111q0 44 -26 85q-5 -17 -22 -35.5t-41 -37.5q-25 -18 -46.5 -28t-37.5 -10q-43 0 -70 73q-17 49 -39.5 80.5t-50.5 39.5l-2 -5q12 -20 11 -39q0 -19 -13 -30.5t-37 -12.5q-69 2 -66 81q3 33 29 53q22 17 58 16q40 -2 75 -45q27 -32 31 -61h2v162h-301
l-53 56h647zM459 -77v192l49 51v-335q2 -2 -1.5 2.5t-10.5 12.5t-17 20t-21 25q-28 32 -76 38h-100q-100 0 -155 23q-87 36 -87 133q0 33 20 99l21 -21q-4 -6 -6 -14.5t-2 -22.5q0 -91 87 -107q45 -2 78 -5t55 -6q113 -10 164 -86z" />
    <glyph glyph-name="u09A8_u09CD_u09A1_u09F0_u09CD_u09C1.blws" horiz-adv-x="651" 
d="M659 -361q-16 21 -35.5 43t-41.5 40q-20 17 -41.5 31t-38.5 24q-39 -53 -102 -61q-40 0 -72 19q-36 22 -36 61q0 20 8 37t22 29t32.5 18.5t39.5 6.5q31 0 83 -32q9 4 9 34l-5 8q-30 33 -75 36h-98q-48 0 -88 6t-69 17q-39 19 -62.5 52.5t-23.5 81.5q0 17 4.5 42t14.5 57
l21 -22q-6 -9 -6 -37q0 -89 85 -107q45 -2 78 -4.5t55 -5.5q114 -12 166 -89v175q-54 -33 -128 -33q-77 0 -137.5 40t-105.5 116q-23 50 -52 118t-56 141l34 -9q26 -60 55 -114t59 -96q41 -56 91.5 -84t113.5 -28q68 0 124 41q59 47 59 111q0 44 -26 85q-5 -17 -22 -35.5
t-41 -37.5q-25 -18 -46.5 -28t-37.5 -10q-43 0 -70 73q-17 49 -39.5 80.5t-50.5 39.5l-2 -5q12 -20 11 -39q0 -19 -13 -30.5t-37 -12.5q-69 2 -66 81q3 33 29 53q22 17 58 16q40 -2 75 -45q27 -32 31 -61h2v162h-301l-53 56h659l55 -56h-304v-216q0 -11 5 -19q10 -15 33 1
t54 55q2 4 16 23t37 53q19 -14 33 -34.5t25 -49.5q23 -53 23 -104q0 -91 -45 -149v-314l-2 -6q23 -20 46.5 -43.5t44.5 -47.5q17 -20 25 -33t13 -22v-43zM401 -168q-59 1 -60 -32q1 -27 35 -31q23 -3 49 8q12 8 20.5 16t10.5 16q-9 11 -22 16.5t-33 6.5z" />
    <glyph glyph-name="u09A8_u09CD_u09A4" horiz-adv-x="639" 
d="M495 588q37 -56 37 -108q0 -38 -57 -93q99 -38 99 -156q0 -45 -15 -81t-42.5 -61t-65 -38.5t-82.5 -13.5q-151 0 -254 186q-83 153 -97 323l24 -14q18 -73 47.5 -143.5t59.5 -119.5q94 -143 227 -143q29 0 55 8.5t48 22.5q23 18 36.5 41t13.5 52q0 86 -96 86
q12 -14 19 -31t7 -34q0 -15 -7 -29t-18.5 -24.5t-26.5 -16.5t-31 -6q-42 0 -65.5 25.5t-23.5 67.5q0 79 97 107l-1 6q-11 5 -60 46q-35 29 -68 34l-4 -6q22 -22 22 -41q0 -15 -5.5 -28.5t-14.5 -24.5t-21 -17.5t-25 -6.5q-76 0 -76 85q0 43 28.5 66.5t72.5 23.5
q41 0 101 -30h-1q42 -26 77 -66q60 25 60 86q0 24 -14.5 45t-37.5 21h-420l-59 56h651l57 -56h-151z" />
    <glyph glyph-name="u09A8_u09CD_u09A4_u09C1" horiz-adv-x="598" 
d="M459 588q37 -41 37 -108q-3 -23 -17 -45.5t-42 -46.5q121 -26 121 -109q0 -25 -4 -39.5t-11 -26.5q-18 -29 -38 -33q62 -30 62 -94q0 -66 -43 -99.5t-118 -33.5q-287 0 -392 407q9 -5 20.5 -11.5t21.5 -11.5q21 -65 51 -120t68 -94q55 -54 111.5 -71.5t112.5 -17.5
q114 0 114 70q0 26 -30 43q-11 -18 -25 -24.5t-32 -6.5q-63 8 -69 74q1 31 19.5 49.5t48.5 16.5q22 0 45 -23q20 13 22 35t-7 35.5t-36.5 25.5t-67.5 7q-33 -2 -56 -13t-37 -34q32 -20 32 -74q-8 -64 -67 -64q-79 8 -80 93q0 66 58 106q49 36 118 43q-7 18 -20 34t-30 28
t-38 19t-44 7l-2 -7q21 -21 21 -40q3 -13 0.5 -26.5t-10.5 -25t-22 -18.5t-34 -7q-73 6 -76 85q0 43 29 66.5t72 23.5q62 0 95 -21q58 -31 97 -75q45 25 45 86q0 24 -14 45t-38 21h-383l-59 56h612l56 -56h-147z" />
    <glyph glyph-name="u09A8_u09CD_u09A4_u09F0_u09CD" horiz-adv-x="585" 
d="M474 588q35 -72 35 -108t-59 -95q25 -28 25 -68v-358q-13 17 -26.5 33t-27.5 32q-15 16 -35 25.5t-43 9.5q-25 0 -68 -10q-23 -4 -39.5 -6t-28.5 -2q-35 0 -63.5 13t-48.5 36q-18 23 -28 53t-10 65q0 61 28 110l26 -20q-12 -36 -12 -66q0 -62 33 -87q25 -19 79 -19h20.5
t26.5 1l48 2q62 0 116 -54v218q0 46 -33 64q-93 -14 -101 -72q13 1 21 3q4 1 7 1q18 0 31.5 -15.5t13.5 -34.5q0 -27 -23.5 -45t-51.5 -18q-81 0 -81 93q0 97 141 143l-48 50q-33 30 -60 31l-4 -6q21 -18 21 -41q0 -15 -5.5 -28.5t-14.5 -24t-21 -17t-26 -6.5q-74 0 -74 85
q0 41 29 65.5t72 24.5q39 0 98 -37q58 -36 73 -72q60 25 60 86q0 24 -14.5 45t-38.5 21h-400l-58 56h613l56 -56h-130z" />
    <glyph glyph-name="u09A8_u09CD_u09A4_u09AC_u09CD" horiz-adv-x="603" 
d="M495 587q38 -50 38 -75q0 -51 -58 -92q84 -21 84 -111q0 -51 -30 -94t-60 -50v-258q-11 2 -23.5 10t-26.5 24q-17 18 -30.5 30.5t-24.5 20.5q-41 25 -108 28l-48 71q12 9 37 25.5t64 40.5q-38 13 -71.5 34.5t-63.5 51.5q-24 23 -46.5 56.5t-40.5 74.5q-16 41 -31 82.5
t-32 83.5q10 -2 19.5 -6t19.5 -6q19 -57 46.5 -108t59.5 -89q42 -50 91 -78.5t103 -32.5q138 7 138 103q0 23 -11.5 42t-31.5 19q-2 -1 -6 -1q-3 -1 -6.5 -1t-7.5 -1q16 -19 16 -41q0 -63 -62 -63q-74 0 -74 77q0 49 46 67q-2 32 -22.5 55.5t-49.5 23.5l-20 -8
q20 -34 20 -46q0 -15 -5.5 -30t-14.5 -26.5t-21 -18.5t-25 -7q-76 0 -76 91q0 42 35 71q34 28 76 28q44 0 88 -28q50 -30 56 -72q26 0 45.5 16t19.5 42q0 28 -12 49q-16 26 -41 26h-95t-115 0.5t-115 0.5h-95l-59 56h607l57 -56zM417 149q-18 -11 -48.5 -29t-68.5 -42
q69 -18 117 -69v140z" />
    <glyph glyph-name="u09A8_u09CD_u09A5" horiz-adv-x="535" 
d="M587 -195q-160 157 -456 249l-56 132q64 -43 164 -43q66 0 117 30q30 18 45 43.5t15 62.5q0 42 -50 51q-9 0 -19 -3.5t-22 -8.5q0 -43 -34 -78q-33 -33 -76 -33q-13 0 -26.5 4t-22.5 11q-24 18 -24 44q0 54 56 90q48 32 110 32q-11 16 -27 31.5t-34.5 28t-39 20
t-41.5 7.5q3 0 6.5 -6t6.5 -13.5t5 -14t2 -7.5q0 -15 -5.5 -28.5t-14.5 -24.5t-21 -17.5t-25 -6.5q-75 0 -75 85q0 43 28.5 66.5t72.5 23.5q24 0 51 -6.5t51 -19t44 -30.5t31 -40q59 25 59 86q0 24 -14 45t-37 21h-339l-58 56h560l57 -56h-140q35 -67 35 -108
q-1 -54 -64 -99q54 -19 78.5 -53.5t24.5 -100.5q0 -94 -164 -168q63 -39 129 -92.5t130 -115.5z" />
    <glyph glyph-name="u09A8_u09CD_u09A5_u09F0_u09CD" horiz-adv-x="531" 
d="M447 -196v112q-65 42 -145 76t-171 62l-56 132q64 -43 164 -43q66 0 117 30q60 36 60 98q5 50 -50 59q-9 0 -19 -3.5t-22 -8.5q0 -43 -34 -78q-33 -33 -76 -33q-13 0 -26.5 4t-22.5 11q-24 18 -24 44q0 54 56 90q48 32 110 32q-26 39 -72 63q-23 14 -39.5 21.5t-27.5 8.5
l-5 -6q22 -24 22 -41q0 -15 -5.5 -28.5t-14.5 -24.5t-21 -17.5t-25 -6.5q-75 0 -75 85q0 43 28.5 66.5t72.5 23.5q54 0 115 -34h-1q49 -33 63 -62q59 25 59 86q0 24 -14 45t-37 21h-339l-58 56h550l57 -56h-130q35 -67 35 -108q-1 -54 -64 -99q109 -36 103 -154
q0 -94 -164 -168q63 -39 129 -92.5t130 -115.5l8 -47q-40 39 -91 76v-169q-5 3 -16.5 18t-34.5 42q-29 34 -75 37h-100q-101 0 -156 23q-87 37 -87 134q0 17 5.5 42t14.5 57l21 -21q-4 -5 -5 -14.5t-1 -23.5q0 -89 85 -107q45 -2 78 -4.5t55 -5.5q115 -12 164 -85z" />
    <glyph glyph-name="u09A8_u09CD_u09A6" horiz-adv-x="750" 
d="M350 588v-248q72 67 137 111t122 65l100 -76q-77 -148 -77 -273q0 -63 22 -172q-7 4 -19 9.5t-20 9.5q-17 79 -25.5 140t-8.5 100q0 73 19 148q-170 -60 -234 -224l-76 79v79q-11 21 -31 41q-54 44 -95 36q26 -20 29 -43q0 -36 -34 -58q-18 -12 -37 -12q-20 0 -42 11
q-23 10 -33 32t-12 52q8 45 32.5 71.5t63.5 29.5q28 0 52 -9.5t43.5 -25.5t35 -37.5t28.5 -44.5v209h-291l-55 56h782l56 -56h-432z" />
    <glyph glyph-name="u09A8_u09CD_u09A6_u09F0_u09CD" horiz-adv-x="750" 
d="M756 588h-396v-210q48 46 105.5 80.5t126.5 57.5l102 -76q-28 -54 -43.5 -111t-11.5 -166q3 -38 10 -83.5t17 -92.5l-17 4q-13 18 -33 41q-34 38 -65 45.5t-75 4.5q-17 0 -69 -9q-53 -8 -93 -6q-106 -4 -164.5 41.5t-69.5 136.5l-4 47l39 -18l5 -34q7 -42 49 -67
q29 -17 70 -19q20 -1 47 -0.5t60 2.5q34 3 55 4t31 1q24 0 43.5 -2.5t35.5 -7.5q61 -15 103 -73q-14 37 -28.5 79t-16.5 83q-1 19 -0.5 42.5t2.5 46t5 42t6 31.5q-66 -15 -125 -68q-25 -26 -48 -54t-41 -56l-68 71v41q-11 21 -31 41q-54 44 -95 36q26 -20 29 -43
q0 -36 -34 -58q-18 -12 -37 -12q-20 0 -42 11q-23 10 -33.5 31t-11.5 53q4 95 96 101q28 0 52 -9.5t43.5 -25.5t35 -37.5t28.5 -44.5v209h-301l-55 56h755z" />
    <glyph glyph-name="u09A8_u09CD_u09A6_u09AC_u09CD" horiz-adv-x="718" 
d="M350 588v-173q30 27 49.5 44t29.5 25q57 45 113 45q47 0 82 -44q11 -19 17.5 -40t6.5 -41v-429q-25 10 -53 58q-14 24 -26.5 42.5t-26.5 29.5q-46 38 -126 43l-56 74q48 35 105 72.5t122 77.5v46q0 12 -10.5 25.5t-27.5 13.5q-24 0 -55.5 -22.5t-62.5 -53t-57.5 -62
t-39.5 -49.5l-44 64q-6 14 -13.5 23.5t-17.5 19.5q-21 17 -42 28.5t-38 11.5q-3 0 -8 -1t-7 -3q13 -10 21 -20.5t8 -22.5q0 -36 -34 -58q-17 -11 -37 -11q-22 0 -42 10q-18 8 -31.5 31t-13.5 53q1 45 29 73t67 28q28 0 52 -9.5t44.5 -25.5t36 -37.5t26.5 -44.5v209h-291
l-55 56h728l55 -56h-377zM592 279q-22 -14 -56 -34.5t-76 -47.5q83 -29 132 -103v185z" />
    <glyph glyph-name="u09A8_u09CD_u09A7" horiz-adv-x="626" 
d="M388 588v-164q66 33 97 33q26 0 46.5 -13t20.5 -29q0 -29 -2 -57t-5 -57q-3 -28 -5.5 -57t-2.5 -58q0 -34 3 -66t12 -64q-21 8 -38 25t-28 37v257q-34 0 -100 -36v-359q-8 2 -22 27t-30 56q-13 23 -24 45t-19 31q-24 26 -59.5 39t-78.5 14l-54 73l20 12q23 15 71.5 44
t123.5 74q-6 18 -17.5 33t-26.5 26t-33 17.5t-36 6.5q-22 0 -39 -14q18 -21 18 -41q0 -12 -6 -22t-15 -18t-20.5 -12.5t-23.5 -4.5q-13 0 -25.5 5.5t-22.5 14.5t-16 21.5t-6 26.5q0 51 29 82t80 31q91 0 179 -124v165h-329l-59 56h636l55 -56h-248zM333 318
q-22 -11 -55.5 -30t-76.5 -47q35 -6 67.5 -24.5t64.5 -53.5v155z" />
    <glyph glyph-name="u09A8_u09CD_u09A7_u09AC_u09CD" horiz-adv-x="633" 
d="M386 -122q-11 8 -24.5 20.5t-25.5 30.5q-30 40 -45 54q-17 13 -43 19t-55 7l-45 63q32 23 62.5 43t60.5 40q-23 19 -53 27.5t-62 9.5l-57 73l20 12q23 15 71.5 44t123.5 74q-6 18 -17.5 33t-26.5 26t-33 17.5t-36 6.5q-22 0 -39 -14q18 -21 18 -41q0 -12 -6 -22t-15 -18
t-20.5 -12.5t-23.5 -4.5q-13 0 -25.5 5.5t-22.5 14.5t-16 21.5t-6 26.5q0 51 29 82t80 31q91 0 179 -124v165h-329l-59 56h636l55 -56h-248v-164q66 33 97 33q26 0 46.5 -13t20.5 -29q0 -29 -2 -57t-5 -57q-3 -28 -5.5 -57t-2.5 -58q0 -34 3 -66t12 -64q-21 8 -38 25t-28 37
v257q-34 0 -100 -36v-461zM333 318q-22 -11 -55.5 -30t-76.5 -47q35 -6 67.5 -24.5t64.5 -53.5v155zM309 106q-20 -12 -39 -26t-39 -31q60 -12 110 -79v77z" />
    <glyph glyph-name="u09A8_u09CD_u09A7_u09F0_u09CD" horiz-adv-x="656" 
d="M412 588v-164q64 33 96 33q26 0 46.5 -13t20.5 -29q0 -29 -2.5 -57t-5.5 -57q-3 -28 -5.5 -57t-2.5 -58q0 -34 3.5 -66t12.5 -64q-21 8 -38 25t-28 37v257q-33 0 -100 -36v-359q-8 2 -22 27t-30 56q-13 23 -24 45t-19 31q-24 26 -59.5 39t-78.5 14l-54 73l20 12
q23 15 71.5 44t123.5 74q-6 18 -17.5 33t-26.5 26t-33 17.5t-36 6.5q-22 0 -39 -14q18 -21 18 -41q0 -12 -6 -22t-15 -18t-20.5 -12.5t-22.5 -4.5q-27 0 -49 20t-22 48q0 51 29 82t80 31q91 0 179 -124v165h-363l-59 56h670l55 -56h-247zM356 318q-21 -11 -55 -30t-77 -47
q35 -6 67.5 -24.5t64.5 -53.5v155zM359 25v122l50 49v-263q-5 3 -17 18t-34 42q-28 32 -76 37q-13 2 -34.5 3.5t-51.5 3.5q-32 3 -56.5 7.5t-42.5 12.5q-40 19 -63.5 52.5t-23.5 81.5q0 17 5.5 41.5t14.5 56.5l21 -21q-7 -11 -7 -37q0 -45 23 -71.5t62 -35.5q5 -2 29 -6.5
t66 -11.5q85 -13 133 -82z" />
    <glyph glyph-name="u09A8_u09CD_u09A8" horiz-adv-x="533" 
d="M482 644l58 -56h-99v-665l-34 29q5 61 3 78q-5 18 -12.5 38.5t-15.5 35.5q-35 60 -71 88t-81 28q-1 -1 -4 -1q-2 -1 -5.5 -1t-7.5 -1q19 -26 22.5 -41.5t3.5 -27.5q2 -29 -17 -50t-57 -23q-100 0 -100 89q0 28 11 52.5t29.5 40.5t44 23t54.5 7q112 0 198 -158h2
q-2 57 -10.5 110.5t-37.5 116.5q-32 56 -70 88t-83 32l-18 -4q28 -43 27 -71q0 -37 -17 -54.5t-49 -20.5q-107 -3 -109 93q0 29 11 53.5t30 39t44 22.5t53 8q121 0 208 -176h2v222h-393l-56 56h546z" />
    <glyph glyph-name="u09A8_u09CD_u09AE" horiz-adv-x="634" 
d="M550 588v-603l-31 17l-29 94q-23 59 -65 59q0 -83 -65 -83q-17 0 -34 6t-30 16t-21 24t-8 31q0 84 86 88q-24 110 -38 144q-36 77 -114 77q-1 0 -4 -1q-2 -1 -5 -1.5t-8 -2.5q28 -45 28 -71q0 -67 -68 -77q-108 0 -108 96q0 57 41 95q40 37 97 37q98 0 151 -104h3v159
h-334l-56 56h642l56 -56h-86zM496 588h-113v-352q81 -9 110 -84h3v436z" />
    <glyph glyph-name="u09A8_u09F0_u09CD" horiz-adv-x="587" 
d="M495 101v-179q-3 3 -8 6.5t-9.5 7t-7.5 5.5t-1 1q-29 43 -61 76q-31 20 -90 20q-14 0 -30.5 -1.5t-37.5 -6.5q-41 -7 -70 -7q-84 0 -132 44.5t-48 126.5q0 33 1 54t4 30l26 -18t26 -17q-8 -8 -12.5 -22.5t-4.5 -34.5q3 -65 85 -80q27 -2 51.5 -1.5t47.5 0.5q43 2 56 3
q55 -3 98 -20.5t67 -54.5q0 48 -0.5 96t-0.5 96zM495 588v-601l-34 27l4 59q1 95 -53 198q-68 117 -157 117q-1 0 -3 -1t-5.5 -1.5t-8.5 -2.5q20 -25 29 -43t9 -28q0 -36 -21.5 -60.5t-56.5 -24.5q-108 0 -108 105q0 56 41 94q43 38 98 38q118 0 208 -186h2v310h-452l-55 56
h602l59 -56h-98z" />
    <glyph glyph-name="u09A8_u09AC_u09CD" horiz-adv-x="585" 
d="M445 380q-17 -15 -37 -15q-18 0 -37.5 11.5t-35.5 28.5q-12 13 -25.5 27t-27.5 28q-13 13 -27.5 20.5t-28.5 8.5l-6 -5q24 -22 24 -44q0 -14 -3 -28t-10.5 -25t-21 -18t-34.5 -8q-77 0 -77 88q0 44 30.5 69t74.5 25q41 0 92 -28.5t101 -85.5q48 22 44 90q0 25 -15.5 47
t-39.5 22h-392l-58 56h603l56 -56h-127q41 -54 38 -113q-8 -68 -59 -95h-1zM461 18q-31 14 -66 63q-16 26 -30.5 43.5t-25.5 24.5q-21 15 -53 23.5t-69 9.5l-57 78q66 46 127.5 87t118.5 77q6 -4 14.5 -6t19.5 -4q8 -2 14.5 -7t6.5 -10v-379zM405 331q-24 -14 -63 -38
t-87 -56q83 -20 150 -103v197z" />
    <glyph glyph-name="u09A8_u09CD_u09B8" horiz-adv-x="626" 
d="M541 588v-590l-54 63q0 10 1 23t1 24q3 42 3 77q0 104 -12 156.5t-56 52.5q-19 0 -33.5 -12t-30.5 -37q-14 -22 -28 -44.5t-31 -45.5q-26 -37 -52.5 -62.5t-43.5 -25.5q-23 0 -43.5 11.5t-38.5 31.5q-17 21 -37 60l36 27q24 -46 44 -46q19 0 87 87q-1 15 -10 29t-17 26
q-20 32 -54 29l-15 -1l-4 -2l9 -30q-1 -18 -18 -33.5t-36 -15.5q-78 0 -78 66q0 35 35 62q29 23 68 23q48 0 86 -33q20 -17 37.5 -37t23.5 -45q6 7 6 15t5 15q-4 39 -16 63.5t-31 35.5q-2 7 -34 15t-88 16q-33 9 -84 52h-45l-61 56h658l54 -56h-103zM487 588h-280
q111 -66 111 -126v-13.5t-1 -12.5q46 44 76 46q24 0 45 -20.5t49 -65.5v192z" />
    <glyph glyph-name="u09AA_u09CD_u099F" horiz-adv-x="806" 
d="M816 588h-382v-413q0 -41 32 -41q44 0 100 68q53 62 59 110l-19 -2q-27 2 -50 19t-23 44q0 34 22 55.5t56 21.5q44 0 70 -33t26 -79q0 -38 -19 -83.5t-51 -90.5q-34 -44 -74 -72.5t-75 -28.5q-108 -8 -108 201v138q-8 14 -21 32t-30 41q-40 -38 -83 -80.5t-82 -80.5
l-81 26l42 40q29 29 29 46q0 35 -35 35q-13 0 -40 -12q-28 -11 -42 -11t-26.5 15t-12.5 30q0 54 71 93q32 19 62.5 27.5t59.5 8.5q55 0 118 -57q20 -21 37.5 -43t33.5 -47v179h245q8 19 8 27q0 29 -26 43q-14 6 -28.5 10t-30.5 4q-14 0 -33.5 -1t-47.5 -4q-26 -2 -47 -3
t-35 -1q-63 0 -116 31h1q-61 36 -61 94q0 24 9 44q11 23 31 23l3 -19q-6 -7 -10 -16t-4 -19q0 -29 32 -47q25 -14 59 -14q15 0 36 1.5t50 3.5q58 6 88 6q79 0 127 -42q53 -42 48 -121h82zM281 528q-8 14 -32 21q-13 4 -23 6.5t-18 2.5q-80 0 -104 -48q18 0 33 -6.5
t25.5 -17.5t16 -25.5t2.5 -31.5z" />
    <glyph glyph-name="u09AA_u09CD_u09A4" horiz-adv-x="564" 
d="M566 588h-94v-213q78 -63 78 -151q0 -70 -57 -119q-27 -25 -59 -36.5t-67 -11.5q-156 5 -245 158q-45 78 -75 154.5t-47 153.5l36 -23v1q112 -366 312 -363q62 0 103 28q49 33 49 91q0 37 -19.5 62t-54.5 22l-27 -1q24 -25 24 -59q0 -57 -67 -57q-31 0 -52.5 21t-21.5 52
q0 46 30.5 72.5t72.5 26.5q20 0 36 -4q-3 39 -12 59q-10 25 -36 54l-163 -154l-70 29q53 26 53 70q0 2 -1 4q-2 4 -3 7q-13 16 -29 16q-8 0 -20 -5q-6 -2 -12.5 -3.5t-10.5 -1.5q-51 0 -51 38q0 23 16.5 47.5t46.5 47.5q29 19 58.5 31t52.5 12q57 0 110 -47q48 -42 68 -98h2
v249l26 -25q1 -26 7 -43.5t16 -26.5q22 -8 41 -8zM324 546q-26 36 -69 36q-59 0 -93 -52q54 -10 65 -72z" />
    <glyph glyph-name="u09AA_u09CD_u09A4_u09C1" horiz-adv-x="603" 
d="M566 588h-94v-211l-51 17q-3 37 -12 57q-10 25 -36 54l-163 -154l-70 29q53 26 53 70q0 2 -1 4q-2 4 -3 7q-13 16 -29 16q-8 0 -20 -5q-6 -2 -12.5 -3.5t-10.5 -1.5q-51 0 -51 38q0 23 16.5 47.5t46.5 47.5q29 19 58.5 31t52.5 12q57 0 110 -47q48 -42 68 -98h2v249
l26 -25q1 -26 7 -43.5t16 -26.5q22 -8 41 -8zM324 546q-26 36 -69 36q-59 0 -93 -52q54 -10 65 -72zM501 204q30 -7 50.5 -31t20.5 -55q0 -28 -13.5 -51t-36.5 -40q-46 -29 -105 -29q-74 0 -134.5 30t-107.5 87q-33 45 -75.5 123t-87.5 183l31 -10q45 -84 90.5 -149
t81.5 -102q42 -43 91 -67.5t102 -24.5q41 0 67 16q16 11 23.5 24t7.5 33q0 26 -18 35q-12 -31 -48 -31q-26 0 -46 16.5t-20 39.5q0 24 18.5 41.5t43.5 17.5q20 -3 31 -14q32 15 32 43q0 25 -27 43q-22 13 -50 13q-58 0 -88 -49q30 -19 30 -50q0 -23 -17 -36t-43 -13
q-66 3 -69 72q0 62 53 95q45 30 108 30q57 0 105 -25q54 -29 54 -83q0 -59 -54 -80v-2z" />
    <glyph glyph-name="u09AA_u09CD_u09A4_u09F0_u09CD" horiz-adv-x="654" 
d="M531 588q0 -85 -0.5 -171t-0.5 -171l-49 56v-1l-3 62q-2 23 -22 64q-21 30 -39 43l-189 -191l-78 30q26 25 41.5 46.5t15.5 35.5q0 56 -34 56q-14 0 -38 -10q-11 -6 -21 -8.5t-17 -2.5q-16 0 -28.5 13t-12.5 30q0 60 78 111q72 45 135 45q118 0 219 -174l2 2l-15 296
q5 -6 12 -11t13 -10q5 -45 9 -58q12 -28 43 -28q11 0 27 1t28 1l56 -56h-132zM378 523q-38 38 -80 38q-85 0 -117 -68q37 0 56 -28t14 -66zM555 293q8 -12 10.5 -18t5.5 -13l3 -8q1 -3 1.5 -17.5t0.5 -57.5v-122.5v-211.5l-20 17v-1q-8 19 -27 49q-29 35 -86 35
q-11 0 -26.5 -1.5t-35.5 -6.5q-26 -5 -44 -6.5t-33 -1.5q-18 0 -37.5 4.5t-36.5 12.5t-31 18.5t-23 23.5q-17 26 -25 54.5t-8 57.5q0 40 16 76q2 8 4 13t4 9t2 8l26 -21q-11 -38 -11 -65q0 -65 38 -92q23 -15 82 -15h12t13 1q12 1 30.5 1.5t45.5 0.5q58 0 87 -25
q9 -7 29 -30v246q0 6 -2 17t-6 21t-10 17.5t-15 7.5q-22 0 -39.5 -13t-32.5 -27q-11 -13 -17.5 -28.5t-8.5 -30.5q12 3 25 3q14 0 24.5 -5.5t17.5 -19.5q4 -11 4 -23q0 -28 -23 -45q-11 -9 -23.5 -13.5t-23.5 -4.5q-24 0 -50 16q-23 14 -29 34.5t-6 41.5q0 26 10 49t25.5 43
t35.5 36.5t41 28.5q7 2 27 7.5t43 5.5q19 0 37.5 -6.5t29.5 -25.5z" />
    <glyph glyph-name="u09AA_u09CD_u09A8" horiz-adv-x="619" 
d="M532 588v-610q-9 2 -19 18t-18 41q-24 76 -54 112q-52 60 -150 60q-3 0 -7 -1t-9 -2l-10 -2q44 -41 44 -80q0 -31 -20 -54.5t-49 -23.5q-41 0 -68.5 25t-27.5 67q0 60 38.5 94.5t98.5 34.5q119 0 190 -98l8 192q0 13 -5.5 27.5t-16.5 32.5q-22 35 -44 51l-197 -198
l-80 29q58 55 58 87q0 58 -34 58q-8 0 -17 -3t-23 -8q-25 -11 -40 -11q-17 0 -30.5 14t-13.5 31q0 29 22 59t59 56q36 23 71.5 35.5t67.5 12.5q83 0 156 -68q35 -32 55 -69t29 -81h2q-8 72 -13.5 149.5t-8.5 162.5q19 -27 37 -48v1q11 -19 27 -27.5t33 -9.5l55 -56h-96z
M365 531q-39 43 -88 43q-93 0 -131 -76q45 0 65.5 -30t15.5 -75z" />
    <glyph glyph-name="u09AA_u09CD_u09AA" horiz-adv-x="616" 
d="M365 531q-39 43 -88 43q-93 0 -131 -76h6q17 0 31 -6.5t24 -18.5t15.5 -28t5.5 -33v-8.5t-2 -11.5zM379 262q-47 45 -99 45q-93 0 -133 -78h8q38 1 61.5 -23t23.5 -60v-9t-2 -14zM194 395q0 53 -34 53q-8 0 -17 -3t-23 -8q-25 -11 -40 -11q-16 0 -30 14t-14 31
q0 12 10 31q78 132 210 132q75 0 142 -62q66 -60 83 -136h2q0 26 -1 64t-3 83q-3 106 -3 146l29 -22q0 -3 3 -6q2 -20 11.5 -35t27.5 -22h16h5l56 -56h-93v-608q-8 6 -24 23t-41 43v26q0 60 -6 99q-11 14 -35 32l-186 -199l-90 31q3 2 5 5t6 5q17 17 32 35t15 40
q0 58 -35 58q-13 0 -43 -11q-14 -5 -24.5 -8.5t-18.5 -3.5q-13 0 -20 15t-7 29q0 53 34 91q14 14 67 55q16 13 25 26.5t9 23.5zM296 355q71 0 122 -66l49 -76v171q-26 66 -54 88q-24 -21 -41 -35.5t-26 -21.5q-23 -23 -36 -37t-15 -21z" />
    <glyph glyph-name="u09AA_u09CD_u09AE" horiz-adv-x="799" 
d="M531 588v-521l-55 58q1 51 1 114.5v123.5q0 12 -6 28t-15 32q-11 17 -22 29t-21 20l-197 -198l-80 29q58 55 58 87q0 58 -34 58q-8 0 -17 -3t-23 -8q-25 -11 -40 -11q-17 0 -30.5 14t-13.5 31q0 30 21.5 59.5t61.5 55.5q35 23 71 35.5t68 12.5q123 0 229 -181
q-2 74 -5.5 148t-6.5 148q5 -6 12 -11t13 -10q5 -45 9 -58q12 -27 40 -27q54 0 105 0.5t102 0.5l56 -56h-281zM365 531q-39 43 -88 43q-93 0 -131 -76q40 0 61 -25t21 -63v-8.5t-1 -8.5zM707 596v-713l-32 17l-27 95q-56 60 -97 60q0 -84 -65 -84q-17 0 -34 5.5t-30 16
t-21 24t-8 30.5q0 85 85 88h9q5 0 9 -0.5t7 -0.5h7q81 -9 142 -88v550h55z" />
    <glyph glyph-name="u09AA_u09F0_u09CD" horiz-adv-x="658" 
d="M566 588v-597q-7 6 -50 59q-29 34 -76 37h-100q-52 -3 -92.5 1.5t-88.5 21.5q-46 22 -71 58t-25 84q0 32 20 98l21 -21q-8 -11 -8 -36q0 -91 87 -109q52 -5 87.5 -7t80.5 -9q108 -9 155 -77l7 270q0 25 -23 62q-10 17 -21 29t-22 20l-196 -198l-81 29q59 55 59 87
q0 58 -35 58q-12 0 -40 -11q-25 -11 -40 -11q-17 0 -30.5 14t-13.5 31q0 30 22 60t60 56q37 23 73 35t68 12q122 0 229 -181l2 1q-3 73 -7.5 147t-7.5 148l25 -21q3 -22 5.5 -36.5t4.5 -21.5q10 -28 43 -28q8 0 18 2l55 -56h-94zM401 531q-42 43 -89 43q-93 0 -131 -76
q44 0 65 -30t15 -75z" />
    <glyph glyph-name="u09AA_u09F0_u09CD_u09C1" horiz-adv-x="888" 
d="M566 588v-597q-7 6 -50 59q-29 34 -76 37h-100q-52 -3 -92.5 1.5t-88.5 21.5q-46 22 -71 58t-25 84q0 32 20 98l21 -21q-8 -11 -8 -36q0 -91 87 -109q52 -5 87.5 -7t80.5 -9q108 -9 155 -77l7 270q0 25 -23 62q-10 17 -21 29t-22 20l-196 -198l-81 29q59 55 59 87
q0 58 -35 58q-12 0 -40 -11q-25 -11 -40 -11q-17 0 -30.5 14t-13.5 31q0 30 22 60t60 56q37 23 73 35t68 12q122 0 229 -181l2 1q-3 73 -7.5 147t-7.5 148l25 -21q3 -22 5.5 -36.5t4.5 -21.5q10 -28 43 -28q8 0 18 2l55 -56h-94zM401 531q-42 43 -89 43q-93 0 -131 -76
q44 0 65 -30t15 -75zM902 588h-245l-57 56h245zM830 348q0 -23 -7.5 -43.5t-21 -36.5t-31.5 -25t-40 -9q-31 0 -74.5 30t-98.5 88v55q77 -117 148 -117q30 0 49.5 23t19.5 52q0 42 -39 67q3 -20 3 -32q0 -22 -21.5 -36t-45.5 -14q-16 0 -32 22q-12 18 -12 35q0 31 30 52
q27 21 58 21q49 0 82 -41t33 -91z" />
    <glyph glyph-name="u09AA_u09F0_u09CD_u09C2" horiz-adv-x="804" 
d="M566 588v-597q-7 6 -50 59q-29 34 -76 37h-100q-52 -3 -92.5 1.5t-88.5 21.5q-46 22 -71 58t-25 84q0 32 20 98l21 -21q-8 -11 -8 -36q0 -91 87 -109q52 -5 87.5 -7t80.5 -9q108 -9 155 -77l7 270q0 25 -23 62q-10 17 -21 29t-22 20l-196 -198l-81 29q59 55 59 87
q0 58 -35 58q-12 0 -40 -11q-25 -11 -40 -11q-17 0 -30.5 14t-13.5 31q0 30 22 60t60 56q37 23 73 35t68 12q122 0 229 -181l2 1q-3 73 -7.5 147t-7.5 148l25 -21q3 -22 5.5 -36.5t4.5 -21.5q10 -28 43 -28q8 0 18 2l55 -56h-94zM401 531q-42 43 -89 43q-93 0 -131 -76
q44 0 65 -30t15 -75zM828 588h-171l-58 56h172zM692 56q-12 68 -12 267q2 63 -10 62q-5 1 -11 0.5t-18 -5t-31 -12.5t-48 -22v86q35 14 66.5 25t56 10t40 -18.5t17.5 -59.5q-9 -94 -5.5 -188.5t20.5 -188.5z" />
    <glyph glyph-name="u09AA_u09CD_u09B2" horiz-adv-x="610" 
d="M531 588v-660q-7 3 -15.5 7.5t-15.5 8.5q-1 27 -6.5 60t-12.5 63l-10 24q-22 54 -63 54q-43 0 -43 -54q0 -6 0.5 -15.5t2.5 -19.5l-22 -9q-2 22 -12.5 39.5t-26.5 30.5q-35 28 -80 28q-38 0 -62 -20q-26 -23 -26 -58q0 -56 76 -70q-17 16 -17 44q0 24 18 41.5t42 17.5
q27 0 48 -29q16 -22 16 -55q0 -15 -6.5 -27.5t-18 -21.5t-25.5 -14.5t-30 -5.5q-62 0 -111 40q-20 19 -32 46.5t-12 58.5q0 24 7.5 48t17.5 41q15 18 36 29.5t44 11.5q67 0 124 -69q0 24 22 46t44 22q30 0 54 -24l1 -1q0 -1 2 -3q5 -4 16 -16t17 -28h3l4 211q0 13 -6 29
t-17 34q-11 17 -22 29t-21 20l-197 -198l-80 29q58 55 58 87q0 58 -34 58q-8 0 -17 -3t-23 -8q-25 -11 -40 -11q-17 0 -30.5 14t-13.5 31q0 30 21.5 60t60.5 56q36 23 72 35t68 12q123 0 229 -181l2 1q-3 73 -7 147t-7 148q5 -6 12 -11t13 -10q5 -45 9 -58q12 -28 43 -28
q8 0 18 2l56 -56h-95zM365 531q-39 43 -88 43q-93 0 -131 -76q45 0 65.5 -30t15.5 -75z" />
    <glyph glyph-name="u09AA_u09CD_u09B8" horiz-adv-x="712" 
d="M657 588v-595q-14 11 -29.5 24.5t-29.5 26.5l8 142q0 200 -88 200q-46 0 -79 -63l-38 -88l-11 -27q-16 -29 -36 -45t-42 -16q-35 0 -66 24.5t-56 71.5l40 34q20 -55 56 -55q19 0 36 30q13 23 16 44q-1 26 -15.5 52t-43.5 56l-158 -149l-73 25q61 54 61 79q0 27 -34 27
q-5 0 -12.5 -2.5t-16.5 -4.5q-19 -7 -30 -7q-37 0 -37 28q0 57 61 96q53 34 114 34q34 0 65.5 -12.5t58 -35.5t46.5 -56t32 -75l25 67q3 56 -54 110q-84 60 -166 60h-162l-58 56h752l57 -56h-93zM598 588h-257q40 -33 56 -65q18 -30 15 -73q45 35 69 35q30 0 63 -24
q14 -14 28.5 -28t25.5 -28v183zM233 448q-19 22 -59 22q-42 0 -88 -42q51 0 59 -64z" />
    <glyph glyph-name="u09AB_u09CD_u099F" horiz-adv-x="666" 
d="M135 588l131 -142l-118 -87q118 -46 181 -153v348q24 3 48 3q37 0 72 -8.5t63 -27t47 -47t25 -68.5q-1 -51 -25 -79.5t-70 -28.5q-27 0 -49.5 18t-22.5 46q0 62 72 62q31 0 42 -24q-4 77 -142 77h-5v-338q0 -121 52 -121q38 0 74 27q38 28 43 66q-44 -8 -67.5 12
t-23.5 49q0 33 22.5 55.5t55.5 22.5q22 0 39 -9t29 -24.5t18.5 -35.5t6.5 -42v-9q0 -72 -66 -121q-61 -46 -135 -46h-7q-87 0 -98 140q-31 95 -62 121q-24 30 -68 45.5t-99 17.5l-64 93q18 8 52.5 31.5t84.5 63.5q-16 23 -59 45q-26 11 -43.5 18.5t-26.5 12.5q-19 12 -40 35
t-44 58h440q0 8 1 17.5t1 17.5q0 15 -6.5 25t-17 15.5t-23 7.5t-24.5 2q-18 0 -52 -6q-17 -2 -29.5 -3t-20.5 -1q-64 0 -117 31q-61 35 -61 94q0 32 11 48.5t30 18.5q0 -4 1 -9t1 -10q-5 -5 -9 -13t-4 -17q0 -35 30 -51q25 -15 61 -15q12 0 29 1.5t40 3.5q46 6 70 6
q79 0 113 -44q27 -36 29 -119h191l55 -56h-562z" />
    <glyph glyph-name="u09AB_u09F0_u09CD" horiz-adv-x="679" 
d="M157 588q46 -34 86 -75t70 -83l-142 -118q133 -44 204 -165v394q4 1 12.5 1.5t17.5 1.5t16.5 1.5t10.5 0.5q77 1 136 -47q64 -52 64 -143q0 -101 -98 -101q-25 0 -44.5 19.5t-19.5 45.5q0 25 18 41.5t42 16.5q34 0 56 -25l6 17q0 91 -139 91l-23 -2v-456l-34 38v-1
q-4 11 -7.5 18.5t-5.5 12.5q-38 76 -82 111q-34 27 -80 41t-100 16l-65 95q28 30 69.5 67t92.5 79q-20 16 -41.5 28t-47.5 20q-32 11 -51.5 18t-28.5 12q-46 22 -102 86h677l55 -56h-522zM381 8v284l49 50v-427q-4 4 -16 19t-34 42q-28 33 -76 37h-98q-21 0 -51 1.5
t-59 12.5q-39 19 -62.5 52.5t-23.5 81.5q0 17 5 41.5t14 56.5l21 -21q-6 -11 -6 -37q0 -91 85 -107q23 -4 43.5 -2t43.5 0q113 -10 163 -85z" />
    <glyph glyph-name="u09AB_u09CD_u09B2" horiz-adv-x="669" 
d="M430 246v-373q-6 5 -11 10t-12 10q-2 45 -8 77t-16 47q-12 19 -25.5 29.5t-29.5 10.5q-40 0 -40 -48l7 -33l-49 11q-2 17 -8 35.5t-14 32.5q-20 31 -52 31q-15 0 -29 -5t-25.5 -14.5t-18.5 -23t-7 -29.5q0 -45 29 -63q0 28 15 47.5t36 19.5q48 0 48 -60q0 -63 -69 -63
q-24 0 -45 8.5t-36.5 24t-25 37t-9.5 47.5q0 28 9 52.5t24.5 42.5t37 28.5t46.5 10.5q72 0 105 -85h2q0 68 52 68q43 0 70 -72h2l-3 147zM157 588q46 -34 86 -75t70 -83l-142 -118q133 -44 204 -165v394q4 1 12.5 1.5t17.5 1.5t16.5 1.5t10.5 0.5q77 1 136 -47
q64 -52 64 -143q0 -101 -98 -101q-25 0 -44.5 19.5t-19.5 45.5q0 25 18 41.5t42 16.5q34 0 56 -25l6 17q0 91 -139 91l-23 -2v-456l-34 38v-1q-4 11 -7.5 18.5t-5.5 12.5q-38 76 -82 111q-34 27 -80 41t-100 16l-65 95q28 30 69.5 67t92.5 79q-20 16 -41.5 28t-47.5 20
q-32 11 -51.5 18t-28.5 12q-46 22 -102 86h677l55 -56h-522z" />
    <glyph glyph-name="u09AC.001_u099C.pres" horiz-adv-x="708" 
d="M722 588h-345v-28q3 -19 21 -32.5t45 -22.5q45 -14 92 -14q23 0 41.5 5t33.5 13l82 -75q-49 -63 -75.5 -134.5t-26.5 -146.5q0 -59 32 -148q-10 5 -21.5 11.5t-20.5 11.5q-16 62 -24.5 114.5t-8.5 94.5q0 77 60 200q-8 -3 -43 -3h-31q-64 1 -109 22q-41 14 -80 77v-182
l14 -13q1 1 11 9t28 22q27 18 40 19l5 -4q10 2 20 -14.5t18 -45.5q7 -26 11 -47t4 -36q0 -57 -45 -102q-43 -46 -100 -46q-127 0 -204.5 106t-105.5 310l36 -14q10 -57 30 -115t45 -100q35 -56 81 -85t101 -29q41 0 73 26q34 28 34 65q0 53 -16 53l-6 -1q-47 -40 -95 -40
q-5 0 -13.5 10.5t-19.5 26.5q-13 20 -26 38.5t-21 28.5q-17 17 -37.5 25t-40.5 6l-34 72q35 26 75 49.5t83 43.5v19h-295l-56 56h728zM289 363v141l-4 2q-21 -6 -42.5 -19.5t-45.5 -33.5q33 -12 55.5 -35t34.5 -55h2z" />
    <glyph glyph-name="u09AC.001_u099D.pres" horiz-adv-x="648" 
d="M663 588h-98v-737l-25 25q-6 18 -12 29t-11.5 19t-10.5 13.5t-10 13.5q-15 21 -36.5 37.5t-50.5 30.5q0 -54 -1 -89t-1 -67q-13 7 -26 23t-30 33q-17 18 -41.5 37.5t-41.5 30.5q-29 19 -55 31t-53 13l-52 69q42 29 84.5 57.5t88.5 56.5q-31 37 -74.5 50t-100.5 18l-75 97
q72 52 154.5 98.5t170.5 78.5v32h-361l-54 56h468v-560q25 -16 49.5 -40t48.5 -59v764q5 -6 12.5 -11t12.5 -10q-1 -5 -1 -14q0 -34 20 -58q20 -14 41 -14q5 0 15 2zM356 182v287q-51 -17 -102 -45.5t-104 -66.5q34 -16 63.5 -33t55.5 -37.5t47.5 -46t39.5 -58.5zM195 77
q32 -7 68 -34.5t77 -62.5l18 -15v149q-5 10 -14.5 22.5t-21.5 28.5q-36 -18 -68 -40t-59 -48z" />
    <glyph glyph-name="u09AC.001_u09A1.pres" horiz-adv-x="631" 
d="M499 427q45 -22 75 -81q12 -26 19.5 -54t7.5 -57q0 -47 -13.5 -86.5t-38.5 -69.5q-29 -30 -73.5 -47t-101.5 -17q-287 0 -354 478l36 -17q15 -63 37.5 -124t47.5 -109q34 -63 96.5 -96.5t153.5 -33.5q65 0 117 41q53 43 53 107q0 40 -32 75q-13 -41 -65 -80
q-26 -17 -49 -27t-44 -10q-49 0 -67 47q-35 45 -83 69t-97 24l-51 86q66 42 121.5 73t98.5 48v22h-245h-51l-56 56h644l54 -56h-293v-284q23 0 44.5 11.5t44.5 33.5zM165 415q32 -16 65 -40.5t63 -57.5v22v154q-34 -12 -67 -31t-62 -45z" />
    <glyph glyph-name="u09AC.001_u09A2.pres" horiz-adv-x="684" 
d="M521 475q50 0 79 -47q11 -20 17.5 -43t6.5 -49q0 -82 -70 -164q-71 -86 -152 -86q-53 0 -84.5 33t-42.5 93v20q-8 29 -25.5 51.5t-40.5 38.5q-24 15 -54 22.5t-59 5.5l-52 89q67 45 126 78t105 50v21h-278l-55 56h695l57 -56h-364v-391q18 -38 53 -38q50 0 103 61
q49 59 55 115l-19 -2q-27 2 -50 20.5t-23 46.5q0 31 20 53t52 22zM140 407q67 -31 135 -103v186q-37 -11 -70.5 -31.5t-65.5 -49.5z" />
    <glyph glyph-name="u09AC.001_u09A6.pres" horiz-adv-x="647" 
d="M649 588h-340v-253q22 23 47.5 49.5t47.5 50.5q27 24 54 46t50 33l95 -69q-47 -66 -71 -126t-24 -113q0 -48 8.5 -98.5t24.5 -101.5q-8 2 -16.5 6t-16.5 6q-21 51 -34 114.5t-13 132.5q0 26 6 60.5t20 78.5q-29 -18 -54.5 -44t-51.5 -59q-23 -32 -39 -63.5t-26 -62.5
l-70 56q-5 29 -19 51.5t-40 39.5q-25 16 -55 23t-60 5l-51 89q67 45 128 78.5t106 50.5v20h-258l-59 56h653zM252 308v182q-74 -24 -138 -82q70 -31 136 -101z" />
    <glyph glyph-name="u09AC.001_u09A6_u09F0_u09CD.pres" horiz-adv-x="645" 
d="M649 588h-340v-253q22 23 47.5 49.5t47.5 50.5q27 24 54 46t50 33l95 -69q-94 -134 -90 -239q0 -24 3 -45q6 -42 12 -79.5t13 -72.5q0 -4 1 -5l13 -68l-15 4q-3 2 -53 61q-34 37 -74 37l-90 -2l-88 -1q-215 -9 -215 160q0 66 23 122l30 -19q-12 -32 -12 -59q0 -69 27 -96
q21 -20 72 -20l89 2l95 3q26 -1 50.5 -6.5t39.5 -16.5q13 -11 29.5 -28.5t34.5 -41.5l2 1q-39 99 -39 229q0 26 6 60.5t20 78.5q-29 -18 -54.5 -44t-51.5 -59q-23 -32 -39 -63.5t-26 -62.5l-70 56q-5 29 -19 51.5t-40 39.5q-25 16 -55 23t-60 5l-51 89q67 45 128 78.5
t106 50.5v20h-258l-59 56h653zM252 308v182q-74 -24 -138 -82q70 -31 136 -101z" />
    <glyph glyph-name="u09AC.001_u09A7.pres" horiz-adv-x="645" 
d="M649 588h-244v-210q85 25 98 27q14 -3 28 -12.5t25 -22.5t18.5 -29t7.5 -32q0 -14 -0.5 -27t-1.5 -27q-1 -26 -2.5 -52t-1.5 -52q0 -48 4.5 -95.5t16.5 -93.5q-21 14 -36.5 26.5t-25.5 20.5q-10 11 -14 27t-5 39l3 217q0 7 -8 16t-15 9q-38 0 -91 -26v-366q-3 3 -5 6
t-5 5v-1q-36 83 -98 134q-33 27 -74.5 40.5t-79.5 13.5l-75 94l96 58q-17 9 -38 13.5t-40 5.5l-74 87q76 56 161 95t178 63v49h-359l-59 56h659zM351 364v92q-108 -27 -228 -106l80 -50zM351 59v220q-42 -15 -86.5 -38t-91.5 -55q88 -34 176 -128z" />
    <glyph glyph-name="u09AC_u09AC_u09CD" horiz-adv-x="864" 
d="M425 588v-588l-31 37q-3 9 -7.5 18.5t-17 33.5t-35.5 52.5t-43 47.5q-72 66 -191 78l-73 104q168 117 344 176v41h-383l-55 56h553l54 -56h-115zM371 456q-54 -20 -109.5 -48t-116.5 -69q151 -63 226 -192v309zM767 588v-588l-31 37q-3 9 -7.5 18.5t-17 33.5t-35.5 52.5
t-43 47.5q-72 66 -191 78l-73 104q168 117 344 176v41h-383l-55 56h553l54 -56h-115zM713 456q-54 -20 -109.5 -48t-116.5 -69q151 -63 226 -192v309z" />
    <glyph glyph-name="u09AC.001_u09AD.pres" horiz-adv-x="525" 
d="M425 588l-1 -324q23 -15 35 -39t17 -56q0 -68 -41 -121q-44 -56 -112 -56q-140 0 -216 142q-64 116 -64 267l37 -21v1q12 -121 67 -204q67 -101 176 -101q46 0 74.5 28.5t28.5 73.5q0 23 -11 44q-17 -20 -29.5 -33t-20.5 -18q-33 -27 -68 -30q-39 0 -69 18q-35 20 -35 59
q0 70 63 70q48 0 48 -53q0 -14 -5 -31q12 2 27.5 14.5t36.5 33.5q0 36 -99 91q-15 7 -37.5 10.5t-44.5 4.5q-15 22 -30 46t-30 46q57 35 120.5 65.5t128.5 50.5v22h-373l-55 56h533l54 -56h-105zM371 488q-33 -14 -66.5 -31t-65.5 -38q46 -24 78 -53t52 -66h2v188z" />
    <glyph glyph-name="u09AC_u09F0_u09CD" horiz-adv-x="520" 
d="M375 31v49q-18 32 -41 60.5t-43 48.5q-72 66 -191 78h1q-17 25 -36.5 51.5t-37.5 52.5q168 117 344 176v41h-373l-55 56h533l54 -56h-105v-650q-5 3 -17.5 19t-33.5 42q-14 16 -32.5 25.5t-42.5 11.5h-100q-99 0 -127 22q-89 36 -89 135q0 17 5.5 41.5t14.5 56.5l21 -21
q-6 -9 -6 -37q0 -89 85 -107q31 -2 57.5 -4.5t49.5 -6.5q113 -10 163 -85zM371 456q-54 -20 -109.5 -48t-116.5 -69q151 -63 226 -192v309z" />
    <glyph glyph-name="u09AC_u09F0_u09CD_u09C1" horiz-adv-x="778" 
d="M792 588h-245l-57 56h245zM720 308q0 -23 -7.5 -43.5t-21 -36.5t-31.5 -25t-40 -9q-31 0 -74.5 30t-98.5 88v55q77 -117 148 -117q30 0 49.5 23t19.5 52q0 42 -39 67q3 -20 3 -32q0 -22 -21.5 -36t-45.5 -14q-16 0 -32 22q-12 18 -12 35q0 31 30 52q27 21 58 21
q49 0 82 -41t33 -91zM415 31v49q-18 32 -41 60.5t-43 48.5q-72 66 -191 78h1q-17 25 -36.5 51.5t-37.5 52.5q168 117 344 176v41h-423l-55 56h583l54 -56h-105v-650q-5 3 -17.5 19t-33.5 42q-14 16 -32.5 25.5t-42.5 11.5h-100q-99 0 -127 22q-89 36 -89 135q0 17 5.5 41.5
t14.5 56.5l21 -21q-6 -9 -6 -37q0 -89 85 -107q31 -2 57.5 -4.5t49.5 -6.5q113 -10 163 -85zM411 456q-54 -20 -109.5 -48t-116.5 -69q151 -63 226 -192v309z" />
    <glyph glyph-name="u09AC_u09F0_u09CD_u09C2" horiz-adv-x="700" 
d="M708 588h-151l-57 56h152zM660 -17l-67 43v-1q-7 35 -10 101.5t-3 166.5q0 41 -9 62q-19 0 -53 -17l-6 -2l-46 -19q0 18 -1 42.5t-1 42.5q48 17 74 26t32 9q70 3 72 -78l-5 -83l-2 -84q0 -45 5.5 -97t17.5 -113zM425 31v49q-18 32 -41 60.5t-43 48.5q-72 66 -191 78h1
q-17 25 -36.5 51.5t-37.5 52.5q168 117 344 176v41h-423l-55 56h583l54 -56h-105v-650q-5 3 -17.5 19t-33.5 42q-14 16 -32.5 25.5t-42.5 11.5h-100q-99 0 -127 22q-89 36 -89 135q0 17 5.5 41.5t14.5 56.5l21 -21q-6 -9 -6 -37q0 -89 85 -107q31 -2 57.5 -4.5t49.5 -6.5
q113 -10 163 -85zM421 456q-54 -20 -109.5 -48t-116.5 -69q151 -63 226 -192v309z" />
    <glyph glyph-name="u09AC_u09CD_u09B2" horiz-adv-x="525" 
d="M435 588v-728l-23 12q-2 27 -5.5 52t-8.5 47q-7 23 -12.5 37.5t-11.5 22.5q-4 5 -11 11.5t-14.5 12.5t-14.5 10t-11 4q-40 0 -40 -42q0 -4 0.5 -12t2.5 -16l-19 -8q-5 37 -41 56h1q-30 20 -69 20q-35 0 -58 -20.5t-23 -55.5q0 -42 71 -52q-17 22 -17 40q0 21 16.5 36.5
t38.5 15.5q28 0 43 -23t15 -52q0 -27 -22 -45t-50 -18q-60 0 -99 30q-43 34 -43 91q0 48 25.5 79t72.5 31q62 0 111 -55q1 23 19.5 42t41.5 19q28 0 48 -20q18 -15 31 -46h2v21l-2 4q-12 24 -35 52.5t-43 47.5q-72 66 -191 78l-73 104q168 117 344 176v41h-383l-55 56h543
l54 -56h-105zM381 456q-54 -20 -109.5 -48t-116.5 -69q151 -63 226 -192v309z" />
    <glyph glyph-name="u09AD_u09F0_u09CD" horiz-adv-x="634" 
d="M642 588h-660l-55 56h661zM551 -4q-22 18 -40 52q-10 18 -19 30.5t-15 18.5q-25 20 -71 20q-13 0 -32 -2t-43 -4q-25 -2 -43.5 -3.5t-31.5 -1.5q-45 0 -83.5 13.5t-68.5 36.5q-59 54 -59 143q0 35 8.5 64.5t22.5 52.5l21 -13q-5 -14 -7.5 -32.5t-4.5 -56.5q7 -80 96 -104
q21 -5 58.5 -8.5t94.5 -3.5q55 0 90 -12q31 -13 75 -52v284q-117 -97 -179 -97q-51 0 -91 29q-44 33 -44 82q0 20 6.5 38.5t18 32.5t27.5 22.5t36 8.5q30 0 49 -21t19 -50q0 -5 -4 -18.5t-14 -35.5q29 0 62.5 28.5t78.5 88.5q10 -2 24 -10t30 -24q33 -32 33 -51v-445z" />
    <glyph glyph-name="u09AD_u09F0_u09CD_u09C1" horiz-adv-x="822" 
d="M612 588h-620l-55 56h621zM511 -4q-12 10 -21.5 22.5t-19.5 29.5q-9 18 -18 30.5t-15 18.5q-25 20 -71 20q-13 0 -32 -2t-43 -4q-25 -2 -43.5 -3.5t-31.5 -1.5q-45 0 -83.5 13.5t-68.5 36.5q-59 54 -59 143q0 35 8.5 64.5t22.5 52.5q4 -3 10 -7t11 -6q-5 -14 -7.5 -29
t-3.5 -32l-1 -28q7 -80 96 -104q21 -5 58.5 -8.5t94.5 -3.5q55 0 90 -12q31 -13 75 -52v284q-117 -97 -179 -97q-51 0 -91 29q-44 33 -44 82q0 20 6.5 38.5t18 32.5t27.5 22.5t36 8.5q30 0 49 -21t19 -50q0 -5 -4 -18.5t-14 -35.5q55 0 135 113h-1l7 4q10 -2 24 -10t30 -24
q33 -32 33 -51v-445zM833 588h-245l-57 56h245zM761 308q0 -23 -7.5 -43.5t-21 -36.5t-32 -25t-40.5 -9q-31 0 -74 30t-98 88v55q77 -117 148 -117q30 0 49.5 23t19.5 52q0 42 -39 67q3 -20 3 -32q0 -22 -21.5 -36t-45.5 -14q-16 0 -32 22q-12 18 -12 35q0 31 30 52
q27 21 58 21q49 0 82 -41t33 -91z" />
    <glyph glyph-name="u09AD_u09F0_u09CD_u09C2" horiz-adv-x="732" 
d="M738 588h-151l-57 56h151zM690 -17l-67 43v-1q-7 35 -10 101.5t-3 166.5q0 41 -9 62q-18 0 -54 -17l-22 -9l-29 -12q0 18 -1.5 42.5t-1.5 42.5q48 17 74.5 26t32.5 9q70 3 72 -78q-1 -19 -2.5 -41t-2.5 -42q-3 -25 -5 -47t-2 -37q0 -45 7 -97t21 -113zM612 588h-620
l-55 56h621zM511 -4q-12 10 -21.5 22.5t-19.5 29.5q-9 18 -18 30.5t-15 18.5q-25 20 -71 20q-13 0 -32 -2t-43 -4q-25 -2 -43.5 -3.5t-31.5 -1.5q-45 0 -83.5 13.5t-68.5 36.5q-59 54 -59 143q0 35 8.5 64.5t22.5 52.5q4 -3 10 -7t11 -6q-5 -14 -7.5 -29t-3.5 -32l-1 -28
q7 -80 96 -104q21 -5 58.5 -8.5t94.5 -3.5q55 0 90 -12q31 -13 75 -52v284q-117 -97 -179 -97q-51 0 -91 29q-44 33 -44 82q0 20 6.5 38.5t18 32.5t27.5 22.5t36 8.5q30 0 49 -21t19 -50q0 -5 -4 -18.5t-14 -35.5q55 0 135 113h-1l7 4q10 -2 24 -10t30 -24q33 -32 33 -51
v-445z" />
    <glyph glyph-name="u09AD_u09CD_u09B2" horiz-adv-x="600" 
d="M-3 588l-57 56h609l58 -56h-610zM526 374q0 -89 -50 -149q-54 -66 -140 -66q-122 0 -209 143q-18 32 -44.5 93.5t-48.5 150.5l29 -8q18 -60 42.5 -112t53.5 -88q77 -98 186 -98q55 0 94 39q20 20 30 43t10 50q0 74 -24 74q-68 -80 -158 -80q-44 0 -78 28q-33 27 -33 74
q0 77 78 77q27 0 45.5 -17.5t18.5 -41.5q0 -22 -22 -51q35 -2 70 36q31 34 45 68l2 2q39 0 74 -64q29 -57 29 -103zM510 298v-459q-5 2 -12.5 6t-13.5 6q-2 27 -5 54t-8 50q-8 23 -13.5 39t-10.5 23q-5 4 -11.5 11.5t-14.5 13.5t-15.5 10.5t-12.5 4.5q-42 0 -42 -43
q0 -12 3 -30l-20 -8q-2 18 -13 33t-28 26q-16 8 -34.5 14t-37.5 6q-35 0 -60 -22t-25 -57q0 -43 73 -55q-8 12 -12.5 22.5t-4.5 19.5q0 23 18 39t40 16q14 0 25.5 -7t19.5 -18t12.5 -25t4.5 -29q0 -29 -24 -47.5t-53 -18.5q-30 0 -56 7.5t-46 24.5q-46 36 -46 95
q0 49 27 81.5t75 32.5q33 0 62.5 -13.5t53.5 -42.5q0 11 6 22.5t15 20.5t20 15t22 6q30 0 49 -22q11 -7 19 -19t16 -31v182z" />
    </font>
</defs>
</svg>
