<?xml version="1.0" standalone="no"?>
<!DOCTYPE svg PUBLIC "-//W3C//DTD SVG 1.1//EN" "http://www.w3.org/Graphics/SVG/1.1/DTD/svg11.dtd" >
<svg xmlns="http://www.w3.org/2000/svg" xmlns:xlink="http://www.w3.org/1999/xlink" version="1.1">
<metadata>
Created by FontForge 20160407 at Sun Oct 30 05:50:11 2016
 By Jimmy Wärting
GNU GPL (c) Mukta Bangla Font Project 2003-6 Free Software. For detail licence agreement see www.gnu.org/licences/gpl.txt

As a special exception, if you create a document which uses this font, and embed this font or unaltered portions of this font into the document, this font does not by itself cause the resulting document to be covered by the GNU General Public License. This exception does not however invalidate any other reasons why the document might be covered by the GNU General Public License. If you modify this font, you may extend this exception to your version of the font, but you are not obligated to do so. If you do not wish to do so, delete this exception statement from your version.1
</metadata>
<defs>
<font id="Mukti" horiz-adv-x="12" >
  <font-face 
    font-family="Mukti"
    font-weight="500"
    font-stretch="normal"
    units-per-em="2048"
    panose-1="0 0 0 0 0 0 0 0 0 0"
    ascent="1638"
    descent="-410"
    x-height="1073"
    cap-height="1493"
    bbox="-1224 -525 2368 2169"
    underline-thickness="150"
    underline-position="-340"
    unicode-range="U+000D-25CC"
  />
<missing-glyph horiz-adv-x="884" 
d="M67 0v1364h682v-1364h-682zM134 68h547v1228h-547v-1228z" />
    <glyph glyph-name=".notdef" horiz-adv-x="884" 
d="M67 0v1364h682v-1364h-682zM134 68h547v1228h-547v-1228z" />
    <glyph glyph-name=".null" horiz-adv-x="0" 
 />
    <glyph glyph-name="nonmarkingreturn" unicode="&#xd;" horiz-adv-x="682" 
 />
    <glyph glyph-name="space" unicode=" " horiz-adv-x="569" 
 />
    <glyph glyph-name="space" unicode="&#xa0;" horiz-adv-x="569" 
 />
    <glyph glyph-name="exclam" unicode="!" horiz-adv-x="507" 
d="M363 1493v-692l-45 -457h-80l-45 457v692h170zM363 213v-213h-172v213h172z" />
    <glyph glyph-name="quotedbl" unicode="&#x22;" horiz-adv-x="727" 
d="M106 1452h191v-227l-55 -275h-80l-56 275v227zM434 1452h191v-227l-56 -275h-80l-55 275v227z" />
    <glyph glyph-name="numbersign" unicode="#" horiz-adv-x="1138" 
d="M992 1427l-73 -401h190v-139h-217l-64 -357h215v-139h-239l-80 -432h-156l78 432h-254l-80 -432h-155l78 432h-207v139h233l64 357h-222v139h248l74 401h156l-74 -401h256l72 401h157zM736 887h-254l-65 -357h256z" />
    <glyph glyph-name="dollar" unicode="$" horiz-adv-x="1138" 
d="M502 1577h120v-111q256 -18 353 -206q45 -84 45 -197h-162q-2 158 -119 227q-48 29 -117 33v-510q179 -47 269 -98q172 -99 174 -316q-7 -258 -189 -374q-100 -60 -254 -72v-211h-120v211q-316 20 -404 260q-31 87 -27 195q0 9 1 18h161l7 -55q12 -122 45 -160
q71 -98 217 -117v557q-191 58 -258 107q-146 104 -146 299q0 299 287 385q53 16 117 24v111zM502 829v492q-197 -27 -232 -182l-6 -62q0 -184 238 -248zM622 633v-539q125 15 189 76q86 82 86 205q0 125 -96 186q-60 37 -179 72z" />
    <glyph glyph-name="percent" unicode="%" horiz-adv-x="1820" 
d="M408 1403q172 0 276 -135q76 -89 74 -219q0 -162 -129 -267q-97 -80 -219 -80q-166 0 -273 129q-78 97 -78 222q0 166 129 272q97 78 220 78zM408 1260q-111 0 -172 -95h-3q-32 -51 -32 -112q0 -109 92 -172q53 -35 117 -35q110 0 172 92q34 51 34 113q0 116 -98 178
q-49 31 -110 31zM1247 1452h135l-809 -1493h-135zM1409 659q174 0 279 -135q71 -94 71 -217q0 -162 -129 -266q-96 -80 -219 -80q-166 0 -272 129q-78 96 -78 221q0 166 131 271q96 77 217 77zM1409 516q-111 0 -172 -92q-35 -51 -35 -113q-1 -77 43 -128q22 -26 55 -46
q0 -2 3 -2q0 -2 2 -2q49 -29 106 -29q111 0 172 93q35 49 35 110q0 117 -98 178q-34 23 -78 29q-8 0 -33 2z" />
    <glyph glyph-name="ampersand" unicode="&#x26;" horiz-adv-x="1313" 
d="M531 883q133 84 176 141q35 49 35 111q0 106 -93 153q-38 21 -86 21q-122 0 -163 -103q-13 -32 -13 -73q1 -55 21 -91q24 -47 123 -159zM803 281l-328 409q-147 -94 -200 -168q-49 -65 -49 -147q0 -133 110 -211q72 -51 158 -51q65 0 125 24q84 37 184 144zM219 1130
l4 -49q-4 22 -4 49zM219 1130q0 156 131 252q97 70 220 70q125 1 206 -60q33 -24 59 -58l13 -19q55 -78 55 -185q0 -139 -106 -235q-62 -55 -176 -121l272 -334q31 56 49 127q17 64 15 117h164q0 -190 -119 -375l250 -309h-224l-127 160q-92 -88 -141 -123
q-117 -81 -287 -84q-237 0 -352 168q-68 100 -68 239q1 180 127 293q70 66 205 144q-143 180 -166 333z" />
    <glyph glyph-name="quotesingle" unicode="'" horiz-adv-x="391" 
d="M98 1452h193v-227l-55 -275h-82l-56 275v227z" />
    <glyph glyph-name="parenleft" unicode="(" horiz-adv-x="681" 
d="M314 530q0 -505 281 -964h-113q-213 278 -295 643q-38 166 -38 321q0 158 40 328q84 361 293 635h113q-199 -322 -258 -696q-23 -133 -23 -267z" />
    <glyph glyph-name="parenright" unicode=")" horiz-adv-x="681" 
d="M189 -434h-112q198 321 258 696q22 133 22 266q0 508 -280 965h112q213 -279 295 -643q39 -166 39 -322q0 -157 -41 -327q-84 -361 -293 -635z" />
    <glyph glyph-name="asterisk" unicode="*" horiz-adv-x="796" 
d="M327 1493h129l-11 -229l218 77l38 -120l-221 -62l144 -182l-105 -74l-127 191l-129 -191l-102 74l141 182l-221 62l39 120l217 -77z" />
    <glyph glyph-name="plus" unicode="+" horiz-adv-x="1196" 
d="M1094 547v-144h-424v-423h-144v423h-424v144h424v424h144v-424h424z" />
    <glyph glyph-name="comma" unicode="," horiz-adv-x="622" 
d="M349 332q129 -35 129 -148q0 -49 -26 -98q-50 -127 -177 -221q-47 -3 -63 19q-8 11 -8 28q0 14 8 31q41 28 96 94q74 88 74 139q0 39 -45 53q-18 6 -40 5q-4 -1 -9 -1q-49 -4 -51 -4q-39 15 -39 52q0 30 30 47q68 7 106 5q8 0 15 -1z" />
    <glyph glyph-name="hyphen" unicode="-" horiz-adv-x="681" 
d="M582 639v-147h-488v147h488z" />
    <glyph glyph-name="hyphen" unicode="&#xad;" horiz-adv-x="681" 
d="M582 639v-147h-488v147h488z" />
    <glyph glyph-name="period" unicode="." horiz-adv-x="569" 
d="M391 213v-213h-213v213h213z" />
    <glyph glyph-name="slash" unicode="/" horiz-adv-x="569" 
d="M469 1493h113l-486 -1534h-112z" />
    <glyph glyph-name="slash" unicode="&#x2044;" horiz-adv-x="569" 
d="M469 1493h113l-486 -1534h-112z" />
    <glyph glyph-name="zero" unicode="0" horiz-adv-x="1138" 
d="M563 1452q211 0 330 -154q2 -4 4 -6q141 -192 141 -602q0 -555 -282 -696q-86 -41 -193 -41q-360 0 -448 442q-27 133 -27 307q0 718 447 750h28zM563 1292q-291 0 -291 -592q0 -598 287 -598q242 0 285 394q10 92 10 211q0 585 -291 585z" />
    <glyph glyph-name="one" unicode="1" horiz-adv-x="944" 
d="M470 1034h-321v129q200 25 276 78q54 43 90 158l17 53h119v-1452h-181v1034z" />
    <glyph glyph-name="two" unicode="2" horiz-adv-x="1138" 
d="M1035 178v-178h-966q14 262 116 399q89 113 291 230l189 106q194 111 196 287q0 147 -123 227q-71 45 -164 45q-153 0 -235 -116q-7 -13 -14 -25q-35 -66 -43 -205h-181q7 205 78 316q123 188 402 188q202 0 329 -115q136 -120 136 -311q0 -270 -308 -438l-204 -111
q-109 -63 -164 -117q-82 -75 -99 -182h764z" />
    <glyph glyph-name="three" unicode="3" horiz-adv-x="1138" 
d="M452 666v153q172 2 239 31q115 47 117 197q0 174 -143 229q-50 18 -113 18q-160 0 -231 -108l-3 -2q-41 -68 -43 -201h-180q8 430 389 467l66 2q285 0 391 -190q51 -88 51 -209q0 -222 -202 -301q190 -66 231 -222q14 -53 14 -124q0 -252 -192 -375q-123 -78 -299 -78
q-303 0 -416 211q-53 98 -63 258h180q16 -270 231 -303q35 -6 74 -6q213 0 278 161q23 56 23 129q0 265 -301 265q-48 -2 -98 -2z" />
    <glyph glyph-name="four" unicode="4" horiz-adv-x="1138" 
d="M670 348h-613v191l660 913h133v-942h215v-162h-215v-348h-180v348zM670 510v635l-455 -635h455z" />
    <glyph glyph-name="five" unicode="5" horiz-adv-x="1138" 
d="M974 1452v-178h-604l-58 -406q110 85 269 88q245 0 376 -178q93 -125 93 -305q0 -264 -179 -412q-131 -108 -319 -108q-227 0 -360 137q-93 94 -121 266h180q63 -243 297 -243q207 0 285 166q32 71 32 170q0 223 -155 309q-70 39 -162 39q-123 0 -205 -72
q-29 -25 -61 -63h-166l108 790h750z" />
    <glyph glyph-name="six" unicode="6" horiz-adv-x="1138" 
d="M1020 1073h-180q-46 219 -244 219q-227 0 -297 -295q-27 -110 -27 -256q119 162 334 162q228 0 355 -170q90 -121 90 -291q0 -243 -168 -383q-127 -106 -308 -106q-243 0 -364 180q-119 180 -123 506v23q0 378 131 583q138 207 389 207q236 0 348 -190q48 -80 64 -189z
M584 743q-174 0 -256 -135q-45 -71 -45 -170q0 -176 125 -270q73 -55 170 -55q155 0 237 129q51 80 51 186q0 209 -145 285q-59 30 -137 30z" />
    <glyph glyph-name="seven" unicode="7" horiz-adv-x="1138" 
d="M1065 1452v-152q-178 -237 -299 -460q-215 -398 -291 -840h-192q145 665 596 1274h-785v178h971z" />
    <glyph glyph-name="eight" unicode="8" horiz-adv-x="1138" 
d="M800 764q248 -119 250 -363q0 -229 -177 -354q-129 -94 -311 -94q-254 0 -391 168q-96 117 -96 282q0 242 248 361q-52 33 -86 61q-103 86 -111 213v27q0 203 166 311q113 76 270 76q238 0 359 -156q77 -96 77 -231q0 -139 -92 -225l-26 -23zM562 1292q-166 -1 -227 -121
q-25 -47 -25 -108q0 -143 125 -201q56 -26 127 -26q164 0 225 116q3 0 3 2q24 45 24 107q0 153 -133 209q-51 22 -119 22zM562 684q-182 0 -262 -131q-41 -66 -41 -154q0 -168 135 -245q70 -41 164 -41q186 0 266 133q41 65 41 153q0 168 -137 246q-72 39 -166 39z" />
    <glyph glyph-name="nine" unicode="9" horiz-adv-x="1138" 
d="M108 332h180q46 -219 243 -219q228 0 297 295q27 110 27 256q-131 -158 -332 -162q-229 0 -356 170q-90 121 -90 291q0 243 168 383q127 106 307 106q244 0 367 -180q118 -180 122 -506v-23q0 -378 -133 -583q-108 -166 -307 -201l-82 -6q-235 0 -348 190q-47 82 -63 189
zM550 1294q-157 -2 -240 -133q-49 -78 -49 -184q0 -209 146 -285q59 -30 137 -30q170 0 254 133q47 73 47 172q0 178 -125 272q-76 55 -170 55z" />
    <glyph glyph-name="colon" unicode=":" horiz-adv-x="503" 
d="M276 459q-39 0 -66 29q-26 28 -26 67q0 35 28 61q28 27 66 27q37 0 62 -27q24 -26 24 -61q0 -39 -25.5 -67.5t-62.5 -28.5zM276 -12q-39 0 -66 28q-26 29 -26 68q0 35 28 62q28 26 66 26q37 0 62 -26q24 -27 24 -62q0 -39 -25.5 -67.5t-62.5 -28.5z" />
    <glyph glyph-name="semicolon" unicode=";" horiz-adv-x="700" 
d="M426 244q133 -29 133 -148q0 -80 -69 -180q-60 -86 -136 -139q-47 -3 -63 21q-8 11 -8 30q0 12 6 29q37 22 98 96q74 90 74 141q0 55 -86 51h-8l-50 -4q-43 17 -43 54q0 28 31 45q66 7 106 5q8 0 15 -1zM356 459q-39 0 -66 29q-26 28 -26 67q0 35 28 61q28 27 66 27
q37 0 62 -27q24 -26 24 -61q0 -39 -25.5 -67.5t-62.5 -28.5z" />
    <glyph glyph-name="less" unicode="&#x3c;" horiz-adv-x="1196" 
d="M92 406v141l1002 424v-162l-807 -330l807 -336v-161z" />
    <glyph glyph-name="equal" unicode="=" horiz-adv-x="1196" 
d="M1094 723v-143h-992v143h992zM1094 371v-144h-992v144h992z" />
    <glyph glyph-name="greater" unicode="&#x3e;" horiz-adv-x="1196" 
d="M1104 547v-141l-1002 -424v161l807 330l-807 336v162z" />
    <glyph glyph-name="question" unicode="?" horiz-adv-x="1138" 
d="M675 408h-184v112q9 132 77 205q8 11 17 20l119 109q153 135 153 270q0 144 -125 205h-2q-59 29 -135 29q-168 0 -229 -119q-35 -70 -35 -201h-174q0 432 368 475l80 5q259 -1 375 -172q58 -96 61 -222q0 -96 -41 -174q-43 -84 -163 -192q-125 -117 -148 -170l-8 -21
q-9 -74 -6 -159zM675 213v-213h-184v213h184z" />
    <glyph glyph-name="at" unicode="@" horiz-adv-x="2078" 
d="M1361 1026h170l-184 -573q-25 -70 -25 -103q0 -55 59 -82h2q19 -8 41 -8q131 0 240 148q104 145 104 323q0 246 -198 428q-203 189 -490 201h-32q-301 0 -533 -209l-63 -64q-209 -231 -209 -528q0 -289 215 -487q221 -205 553 -205q162 0 395 65l57 -137
q-232 -86 -463 -86q-368 0 -636 219q-295 242 -295 600l2 52q20 395 321 673q221 201 529 252q72 10 153 13q340 0 592 -207q281 -228 281 -555l-4 -72q-25 -213 -172 -385q-156 -182 -381 -182q-197 0 -226 157q-138 -147 -291 -147q-167 0 -264 141q-69 99 -69 234
q0 223 161 395q158 170 365 172q170 0 250 -178zM1054 938q-135 0 -238 -145q-92 -129 -92 -293q-1 -94 43 -155q22 -30 55 -52q47 -35 105 -35q119 0 209 133q50 78 82 197q26 90 28 153q4 75 -36 124q-20 25 -52 44q-47 29 -104 29z" />
    <glyph glyph-name="A" unicode="A" horiz-adv-x="1366" 
d="M970 449h-576l-157 -449h-203l532 1493h246l524 -1493h-213zM917 608l-230 680l-246 -680h476z" />
    <glyph glyph-name="B" unicode="B" horiz-adv-x="1366" 
d="M161 0v1493h606q211 0 324 -104q118 -105 118 -275q0 -229 -206 -326q262 -101 272 -335v-27q0 -180 -115 -301q-114 -125 -325 -125h-674zM1019 1087q0 238 -299 238h-369v-475h369q299 0 299 237zM351 168h465q131 0 199 72q69 71 69 184t-69 186q-66 72 -199 72h-465
v-514z" />
    <glyph glyph-name="C" unicode="C" horiz-adv-x="1478" 
d="M1356 1030h-195q-31 154 -108 225q-97 91 -295 95q-262 0 -387 -236q-82 -153 -82 -383q0 -348 194 -510q121 -100 291 -100q223 0 328 158q58 78 88 266h196q-67 -592 -614 -592q-289 0 -457 174q-217 223 -217 602q0 375 209 602q168 187 473 187q488 0 576 -488z" />
    <glyph glyph-name="D" unicode="D" horiz-adv-x="1478" 
d="M182 0v1493h576q334 0 495 -270q2 -2 2 -4q111 -187 111 -471q0 -429 -238 -623q-149 -125 -370 -125h-576zM373 168h352q356 0 432 371q19 92 19 206q0 504 -345 570q-51 10 -106 10h-352v-1157z" />
    <glyph glyph-name="E" unicode="E" horiz-adv-x="1366" 
d="M375 680v-512h880v-168h-1071v1493h1035v-168h-844v-477h813v-168h-813z" />
    <glyph glyph-name="F" unicode="F" horiz-adv-x="1251" 
d="M375 680v-680h-191v1493h1002v-168h-811v-477h712v-168h-712z" />
    <glyph glyph-name="G" unicode="G" horiz-adv-x="1593" 
d="M1452 788v-796h-121l-47 198q-213 -237 -510 -237q-313 0 -506 233q-178 213 -178 545q0 361 209 586q188 201 508 201q367 0 532 -242q68 -100 93 -236h-195q-43 201 -238 275q-86 35 -194 35q-270 0 -416 -213q-108 -160 -108 -396q4 -296 157 -469q135 -147 377 -151
q234 0 369 164q100 123 100 295v41h-455v167h623z" />
    <glyph glyph-name="H" unicode="H" horiz-adv-x="1478" 
d="M1127 680h-766v-680h-192v1493h190v-645h768v645h191v-1493h-191v680z" />
    <glyph glyph-name="I" unicode="I" horiz-adv-x="569" 
d="M396 1493v-1493h-192v1493h192z" />
    <glyph glyph-name="J" unicode="J" horiz-adv-x="1024" 
d="M681 1493h190v-1120q0 -254 -184 -363q-100 -57 -237 -57q-254 0 -361 176q-55 92 -55 219v131h194v-96q0 -227 166 -264l58 -6q118 0 182 92q47 69 47 237v1051z" />
    <glyph glyph-name="K" unicode="K" horiz-adv-x="1366" 
d="M351 522v-522h-190v1493h190v-756l744 756h245l-608 -608l615 -885h-226l-526 766z" />
    <glyph glyph-name="L" unicode="L" horiz-adv-x="1138" 
d="M353 1493v-1325h738v-168h-928v1493h190z" />
    <glyph glyph-name="M" unicode="M" horiz-adv-x="1705" 
d="M957 0h-200l-424 1251v-1251h-180v1493h264l442 -1300l434 1300h265v-1493h-181v1251z" />
    <glyph glyph-name="N" unicode="N" horiz-adv-x="1478" 
d="M1322 1493v-1493h-215l-772 1210v-1210h-180v1493h206l781 -1221v1221h180z" />
    <glyph glyph-name="O" unicode="O" horiz-adv-x="1593" 
d="M796 1518q356 0 555 -252q168 -208 168 -543q0 -303 -168 -518q-41 -53 -90 -94q-187 -158 -463 -158q-342 0 -543 240q-178 213 -178 542q0 377 227 596q195 187 492 187zM796 1350q-267 0 -414 -209q-115 -162 -115 -406q0 -323 195 -493q137 -121 336 -121
q264 0 411 205q119 159 119 401q0 338 -201 508q-135 115 -331 115z" />
    <glyph glyph-name="P" unicode="P" horiz-adv-x="1366" 
d="M377 633v-633h-191v1493h617q330 0 426 -242q35 -84 35 -196q0 -199 -129 -316q-119 -106 -289 -106h-469zM377 801h397q209 0 270 151q21 47 21 111q0 184 -162 242h-2q-55 20 -127 20h-397v-524z" />
    <glyph glyph-name="Q" unicode="Q" horiz-adv-x="1593" 
d="M1500 -2l-96 -119l-215 178q-176 -104 -391 -104q-342 0 -543 240q-178 213 -178 542q0 377 227 596q197 187 494 187q340 0 540 -238q181 -211 181 -541q0 -352 -211 -583zM1041 178l-114 -43q53 15 114 43zM1041 178l-151 127l94 115l182 -150q162 183 162 467
q0 322 -192 492q-140 121 -338 121q-269 0 -416 -209q-115 -162 -115 -406q0 -325 195 -495q137 -119 334 -119q69 0 245 57z" />
    <glyph glyph-name="R" unicode="R" horiz-adv-x="1478" 
d="M381 643v-643h-191v1493h689q348 0 432 -246q22 -67 22 -153q0 -201 -147 -306q-39 -26 -88 -51q127 -55 166 -137q34 -76 36 -252q5 -196 39 -252q19 -26 52 -49v-47h-232q-43 98 -43 244l2 133q0 223 -164 258q-36 8 -82 8h-491zM381 811h461q248 0 284 176q9 35 9 80
q0 135 -78 201q-66 57 -215 57h-461v-514z" />
    <glyph glyph-name="S" unicode="S" horiz-adv-x="1366" 
d="M1221 1055h-181q-2 227 -225 286q-65 17 -147 17q-213 0 -297 -127q-37 -55 -37 -125q0 -115 110 -172q52 -27 136 -49l374 -101q246 -67 303 -266q15 -51 15 -108v-29q-18 -198 -164 -313q-150 -115 -420 -115q-346 0 -502 213q-86 117 -88 309h181q-2 -88 33 -160
q17 -37 44 -69q105 -125 344 -125q354 0 379 244q2 6 2 14v12q0 156 -225 227q-22 9 -49 15l-371 98q-291 76 -293 348q0 254 213 369q131 70 318 70q360 0 489 -228q58 -100 58 -235z" />
    <glyph glyph-name="T" unicode="T" horiz-adv-x="1251" 
d="M725 1325v-1325h-190v1325h-492v168h1171v-168h-489z" />
    <glyph glyph-name="U" unicode="U" horiz-adv-x="1478" 
d="M1130 1493h191v-1049q0 -266 -213 -399q-147 -92 -363 -92q-337 0 -487 207q-82 116 -84 284v1049h191v-1049q0 -161 108 -245q109 -78 272 -78q252 0 345 162q38 67 40 161v1049z" />
    <glyph glyph-name="V" unicode="V" horiz-adv-x="1366" 
d="M803 0h-205l-537 1493h205l439 -1264l413 1264h203z" />
    <glyph glyph-name="W" unicode="W" horiz-adv-x="1933" 
d="M1524 0h-209l-344 1227l-334 -1227h-209l-383 1493h213l281 -1212l331 1212h205l340 -1212l275 1212h213z" />
    <glyph glyph-name="X" unicode="X" horiz-adv-x="1366" 
d="M801 766l528 -766h-235l-408 623l-410 -623h-231l528 766l-495 727h231l383 -586l385 586h228z" />
    <glyph glyph-name="Y" unicode="Y" horiz-adv-x="1366" 
d="M792 586v-586h-191v586l-575 907h235l438 -727l426 727h228z" />
    <glyph glyph-name="Z" unicode="Z" horiz-adv-x="1251" 
d="M1190 1493v-172l-893 -1153h897v-168h-1137v168l897 1157h-839v168h1075z" />
    <glyph glyph-name="bracketleft" unicode="[" horiz-adv-x="569" 
d="M512 1493v-147h-211v-1633h211v-147h-381v1927h381z" />
    <glyph glyph-name="backslash" unicode="\" horiz-adv-x="569" 
d="M96 1493l486 -1534h-113l-485 1534h112z" />
    <glyph glyph-name="bracketright" unicode="]" horiz-adv-x="569" 
d="M47 -434v147h211v1633h-211v147h381v-1927h-381z" />
    <glyph glyph-name="asciicircum" unicode="^" horiz-adv-x="960" 
d="M403 1452h150l317 -778h-141l-250 614l-248 -614h-141z" />
    <glyph glyph-name="underscore" unicode="_" horiz-adv-x="1138" 
d="M1184 -258v-102h-1229v102h1229z" />
    <glyph glyph-name="grave" unicode="`" horiz-adv-x="681" 
d="M276 1516l197 -304h-123l-305 304h231z" />
    <glyph glyph-name="a" unicode="a" horiz-adv-x="1138" 
d="M563 1104q404 0 404 -293v-631q0 -84 92 -84h4q18 0 33 4v-129q-59 -16 -97 -18h-20q-145 0 -172 129l-4 29q-169 -158 -365 -158q-225 0 -313 153q-39 70 -39 164q4 225 211 295q51 17 109 29q61 10 212 29q152 16 173 79q2 21 6 39v45q0 160 -240 160q-211 0 -246 -153
q-4 -19 -6 -37h-172q6 147 74 223q112 125 356 125zM797 338v192q-44 -19 -99 -32l-176 -27q-217 -31 -250 -141l-8 -54v-2q0 -133 137 -163q33 -9 74 -9q148 0 254 97q27 24 43 47q25 37 25 92z" />
    <glyph glyph-name="b" unicode="b" horiz-adv-x="1138" 
d="M110 1493h170v-565q116 176 331 176q262 0 383 -221q76 -140 76 -342q0 -330 -186 -488q-117 -100 -281 -100q-219 0 -340 184v-137h-153v1493zM579 944q-170 0 -250 -172q-49 -100 -49 -244q0 -256 141 -362q67 -53 158 -53q172 0 258 161q55 105 55 248q0 260 -148 369
q-67 51 -165 53z" />
    <glyph glyph-name="c" unicode="c" horiz-adv-x="1024" 
d="M965 713h-172q-27 198 -199 229q-16 2 -55 4q-193 0 -265 -205q-32 -94 -32 -223q0 -279 161 -373q60 -34 140 -34q219 0 262 258h172q-23 -281 -236 -375q-88 -41 -202 -41q-265 0 -392 215q-84 141 -84 350q0 328 189 486q121 100 289 100q237 -3 352 -160
q59 -88 72 -231z" />
    <glyph glyph-name="d" unicode="d" horiz-adv-x="1138" 
d="M1014 1493v-1493h-152v141q-131 -187 -342 -188q-266 0 -389 229q-78 144 -78 357q0 315 183 469q116 96 278 96q221 0 330 -166v555h170zM543 944q-174 0 -258 -168q-54 -103 -54 -248q0 -249 144 -360q74 -55 170 -55q168 0 248 166q51 102 51 245q0 269 -148 373
q-67 47 -153 47z" />
    <glyph glyph-name="e" unicode="e" horiz-adv-x="1138" 
d="M1050 479h-791q2 -147 57 -229q89 -139 258 -139q209 0 281 215h172q-45 -248 -258 -336q-90 -37 -201 -37q-278 0 -407 225q-80 139 -80 344q0 324 192 482q123 100 299 100q236 0 369 -168q41 -51 66 -115q43 -110 43 -342zM263 618h602l2 13q0 164 -120 256
q-78 59 -177 59q-174 0 -258 -153q-41 -74 -49 -175z" />
    <glyph glyph-name="f" unicode="f" horiz-adv-x="569" 
d="M527 1073v-139h-178v-934h-170v934h-143v139h143v182q0 181 152 230q45 14 100 14q51 -2 96 -10v-141l-51 2h-8q-117 0 -119 -109v-168h178z" />
    <glyph glyph-name="g" unicode="g" horiz-adv-x="1138" 
d="M844 1073h157v-897q0 -315 -83 -446l-29 -39q-109 -137 -367 -137q-282 0 -385 180q-35 63 -43 143h174q13 -78 60 -119q76 -60 200 -61q166 0 238 100q61 84 61 293v55l-14 -18q-129 -174 -311 -174h-19q-170 10 -288 143q-136 156 -136 422q0 309 170 471
q119 115 287 115q201 0 328 -186v155zM535 946q-181 0 -256 -184q-41 -96 -41 -234q0 -284 159 -381q60 -36 140 -36q182 0 254 188q36 94 36 223q0 307 -168 396q-55 28 -124 28z" />
    <glyph glyph-name="h" unicode="h" horiz-adv-x="1138" 
d="M143 1493h170v-567l37 43q110 135 307 135q226 0 306 -152q32 -61 32 -141v-811h-170v743q0 113 -69 162q-66 49 -152 49q-172 0 -248 -157q-43 -86 -43 -205v-592h-170v1493z" />
    <glyph glyph-name="i" unicode="i" horiz-adv-x="454" 
d="M307 1073v-1073h-170v1073h170zM307 1493v-215h-172v215h172z" />
    <glyph glyph-name="j" unicode="j" horiz-adv-x="454" 
d="M144 1073h170v-1296q0 -211 -262 -223q-32 -1 -60 2q-15 1 -28 4v145l39 -2h2q107 0 129 66q10 28 10 75v1229zM314 1493v-215h-170v215h170z" />
    <glyph glyph-name="k" unicode="k" horiz-adv-x="1024" 
d="M288 1493v-875l454 455h220l-373 -371l438 -702h-211l-362 582l-166 -164v-418h-170v1493h170z" />
    <glyph glyph-name="l" unicode="l" horiz-adv-x="454" 
d="M311 1493v-1493h-172v1493h172z" />
    <glyph glyph-name="m" unicode="m" horiz-adv-x="1705" 
d="M143 1073h158v-151q111 155 262 178q20 2 41 4h27q197 0 289 -164l59 64q104 98 270 100q250 0 301 -201q11 -45 11 -98v-805h-172v739q0 166 -129 205q-33 10 -70 10q-125 0 -201 -110q-51 -74 -51 -170v-674h-172v739q0 179 -145 209l-54 6q-127 0 -202 -114
q-50 -72 -50 -166v-674h-172v1073z" />
    <glyph glyph-name="n" unicode="n" horiz-adv-x="1138" 
d="M143 1073h158v-180q111 174 266 203q41 8 90 8q213 0 299 -141q39 -64 41 -152v-811h-170v743q0 142 -118 193q-45 18 -103 18q-172 0 -248 -157q-43 -86 -43 -205v-592h-172v1073z" />
    <glyph glyph-name="o" unicode="o" horiz-adv-x="1138" 
d="M556 1104q311 0 428 -264q59 -133 59 -320q0 -342 -208 -487q-115 -80 -277 -80q-295 0 -418 244q-67 135 -67 331q0 357 215 500q112 76 268 76zM558 946q-190 0 -268 -188q-39 -96 -39 -230q0 -280 160 -378q63 -39 147 -39q184 0 264 180q43 96 43 231q0 297 -168 391
q-61 33 -139 33z" />
    <glyph glyph-name="p" unicode="p" horiz-adv-x="1138" 
d="M110 -446v1519h157v-162q121 193 342 193q260 0 383 -227q78 -146 78 -359q0 -315 -182 -469q-115 -96 -277 -96q-198 0 -329 160v-559h-172zM581 944q-170 0 -250 -172q-49 -100 -49 -244q0 -256 141 -362q68 -53 158 -53q172 0 256 161q55 105 55 248q0 260 -145 369
q-72 53 -166 53z" />
    <glyph glyph-name="q" unicode="q" horiz-adv-x="1138" 
d="M1014 -446h-170v569q-117 -169 -332 -170q-262 0 -383 221q-76 139 -76 342q0 330 187 488q116 100 280 100q219 0 342 -174v143h152v-1519zM545 944q-172 0 -258 -166q-56 -102 -56 -250q0 -249 144 -360q74 -55 170 -55q168 0 250 166q49 102 49 243q0 269 -146 373
q-67 49 -153 49z" />
    <glyph glyph-name="r" unicode="r" horiz-adv-x="681" 
d="M141 1073h158v-194q51 84 100 135q86 90 193 90h22l43 -6v-174q-171 -2 -223 -54q-121 -88 -121 -313v-557h-172v1073z" />
    <glyph glyph-name="s" unicode="s" horiz-adv-x="1024" 
d="M896 774h-180q-6 172 -215 172q-168 0 -215 -100q-13 -27 -13 -62q0 -92 136 -137l63 -16l164 -39q242 -57 289 -201q14 -43 14 -98q0 -196 -184 -287q-107 -53 -258 -53q-398 0 -426 332l-2 34h180q12 -96 49 -137q68 -71 213 -71q172 0 229 96q21 31 21 72
q0 94 -111 133q-26 9 -55 16l-160 39q-243 59 -307 164q-31 58 -33 145q0 191 172 277q101 51 240 51q297 0 369 -207q20 -55 20 -123z" />
    <glyph glyph-name="t" unicode="t" horiz-adv-x="569" 
d="M519 1073v-139h-176v-735q0 -78 45 -90l49 -7q51 0 82 9v-144q-80 -14 -139 -14q-182 0 -205 137q-2 32 -2 33v811h-145v139h145v295h170v-295h176z" />
    <glyph glyph-name="u" unicode="u" horiz-adv-x="1138" 
d="M987 0h-153v150q-115 -162 -267 -189q-41 -8 -92 -8q-219 0 -303 143q-39 64 -39 150v827h170v-760q0 -143 121 -192q43 -19 100 -19q174 0 252 160q41 86 41 203v608h170v-1073z" />
    <glyph glyph-name="v" unicode="v" horiz-adv-x="1024" 
d="M584 0h-187l-377 1073h193l287 -870l303 870h192z" />
    <glyph glyph-name="w" unicode="w" horiz-adv-x="1478" 
d="M1135 0h-195l-217 842l-207 -842h-192l-312 1073h189l219 -835l205 835h209l210 -835l213 835h193z" />
    <glyph glyph-name="x" unicode="x" horiz-adv-x="1024" 
d="M597 555l371 -555h-199l-268 412l-273 -412h-194l379 547l-359 526h195l258 -389l258 389h192z" />
    <glyph glyph-name="y" unicode="y" horiz-adv-x="1024" 
d="M794 1073h184l-485 -1319q-82 -200 -269 -200q-63 0 -114 26v154q55 -13 90 -13q92 0 129 82l8 23l65 170l-362 1077h182l275 -835z" />
    <glyph glyph-name="z" unicode="z" horiz-adv-x="1024" 
d="M907 1073v-151l-637 -772h666v-150h-873v154l642 770h-599v149h801z" />
    <glyph glyph-name="braceleft" unicode="{" horiz-adv-x="684" 
d="M565 1493v-133h-30q-97 0 -119 -55q-10 -29 -10 -82v-371q0 -201 -84 -272l-3 -2q-17 -16 -81 -48q168 -77 168 -323v-371q0 -102 51 -125q26 -12 78 -12h30v-133h-94q-168 0 -211 164q-12 45 -12 104v342q0 191 -72 246q-33 24 -88 37v141q111 23 139 113q21 57 21 170
v342q0 209 145 256q37 12 78 12h94z" />
    <glyph glyph-name="bar" unicode="|" horiz-adv-x="532" 
d="M204 1493h123v-1927h-123v1927z" />
    <glyph glyph-name="braceright" unicode="}" horiz-adv-x="684" 
d="M59 -434v133h33q98 0 121 55q8 23 10 82v371q0 246 168 321q-168 78 -168 324v371q0 102 -53 125q-27 12 -78 12h-33v133h97q170 0 213 -166q12 -45 12 -102v-342q0 -193 74 -248q30 -25 82 -35v-141q-107 -23 -138 -117q-18 -57 -18 -166v-342q0 -211 -150 -258
q-34 -10 -75 -10h-97z" />
    <glyph glyph-name="asciitilde" unicode="~" horiz-adv-x="1196" 
d="M824 549q-82 0 -166 53l-200 129q-38 20 -88 29q-94 0 -109 -160h-108q14 268 186 295q52 5 99 -10q24 -8 46 -21l240 -141q57 -35 102 -35q91 0 103 100l2 54h108v-33q0 -174 -116 -236q-43 -24 -99 -24z" />
    <glyph glyph-name="multiply" unicode="&#xd7;" horiz-adv-x="1390" 
d="M704 691l352 338q41 36 71 26q10 -4 19 -13q21 -25 5 -56q-8 -16 -27 -34l-23 -22l-325 -313l330 -344q39 -38 27 -74q-3 -10 -11 -21q-26 -20 -57 -4l-22 15q-6 5 -12 12l-19 20l-311 323l-311 -298l-38 -37q-42 -41 -74 -29q-9 4 -17 11q-23 24 -9 55q8 16 25 34
l352 339l-311 323l-22 23q-37 39 -26 71q4 11 13 21q30 18 64 -2q17 -10 36 -30l10 -11z" />
    <glyph glyph-name="divide" unicode="&#xf7;" horiz-adv-x="1299" 
d="M98 710h1123v-170h-1123v170zM610 1128q71 12 117 -27q23 -19 40 -52q22 -41 18 -85q0 -5 -1 -11q-6 -69 -67 -103q-36 -21 -61 -21q-107 -18 -156 78q-29 54 -18 105q5 26 21 52q21 28 46 42q36 22 61 22zM610 447q71 12 117 -26q23 -20 40 -52q22 -41 18 -85
q0 -5 -1 -11q-6 -69 -67 -103q-36 -22 -61 -22q-71 -12 -116 26q-23 20 -40 53q-25 46 -18 96q6 69 67 103q36 21 61 21z" />
    <glyph glyph-name="danda" unicode="&#x964;" horiz-adv-x="603" 
d="M458 1198v-1198h-134l4 1198h130z" />
    <glyph glyph-name="doubledanda" unicode="&#x965;" horiz-adv-x="870" 
d="M628 1116l-9 -972l-100 -112l7 966zM320 1096l4 -972l-99 -102l1 956z" />
    <glyph glyph-name="u0981" unicode="&#x981;" 
d="M-296 1753q-37 29 -39 74q2 47 39 77q37 29 90 29q60 0 98 -29q37 -29 37 -77q1 -30 -15 -53l-16 -16q-2 -3 -6 -5q-38 -29 -98 -29q-53 0 -90 29zM-352 1704q60 -49 128 -47h4q110 6 160 55q34 33 75 137q33 19 58 19q43 0 69 -47q-32 -219 -284 -283q-24 -2 -47 -2
q-150 0 -245 69q-110 78 -110 216q27 41 51 41q23 0 64 -31q14 -76 77 -127z" />
    <glyph glyph-name="u0982" unicode="&#x982;" horiz-adv-x="964" 
d="M949 123q0 -21 -23 -35q-22 -14 -48 -14q-29 0 -50 16l-591 600q-11 21 -11 39q0 51 54 51q24 0 49 -16l606 -612q14 -15 14 -29zM347 1165q-14 -35 -14 -69q0 -103 90 -103q82 0 135 101q12 41 12 71q0 99 -98 95q-90 -7 -125 -95zM693 1159q0 -26 -4 -57
q-12 -88 -97 -156q-85 -69 -175 -69t-151 62q-60 62 -60 151q0 30 8 61q59 223 258 223q221 0 221 -215z" />
    <glyph glyph-name="u0983" unicode="&#x983;" horiz-adv-x="897" 
d="M409 446q-41 -49 -52 -114q-1 -42 12 -72q6 -15 17 -28q31 -35 80 -35q83 0 137 75q45 62 45 127q0 111 -125 113q-67 -8 -114 -66zM497 1362q118 0 188 -74q66 -67 66 -168q0 -35 -11 -69q-14 -84 -73 -152q-92 -106 -234 -106q-98 0 -163 67q-64 66 -64 170
q0 152 108 257q76 73 177 75h6zM527 72q-26 -4 -49 -4q-110 0 -174 66q-65 67 -72 185q7 130 92 227t212 97q100 0 168 -65q71 -70 71 -188q0 -17 -2 -36q-41 -207 -246 -282zM377 1168q-50 -62 -50 -134q0 -57 35 -86q34 -30 81 -30q87 0 142 86q37 57 37 116
q0 111 -123 115q-72 -4 -122 -67z" />
    <glyph glyph-name="u0985" unicode="&#x985;" horiz-adv-x="1707" 
d="M806 1249l94 -90q117 -31 172 -59q82 -45 115 -119q90 -135 90 -293q0 -84 -29 -156l197 -245v962h-639zM1572 1249v-1104q-12 -65 -72 -65q-26 0 -45 22l-260 304q-119 -213 -340 -213q-100 0 -219 45q-227 88 -385 342q-139 223 -191 505q21 50 60 50q26 0 55 -27
q49 -268 182 -471q160 -240 392 -307q47 -15 98 -15q117 0 182 64q127 121 127 321q0 242 -186 330q-45 6 -80 6q-148 0 -148 -137q0 -47 17 -111q-21 -51 -64 -51q-28 0 -57 29q-18 80 -18 137q0 146 141 223l-131 123h-653v129h1721v-129h-126z" />
    <glyph glyph-name="u0986" unicode="&#x986;" horiz-adv-x="2063" 
d="M808 1249l94 -90q117 -31 172 -59q82 -45 115 -119q90 -135 90 -293q0 -84 -29 -156l197 -245v962h-639zM1574 1249v-1104q-12 -65 -72 -65q-26 0 -45 22l-260 304q-119 -213 -340 -213q-100 0 -219 45q-227 88 -385 342q-139 223 -191 505q21 50 60 50q26 0 55 -27
q49 -268 182 -471q160 -240 392 -307q47 -15 98 -15q117 0 182 64q127 121 127 321q0 242 -186 330q-45 6 -80 6q-148 0 -148 -137q0 -47 17 -111q-21 -51 -64 -51q-28 0 -57 29q-18 80 -18 137q0 146 141 223l-131 123h-653v129h2089v-129h-140v-1122q0 -31 -60 -31
q-55 0 -55 35v1118h-239z" />
    <glyph glyph-name="u0987" unicode="&#x987;" horiz-adv-x="887" 
d="M818 1376q59 1 112 2v-129h-555q-4 0 6 -4q5 -2 14 -6q37 -14 47 -27q21 5 45 5q127 0 224 -74q127 -99 127 -291q0 -35 -4 -70q-76 -295 -529 -350l719 -444q4 -13 4 -25q0 -56 -59 -53h-6l-906 555q-18 24 -18 51q0 57 51 57q10 0 23 -4q84 -12 159 -12q342 0 443 236
q6 30 6 63q0 88 -49 156q-61 86 -191 86q-237 0 -250 -246q-18 -29 -57 -29q-43 0 -57 43q0 95 53 185t139 125l-90 73h-233v129l701 -3q-7 149 -160 203q-67 23 -158 26h-158q-287 35 -364 76q-127 68 -145 285q-3 27 27 36q15 5 40 5q51 0 51 -27q2 -149 105 -205
q74 -38 248 -40h165q64 0 113 -5q156 -10 256 -98q96 -83 109 -229z" />
    <glyph glyph-name="u0988" unicode="&#x988;" horiz-adv-x="1187" 
d="M155 1898q8 -155 116 -208q74 -35 258 -35h76q294 0 404 -66q102 -61 97 -201q-1 -5 -1 -10h111v-129h-996l103 -121q24 5 47 5q137 0 219 -115q74 -101 66 -230q0 -8 -1 -16q134 121 168 148q170 133 258 135q42 1 56 -19q8 -11 8 -28q0 -13 -4 -25q-156 -401 -156 -672
q0 -209 78 -413q-8 -52 -61 -52q-25 0 -48 15q-81 223 -81 456q0 281 116 582q-104 -51 -248 -201q-198 -211 -227 -237q-131 -113 -246 -113q-84 0 -170 55q-10 13 -10 31q0 55 64 66q65 -35 118 -35q103 0 224 143q55 92 55 191q0 112 -76 176q-53 43 -112 43
q-78 0 -134 -66q-54 -64 -53 -153q-18 -25 -53 -25q-39 0 -59 29q-5 122 63 206q34 42 86 74l-133 166h-108v129h1025q7 23 7 41q0 107 -189 119q-37 2 -237 2q-96 -1 -169 8q-36 4 -67 11q-152 34 -205 86q-69 67 -88 241q8 41 49 41q35 0 60 -29z" />
    <glyph glyph-name="u0999" unicode="&#x989;" horiz-adv-x="1505" 
d="M1104 1378q-5 173 -211 214q-48 9 -107 11h-158q-288 35 -364 76q-127 68 -145 285q-3 27 27 36q15 5 40 5q51 0 51 -27q2 -149 105 -205q74 -38 248 -40h165q64 0 113 -5q156 -10 256 -98q108 -93 111 -252h268v-129h-782v-526q14 -41 49 -41q55 0 145 88q80 80 156 193
q12 20 41 20q43 0 78 -35q160 -151 160 -342q0 -98 -41 -217q-154 -313 -418 -317q-113 -1 -224 46q-56 24 -112 60q-135 90 -223 221q-158 234 -271 629q-1 15 6 27q4 7 11 13q18 17 45 17q31 0 51 -22q109 -340 195 -488q73 -161 215 -271q143 -111 290 -111
q168 0 281 151q76 102 76 240q0 153 -92 260q-138 -156 -178 -191q-113 -96 -228 -96q-139 21 -139 225v467h-606v129h1116z" />
    <glyph glyph-name="u098a" unicode="&#x98a;" horiz-adv-x="1593" 
d="M453 1698q92 -37 313 -37l76 2q166 0 239 -21q103 -26 158 -94q51 -59 51 -135q0 -16 -4 -35h326v-129h-789v-538q17 -43 51 -43q101 0 304 284q16 29 53 29q24 0 43 -14q182 -149 176 -396v-10q-6 -186 -129 -332q-133 -157 -332 -157q-176 0 -369 104
q-194 105 -305 262q-194 277 -254 660q7 49 54 49q35 0 59 -31q49 -229 92 -344q56 -147 158 -276l-94 276q-45 137 -60 291q17 43 52 43q32 0 61 -37q41 -295 160 -553q51 -110 137 -194q133 -132 301 -132q254 0 338 302q12 45 12 96q0 155 -92 246q-137 -146 -166 -170
q-135 -119 -229 -119q-101 0 -148 141v563h-716v129h1171q4 19 4 35q0 82 -111 113q-83 23 -253 20h-21q-168 -3 -277 19q-55 11 -96 28q-190 78 -196 312q30 34 65 34q27 0 49 -22q-4 -164 138 -219z" />
    <glyph glyph-name="u098b" unicode="&#x98b;" horiz-adv-x="1480" 
d="M861 1006l-495 -306l495 -448v754zM1273 1409q63 0 63 -35v-1042q0 -51 -75 -51q-37 0 -52 18l-221 258v-440q0 -54 -82 -54q-28 0 -45 15l-637 594q-14 14 -14 33q0 32 29 59l456 287l-92 100q-100 -117 -239 -117q-177 0 -283 160q-2 8 -2 18q0 58 74 58q14 0 26 -2
q68 -117 182 -117q115 0 168 117q35 35 84 26q9 -1 19 -4l170 -180l59 41v219q0 37 68 37q59 0 59 -33v-633l221 -249v882q0 35 64 35z" />
    <glyph glyph-name="u098c" unicode="&#x98c;" horiz-adv-x="1314" 
d="M294 1223q39 -21 254 -95q272 -94 414 -200q205 -156 205 -375q0 -68 -19 -141q-55 -146 -205 -240q-139 -88 -305 -100q-72 12 -72 45q0 14 17 39q18 53 37.5 105t19.5 95q0 54 -24 117q-56 105 -177 105q-67 0 -122 -43q-66 -60 -66 -158q0 -70 35 -148q4 -20 -3 -34
q-4 -8 -11 -13q-19 -18 -48 -18q-36 0 -47 22q-45 93 -45 191q0 112 58 192q92 127 252 127q92 0 170 -49q79 -49 113 -133t34 -162q0 -65 -25 -143q136 35 220 117q94 92 94 217q0 39 -11 80q-36 159 -210 266q-95 55 -322 135q-244 86 -299 117q-131 73 -131 194
q2 54 53 54q60 0 66 -48q-4 -44 41 -82q23 -19 59 -36z" />
    <glyph glyph-name="u098f" unicode="&#x98f;" horiz-adv-x="1388" 
d="M1248 1106v-983q0 -19 -31.5 -34t-62.5 -15q-25 0 -33 12q-129 170 -323 170q-60 0 -182.5 -19.5t-184.5 -19.5q-55 0 -102 10q-148 54 -211 162q-53 94 -53 250q0 55 6 125q28 24 57 24q33 0 61 -32q-6 -107 -6 -129q0 -174 115 -254q53 -37 131 -37q47 0 163 20.5
t185 20.5q187 0 344 -125v846q0 147 -100 147q-53 0 -143 -47q-203 -104 -203 -301q0 -88 39 -207q-6 -53 -66 -53q-33 0 -53 20q-47 105 -47 215q0 166 102 300q101 133 273 178q45 16 86 16q86 0 166 -70q73 -63 73 -190z" />
    <glyph glyph-name="u0990" unicode="&#x990;" horiz-adv-x="1586" 
d="M1222 592v-469q0 -19 -31.5 -34t-62.5 -15q-25 0 -33 12q-129 170 -323 170q-60 0 -182.5 -19.5t-184.5 -19.5q-55 0 -102 10q-148 54 -211 162q-53 94 -53 250q0 55 6 125q28 24 57 24q33 0 61 -32q-6 -107 -6 -129q0 -174 115 -254q53 -37 131 -37q47 0 163 20.5
t185 20.5q187 0 344 -125v846q0 147 -100 147q-53 0 -143 -47q-203 -104 -203 -301q0 -88 39 -207q-6 -53 -66 -53q-33 0 -53 20q-47 105 -47 215q0 166 102 300q101 133 273 178q45 16 86 16q86 0 166 -70q73 -63 73 -190v-370q100 29 164 126q71 106 71 223
q0 211 -234 256q-383 76 -383 268q0 133 150 213q24 3 43 -5q9 -4 17 -11q24 -19 24 -45q0 -19 -13 -35q-77 -80 -77 -127q0 -55 157 -98q217 -58 297 -109q146 -92 146 -287q0 -166 -103 -317q-97 -147 -259 -196z" />
    <glyph glyph-name="u0993" unicode="&#x993;" horiz-adv-x="1540" 
d="M1000 1374q170 -4 283 -112q113 -107 113 -254q0 -125 -86 -236q149 -115 149 -301q0 -135 -84 -233q-92 -109 -250 -129q-39 -7 -77 -7q-205 0 -402 136q-426 284 -565 1011q-1 41 21 55q12 7 30 7q35 0 66 -37q57 -268 131 -438q94 -228 248 -381q231 -234 469 -234
q166 0 243 94q47 60 47 142q0 73 -37.5 140t-103.5 99q-57 29 -57 62q0 24 30 53q105 74 105 182q0 82 -57 151q-82 99 -205 99q-97 0 -158 -71q-61 -72 -61 -173q0 -67 30 -129q-12 -57 -80 -57q-26 0 -45 16q-34 84 -34 168q0 146 93 253q93 106 244 124z" />
    <glyph glyph-name="u0994" unicode="&#x994;" horiz-adv-x="1666" 
d="M1335 865q58 33 106 105q71 107 71 224q0 211 -234 256q-383 76 -383 268q0 133 150 213q24 3 43 -5q9 -4 18 -10q23 -20 23 -46q0 -19 -13 -35q-77 -80 -77 -127q0 -55 157 -98q217 -58 297 -109q146 -92 146 -287q0 -166 -103 -317q-84 -127 -199 -178q91 -102 91 -248
q0 -135 -84 -233q-92 -109 -250 -129q-39 -7 -77 -7q-205 0 -402 136q-426 284 -565 1011q-1 41 21 55q12 7 30 7q35 0 66 -37q57 -268 131 -438q94 -228 248 -381q231 -234 469 -234q166 0 243 94q47 60 47 142q0 73 -37.5 140t-103.5 99q-57 29 -57 62q0 24 30 53
q105 74 105 182q0 82 -56 151q-83 99 -206 99q-97 0 -158 -71q-61 -72 -61 -173q0 -67 30 -129q-12 -57 -80 -57q-26 0 -45 16q-34 84 -34 168q0 146 93 253q93 106 244 124q170 -4 283 -112q113 -107 113 -254q0 -74 -30 -143z" />
    <glyph glyph-name="u0995" unicode="&#x995;" horiz-adv-x="1454" 
d="M731 1010l-502 -310l502 -452v762zM1288 782q0 -127 -59 -215q-63 -96 -170 -94q-45 -4 -60 21q-8 13 -8 34q0 45 41 60q40 -5 72 20q16 12 31 33q43 61 43 145q0 88 -52 150q-95 116 -259 111h-9v-934q0 -41 -43 -41q-47 0 -84 32l-641 568q-27 16 -27 41q0 30 35 51
l633 383v102h-745v129h1470v-129h-598v-78q430 -48 430 -389z" />
    <glyph glyph-name="u0996" unicode="&#x996;" horiz-adv-x="1302" 
d="M1294 1378v-129h-159v-1118q0 -20 -25 -35q-25 -16 -55 -16q-29 0 -47 14l-697 514q-18 27 -18 56q0 51 41 51q125 14 219 98q100 92 100 209q0 76 -43 149q-88 -202 -278 -202q-111 0 -244 71q-25 21 -25 52q0 59 54 59q10 0 20 -4q105 -60 189 -60q172 0 194 209
q-1 41 21 55q11 7 28 7q19 0 39 -12q168 -109 162 -331v-9q-10 -267 -295 -375l533 -383v1016q0 114 110 114h176z" />
    <glyph glyph-name="u0997" unicode="&#x997;" horiz-adv-x="1261" 
d="M1278 1378v-129h-160v-1140q0 -46 -63 -46q-64 0 -64 46v673q0 133 -71 224q-146 182 -355 182q-215 0 -334 -197q122 13 213 -32q46 -23 84 -60q107 -100 107 -252q0 -209 -193 -315q-12 -4 -24 -4q-27 0 -48 16q-20 16 -20 39q0 25 23 45q143 82 143 219
q0 92 -64.5 161t-156.5 69q-68 0 -133 -39q-29 -17 -53 -17q-46 0 -46 47q0 13 5 27q45 172 147 268q92 88 258 133q62 11 117 11q227 0 401 -191v262h287z" />
    <glyph glyph-name="u0998" unicode="&#x998;" horiz-adv-x="1101" 
d="M428 991q59 0 59 -59q0 -23 -16 -41l-209 -246l569 -397v1001h-567q-88 -49 -88 -127q0 -57 47 -101t117 -44zM-18 1378h1136v-129h-160v-1122q0 -47 -75 -47q-31 0 -52 14l-696 494q-29 12 -29 41q0 20 19 43l160 188q-95 14 -159 84q-65 70 -65 168q0 68 35 137h-114
v129z" />
    <glyph glyph-name="u0999" unicode="&#x999;" horiz-adv-x="1259" 
d="M696 1167q-49 -61 -67 -135q88 -18 133 -18q129 0 184 125q10 51 -33 83q-71 51 -143 10q-37 -20 -74 -65zM825 1374q87 10 157 -49q35 -29 65 -76q16 -41 16 -86q0 -90 -65 -165q-91 -105 -242 -105q-84 0 -152 29q-12 0 -12 -97q0 -73 49 -131l295 144q25 22 68 22
q18 0 36 -4q211 -154 211 -356q0 -168 -135 -295t-311 -127q-193 0 -371 147q-153 127 -229 299q-53 121 -88 258q-19 76 -56 265q7 53 54 53q35 0 57 -37q59 -318 143 -494q74 -151 201 -258q141 -118 285 -118q102 0 194 65q140 98 140 240q0 137 -136 243l-368 -198
q-154 119 -154 264q0 94 15 145q-3 6 -7 6q-256 117 -348 338q-5 20 0 35q3 7 9 13q18 18 47 18q22 0 40 -12q119 -203 281 -281q29 102 119 195q96 100 192 110z" />
    <glyph glyph-name="u099a" unicode="&#x99a;" horiz-adv-x="960" 
d="M261 973v-676q0 -102 72 -102q30 0 75 24q97 55 189 195q98 153 98 274q0 33 -8 62q-29 47 -203 99t-223 124zM-21 1378h1007v-129h-725v-82q57 -112 193 -178l221 -88q110 -51 129 -137q8 -35 8 -74q0 -184 -140 -378q-139 -193 -302 -240q-13 -4 -29 -4q-72 0 -133 51
q-74 59 -74 153v977h-155v129z" />
    <glyph glyph-name="u099b" unicode="&#x99b;" horiz-adv-x="1239" 
d="M320 1074v-405q0 -52 49 -52q84 0 216 109.5t120 181.5q-10 70 -158 92q-176 27 -227 74zM-12 1378h1274v-124h-942q0 -69 133 -110q111 -35 240 -35q49 0 78 6q155 -10 239 -100q76 -84 76 -213q0 -158 -104 -301q-76 -105 -158 -158q-58 -35 -152 -64q150 -8 322 -67
q190 -64 338 -168q12 -27 12 -47q0 -52 -70 -49h-8q-188 131 -432 190q-192 45 -481 60q-31 26 -31 67q0 33 27 47q161 19 217 33q108 29 192 98q86 58 152 163q67 106 67 200q0 139 -159 182q4 -25 4 -49q0 -170 -166 -301q-152 -121 -307 -121q-156 0 -156 139v580l-18 13
h-187v129z" />
    <glyph glyph-name="u099c" unicode="&#x99c;" horiz-adv-x="1701" 
d="M-24 1378h1743v-129h-614l467 -286q33 -11 33 -48q0 -16 -9 -30q-116 -271 -116 -441q0 -184 116 -405q0 -74 -63 -74q-16 0 -35 8q-135 263 -135 469q0 181 111 443l-592 370q-103 -51 -176 -153q-74 -103 -74 -195q0 -98 84 -147q8 2 192 76q115 46 197 45
q164 -119 164 -310q0 -221 -207 -335q-131 -72 -262 -72q-307 0 -555 366q-51 56 -107 207q-59 162 -78 318q0 63 50 63q30 0 61 -35q25 -297 195 -526q206 -278 444 -278q137 0 256 106q84 76 84 188q0 115 -88 199q-41 -12 -184 -74q-113 -49 -185 -53q-178 76 -178 258
q0 178 148 346h-687v129z" />
    <glyph glyph-name="u099d" unicode="&#x99d;" horiz-adv-x="1419" 
d="M711 1006l-492 -306l492 -448v754zM1141 1249q0 129 127 129h176v-129h-176v-917q0 -41 -66 -41q-41 0 -61 20l-303 246v-440q0 -54 -74 -54q-31 0 -53 17l-639 588q-13 10 -13 39q0 41 29 57l623 383v102h-723v129h723q127 0 127 -129v-530l303 -232v762z" />
    <glyph glyph-name="u099e" unicode="&#x99e;" horiz-adv-x="1848" 
d="M1572 1010q-78 0 -153 -113q-19 -27 -103 -184q45 -115 125 -207q99 -111 195 -111q16 0 33 4q61 39 61 95q0 53 -56 97q-57 44 -122 44q-49 27 -49 61q0 35 41 60q71 8 118 57q43 43 43 96q0 102 -133 101zM1217 626v-503q0 -19 -31.5 -34t-62.5 -15q-25 0 -33 12
q-129 170 -323 170q-60 0 -182.5 -19.5t-184.5 -19.5q-55 0 -102 10q-148 54 -211 162q-53 94 -53 250q0 55 6 125q28 24 57 24q33 0 61 -32q-6 -107 -6 -129q0 -174 115 -254q53 -37 131 -37q47 0 163 20.5t185 20.5q187 0 344 -125v846q0 147 -100 147q-53 0 -143 -47
q-203 -104 -203 -301q0 -88 39 -207q-6 -53 -66 -53q-33 0 -53 20q-47 105 -47 215q0 166 101 300q102 133 274 178q45 16 86 16q86 0 166 -70q73 -63 73 -190v-306q45 105 116 193q110 135 256 144q106 -9 180 -79q74 -71 74 -163q0 -109 -105 -195q129 -84 129 -223
q0 -155 -170 -201q-26 -4 -53 -4q-204 0 -354 225q-39 58 -73 129z" />
    <glyph glyph-name="u099f" unicode="&#x99f;" horiz-adv-x="989" 
d="M293 1542q-289 31 -364 74q-127 67 -140 289q4 39 53 39q39 0 60 -27q2 -158 113 -213q77 -39 270 -39h121q223 -2 323 -39q168 -63 168 -248h107v-129h-713v-889q0 -51 36 -88q36 -36 91 -36q78 0 154 79q159 172 159 330q0 92 -47 137q-2 2 -82 62q-8 12 -8 26
q0 25 20.5 45.5t53.5 20.5q180 -125 180 -279q0 -186 -145 -381q-152 -204 -320 -204q-76 0 -147 80q-72 79 -72 176v919q-72 3 -147 2h-28v129h781q6 21 6 39q0 131 -307 131z" />
    <glyph glyph-name="u09a0" unicode="&#x9a0;" horiz-adv-x="1029" 
d="M578 1128q2 -34 2 -69q0 -377 -394 -555q-1 -91 30 -160q16 -35 40 -64q72 -87 176 -87q109 0 207 94q149 143 149 336q0 237 -210 505zM143 1946q0 170 217 208q56 -16 56 -73q0 -31 -23 -41q-131 0 -131 -96q0 -68 72 -220q129 -235 198 -346h525v-129h-422
q264 -319 264 -641q0 -200 -127 -360q-135 -168 -332 -168q-73 0 -147 26q-82 29 -156 151q-74 121 -74 226q0 76 43 115q191 78 279 190q88 113 88 285q0 80 -18 176h-467v129h405q-20 45 -117 207q-133 229 -133 361z" />
    <glyph glyph-name="u09a1" unicode="&#x9a1;" horiz-adv-x="1468" 
d="M1503 1378v-129h-782v-526q14 -41 49 -41q55 0 145 88q80 80 156 193q12 20 41 20q43 0 78 -35q160 -151 160 -342q0 -98 -41 -217q-154 -313 -418 -317q-113 -1 -224 46q-56 24 -112 60q-135 90 -223 221q-158 234 -271 629q-1 15 6 27q4 7 11 13q18 17 45 17
q31 0 51 -22q109 -340 195 -488q73 -161 215 -271q143 -111 290 -111q168 0 281 151q76 102 76 240q0 153 -92 260q-138 -156 -178 -191q-113 -96 -228 -96q-139 21 -139 225v467h-606v129h1515z" />
    <glyph glyph-name="u09a2" unicode="&#x9a2;" horiz-adv-x="997" 
d="M-13 1378h1045v-129h-713v-889q0 -51 36 -88q36 -36 91 -36q78 0 154 79q159 172 159 330q0 92 -47 137q-2 2 -82 62q-8 12 -8 26q0 25 20.5 45.5t53.5 20.5q180 -125 180 -279q0 -186 -145 -381q-152 -204 -320 -204q-76 0 -147 80q-72 79 -72 176v919l-205 2v129z" />
    <glyph glyph-name="u09a3" unicode="&#x9a3;" horiz-adv-x="1051" 
d="M790 139v709q0 45 -25 162q-16 82 -105 141q-90 59 -194 59q-107 0 -180 -67q-92 -84 -92 -199q0 -96 62 -171t153 -79q26 -8 26 -41q0 -26 -15 -49q-15 -24 -38 -24q-221 43 -281 235q-20 64 -20 129q0 137 82 240q110 139 340 139q145 0 287 -119q0 174 127 174h155
v-129h-155v-1108q0 -51 -58 -51q-69 0 -69 49z" />
    <glyph glyph-name="u09a4" unicode="&#x9a4;" horiz-adv-x="1459" 
d="M930 1120q126 1 218 -64q46 -33 83 -83q100 -133 100 -332q0 -66 -12 -129q-37 -193 -145 -309q-117 -125 -285 -125q-43 0 -86 8q-168 31 -283 117q-67 51 -168 174q-241 299 -291 694q-4 15 3 27q4 6 10 11q20 15 47 15q39 0 51 -30q61 -250 98 -344q66 -170 187 -318
q96 -115 174 -160q55 -30 198 -71q25 -2 48 -2q161 0 249 131q78 116 86 305q9 182 -82 281q-88 93 -218 86q-6 0 -13 -1q-141 -26 -141 -149q0 -57 33 -102q0 -62 -64 -62q-22 0 -43 12q-47 78 -47 154q0 113 90 189.5t203 76.5zM-12 1378h1499v-129h-1499v129z" />
    <glyph glyph-name="u09a5" unicode="&#x9a5;" horiz-adv-x="1149" 
d="M335 1337q147 0 236 -85t89 -220q0 -108 -59 -225q-51 -100 -203 -209l481 -358v1009q0 64 43 99q35 30 84 30h156v-129h-156v-1126q0 -41 -79 -41q-31 0 -48 12l-628 467q-13 29 -13 51q0 35 27 45q109 43 194 156t85 219q0 131 -136 180q-41 7 -73 7q-183 0 -193 -218
q-8 -43 -65 -43q-39 0 -50 29q-12 233 129 311q70 39 179 39z" />
    <glyph glyph-name="u09a6" unicode="&#x9a6;" horiz-adv-x="894" 
d="M915 1378v-129h-706v-481q59 72 209 174q176 119 264 110q4 0 8 -1q66 -7 64 -72q-99 -274 -99 -451q0 -190 103 -387q5 -26 -10 -41l-15 -10l-6 -2q-29 -10 -72 -6q-118 209 -118 432q0 170 69 393q-231 -90 -411 -305q-25 -14 -56 -14q-57 0 -57 47v614h-94v129h927z
" />
    <glyph glyph-name="u09a7" unicode="&#x9a7;" horiz-adv-x="971" 
d="M709 248v766l-502 -309zM991 1378v-129h-155v-1140q0 -33 -78 -33q-31 0 -49 10l-635 586q-13 14 -13 39q0 37 27 67l184 107q-161 71 -213 209q-4 24 -4 49q0 119 99 180q84 51 217 51q37 -10 37 -51q0 -53 -35 -70q-199 0 -199 -102q0 -23 10 -49q70 -119 209 -119
q23 0 45 4l271 168v94q0 129 127 129h155z" />
    <glyph glyph-name="u09a8" unicode="&#x9a8;" horiz-adv-x="1064" 
d="M1077 1378v-129h-155v-1145q0 -36 -64 -36q-63 0 -63 36v435q-27 118 -85 181q-82 89 -239 89q-115 0 -190 -64q-78 -69 -78 -180q0 -107 46 -159q30 -35 101 -74q15 -15 15 -33q0 -27 -21 -47q-20 -19 -43 -17q-2 1 -4 1q-127 49 -178 163q-37 82 -37 168q0 135 87 235
q109 126 314 126q181 0 312 -129v450h-807v129h1089z" />
    <glyph glyph-name="u09aa" unicode="&#x9aa;" horiz-adv-x="1324" 
d="M823 1110q-137 131 -276 131t-273 -131l250 -295zM1053 1028v219q0 53 37.5 92t89.5 39h155v-129h-155v-1136q0 -41 -62 -41q-65 0 -65 39v561q0 94 -49 192q-23 47 -99 160l-469 -459q-25 -5 -44 2q-10 3 -18 9q-26 20 -26 51q0 12 4 22l82 84l-229 277l-62 -103
q-14 -8 -28 -8q-29 0 -51 21q-21 20 -25 47q145 317 434 387q45 10 90 10q271 0 490 -336z" />
    <glyph glyph-name="u09ab" unicode="&#x9ab;" horiz-adv-x="1399" 
d="M1422 1378v-129h-1225l268 -301q17 -44 6 -70q-6 -14 -18 -22l-211 -199l498 -409v805q0 114 65 114q344 0 449 -196q45 -86 45 -178q0 -121 -69 -215q-69 -93 -155 -101q-53 6 -53 70q0 39 33 51q31 -4 58 21q14 14 27 35q38 61 38 143q0 67 -31 125q-69 133 -280 133
v-928q3 -34 -23 -45q-13 -6 -33 -6q-43 0 -71 24l-623 508q-12 25 -12 45q0 29 24 58l211 196l-307 342h-51v129h1440z" />
    <glyph glyph-name="u09ac" unicode="&#x9ac;" horiz-adv-x="980" 
d="M715 262v762l-502 -313zM-12 1378h1009v-129h-155v-1122q-13 -47 -72 -47q-33 0 -55 20l-637 580q-17 14 -17 41q0 35 21 47l633 387v94h-727v129z" />
    <glyph glyph-name="u09ad" unicode="&#x9ad;" horiz-adv-x="1598" 
d="M168 1182q37 -262 168 -514q98 -191 231 -316q176 -166 369 -166q215 0 350 172q80 103 80 222q0 120 -92 223q-150 -176 -279 -205q-37 -8 -73 -8q-121 0 -197 84t-76 207q0 53 17 106q20 23 47 23q39 0 71 -47q-10 -45 -10 -84q0 -174 146 -174q22 0 45 6q86 20 147 88
q27 30 88 127q14 32 64 32q22 0 39 -14q186 -172 186 -364q0 -113 -66 -226q-176 -305 -477 -305q-346 0 -618 402q-121 176 -178 331q-54 146 -89 369q11 43 56 43q24 0 51 -12zM-12 1378h1648v-129h-1648v129z" />
    <glyph glyph-name="u09ae" unicode="&#x9ae;" horiz-adv-x="1157" 
d="M887 1249h-586l-80 -129q115 -14 191 -84q77 -69 84 -180q78 4 148 -18q36 -11 69 -29q78 -43 174 -145v585zM-12 1378h1181v-129h-155v-1132q0 -37 -60 -37q-67 0 -67 39v90q0 147 -21 231q-32 123 -121 195q-104 100 -237 100q-168 0 -242 -155q-12 -43 -12 -86
q0 -101 59 -168q64 -74 170 -74q27 -12 27 -49q0 -66 -45 -66q-248 23 -318 262q-8 54 -8 99q0 211 236 336q3 65 -35 106l-22 20q-11 8 -25 15q-62 32 -152 27q-9 0 -18 -1q-62 11 -62 68q0 12 2 25l97 155h-172v129z" />
    <glyph glyph-name="u09af" unicode="&#x9af;" horiz-adv-x="1003" 
d="M-12 1378h1028v-129h-156v-1126q0 -53 -72 -53q-32 0 -55 16l-667 483q-23 17 -23 43q0 23 16 45l277 242l-295 350h-53v129zM199 1249l266 -323q16 -36 7 -60q-4 -12 -15 -22l-269 -226l545 -382v1013h-534z" />
    <glyph glyph-name="u09b0" unicode="&#x9b0;" horiz-adv-x="985" 
d="M715 262v762l-502 -313zM-12 1378h1009v-129h-155v-1122q-13 -47 -72 -47q-33 0 -55 20l-637 580q-17 14 -17 41q0 35 21 47l633 387v94h-727v129zM300 250h160v-150h-160v150z" />
    <glyph glyph-name="u09b0" unicode="&#x9b2;" horiz-adv-x="1398" 
d="M1423 1378v-129h-155v-1122q0 -64 -66 -64q-61 0 -61 60v596q-121 229 -244 229q-96 0 -162 -149q-16 -17 -55 -17t-57 21q-56 158 -213 158q-148 0 -213 -140q-17 -49 -17 -94q0 -102 74 -167q74 -66 178 -66q19 0 37 2q39 -15 39 -50q0 -43 -39 -65q-20 -2 -43 -2
q-156 0 -262 103q-105 104 -105 245q0 96 56 186q104 168 295 168q165 0 268 -137q104 123 211 123q117 0 252 -141v323h-1153v129h1435z" />
    <glyph glyph-name="u09b6" unicode="&#x9b6;" horiz-adv-x="1286" 
d="M1150 1249v-1126q0 -41 -57 -41q-70 0 -70 41v928q0 71 -88 135q-96 67 -219 67q-82 0 -148 -49q-76 -57 -73 -148v-5q6 -123 92 -177q67 -43 221 -59q14 -8 14 -35q0 -55 -28 -80q-160 15 -232 52q-82 43 -147 159q-70 -135 -164 -180q-64 -29 -217 -37q-25 19 -25 56
q0 34 21 59q110 6 192 57q90 58 111 146q11 45 -10 91q-10 23 -28 47q-54 71 -132 89q-45 10 -164 10q-31 0 -31 68q0 61 31 61q164 0 219 -18q111 -35 195 -178q65 100 131 141q59 39 172 55q57 3 119 -13q32 -9 65 -21q98 -39 123 -97q0 43 38 87t89 44h156v-129h-156z
" />
    <glyph glyph-name="u09b7" unicode="&#x9b7;" horiz-adv-x="1003" 
d="M1016 1249h-156v-1126q0 -53 -72 -53q-32 0 -55 16l-667 483q-23 17 -23 43q0 23 16 45l277 242l-295 350h-53v129h1028v-129zM733 803v446h-534l264 -321zM733 236v438l-313 139l-232 -195z" />
    <glyph glyph-name="u09b8" unicode="&#x9b8;" horiz-adv-x="1333" 
d="M1073 1249h-627l-84 -139q121 -23 199 -80q66 -47 137 -151q62 41 119 41q103 0 256 -175v504zM1356 1378v-129h-156v-1149q0 -41 -57 -41q-70 0 -70 41v140q0 229 -92 405q-82 160 -168 160q-45 0 -68 -55q-63 -215 -172 -355q-116 -149 -241 -149q-144 0 -264 205
q-5 14 -5 26q0 51 60 51q22 0 45 -12q82 -147 168 -147q129 0 285 387q-70 135 -140 186q-78 55 -225 59q-39 -4 -52 21q-7 13 -7 33t12 39l84 155h-305v129h1368z" />
    <glyph glyph-name="u09b9" unicode="&#x9b9;" horiz-adv-x="909" 
d="M932 1378v-129h-555q-4 0 6 -4q5 -2 14 -6q37 -14 47 -27q21 5 45 5q127 0 224 -74q127 -99 127 -291q0 -35 -4 -70q-76 -295 -529 -350l719 -444q4 -13 4 -25q0 -56 -59 -53h-6l-906 555q-18 24 -18 51q0 57 51 57q10 0 23 -4q84 -12 159 -12q342 0 443 236q6 30 6 63
q0 88 -49 156q-61 86 -191 86q-237 0 -250 -246q-18 -29 -57 -29q-43 0 -57 43q0 95 53 185t139 125l-90 73h-233v129h944z" />
    <glyph glyph-name="u09bc" unicode="&#x9bc;" 
d="M-376 -10h160v-150h-160v150z" />
    <glyph glyph-name="avagraha" unicode="&#x9bd;" horiz-adv-x="909" 
d="M-8 1378q136 30 272 -37q69 -34 137 -92l48 -37q20 5 45 5q127 0 223 -74q127 -99 127 -291q0 -35 -4 -70q-76 -295 -529 -350l719 -444q4 -13 4 -25q0 -56 -59 -53h-6l-906 555q-18 24 -18 51q0 57 51 57q10 0 23 -4q84 -12 160 -12q342 0 442 236q6 30 6 63
q0 88 -49 156q-61 86 -191 86q-237 0 -249 -246q-19 -29 -58 -29q-43 0 -57 43q0 95 53 185t139 125q-125 115 -268 88q-27 -5 -55 -15v129z" />
    <glyph glyph-name="u09be" unicode="&#x9be;" horiz-adv-x="505" 
d="M497 1378v-129h-165v-1122q0 -31 -66 -31q-61 0 -61 35v1118h-217v129h509z" />
    <glyph glyph-name="u09bf" unicode="&#x9bf;" horiz-adv-x="475" 
d="M1307 1610q4 -13 4 -23q0 -55 -62 -55q-16 0 -30 6q-261 299 -562 299q-94 0 -204 -25q-228 -86 -228 -237q0 -96 86 -197h186v-129h-165v-1114q0 -37 -66 -37q-61 0 -61 41v1110h-217v129h188q-84 82 -84 191q0 176 178 291q183 94 381 94q391 0 656 -344z" />
    <glyph glyph-name="u09c0" unicode="&#x9c0;" horiz-adv-x="475" 
d="M-201 1894q451 -92 504 -516h194v-129h-165v-1122q0 -66 -64 -66q-63 0 -63 66v1122h-225v129h202q-78 334 -409 406q-84 18 -172 18q-201 0 -336 -88q-15 -22 -15 -39q0 -47 183 -49q239 -4 340 -43q181 -70 180 -278q-19 -45 -68 -45q-30 0 -49 30q-16 111 -35 142
q-30 45 -125 61q-55 10 -243 12q-154 2 -215 33q-85 39 -79 149q1 5 1 9q10 112 160 170q120 47 301 47q110 0 198 -19z" />
    <glyph glyph-name="u09c1" unicode="&#x9c1;" 
d="M-459 -106q0 -68 82 -68q31 0 68 36t51 77q-66 26 -115 26q-86 0 -86 -71zM-543 -190q-30 36 -30 77q0 52 45 99q58 61 129 61q61 0 157 -24q4 16 -6 56q-5 20 -14 46h108q38 -65 34 -137q0 -6 -1 -11l256 -131q10 -6 10 -20q0 -23 -16 -44q-14 -19 -28 -15q-2 1 -5 2
l-243 120q-29 -65 -97 -104q-69 -39 -145 -39q-103 0 -154 64z" />
    <glyph glyph-name="u09c2" unicode="&#x9c2;" 
d="M-332 72q41 12 84 0q-4 28 -14 53h108q29 -37 31 -78q1 -23 -15 -43q-8 -11 -22 -20q-36 -27 -61 -23q-35 10 -64 10q-71 0 -96 -57q4 -61 70 -61q57 0 123 38q25 15 43 10q9 -2 16 -10l311 -206q6 -11 6 -23q0 -20 -17 -38q-17 -19 -42 -19l-285 186q-77 -37 -153 -37
q-125 0 -166 103q-6 24 -6 49q0 123 149 166z" />
    <glyph glyph-name="u09c3" unicode="&#x9c3;" 
d="M-199 125q27 6 43.5 -10.5t16.5 -38.5q0 -17 -13 -29l-198 -115l313 -256q10 -12 10 -26q0 -45 -51 -45q-8 0 -16 2l-365 291q-16 14 -16 36q0 25 18 43z" />
    <glyph glyph-name="u09c4" unicode="&#x9c4;" horiz-adv-x="0" 
d="M-497 -50v-4q0 -17 -13 -29l295 -241q10 -12 10 -26q0 -45 -51 -45q-8 0 -16 2l-325 259l-111 -64l313 -256q10 -12 10 -26q0 -45 -51 -45q-8 0 -16 2l-365 291q-16 14 -16 36q0 25 18 43l162 93q2 21 18 37l258 148q27 6 43.5 -10.5t16.5 -38.5q0 -17 -13 -29z" />
    <glyph glyph-name="u09c7" unicode="&#x9c7;" horiz-adv-x="650" 
d="M649 1368v-111q-111 -18 -193 -44q-110 -37 -198 -140q-133 -155 -133 -417q0 -168 67 -289q78 -135 225 -172q23 -6 52 -4l20 2q55 10 70 10q63 0 63 -57q0 -27 -18 -43q-49 -21 -64 -23q-43 -8 -84 -8q-192 0 -321 174q-121 162 -129 375q-8 180 60 347q34 84 87 165
q81 98 201 119h-368v116h663z" />
    <glyph glyph-name="u09c8" unicode="&#x9c8;" horiz-adv-x="613" 
d="M610 1378v-129q-168 0 -291 -109q-123 -110 -170 -315q-20 -86 -20 -178q0 -162 59 -282q68 -138 195 -183q43 -9 78 -5q18 3 34 9q19 4 35 4q62 0 62 -55q0 -20 -11 -41q-67 -47 -120 -39q-150 -4 -256 82q-53 44 -95 111q-106 170 -106 411q0 86 14 162q74 369 283 431
h-324v126h393q-40 76 -151 107q-55 16 -223 20q-156 2 -240 37q-123 51 -123 193q0 30 21 180q26 16 55 16q43 0 72 -33q-25 -104 -25 -147q0 -109 146 -117q311 -16 374 -35q168 -45 240 -221h94z" />
    <glyph glyph-name="u09cb" unicode="&#x9cb;" horiz-adv-x="1450" 
d="M646 1368v-111q-111 -18 -193 -44q-110 -37 -198 -140q-133 -155 -133 -417q0 -168 67 -289q78 -135 225 -172q23 -6 52 -4l20 2q55 10 70 10q63 0 63 -57q0 -27 -18 -43q-49 -21 -64 -23q-43 -8 -84 -8q-192 0 -321 174q-121 162 -129 375q-8 180 60 347q34 84 87 165
q81 98 201 119h-368v116h663zM1549 1378v-129h-165v-1122q0 -31 -66 -31q-61 0 -61 35v1118h-217v129h509z" />
    <glyph glyph-name="u09cc" unicode="&#x9cc;" horiz-adv-x="1519" 
d="M646 1368v-111q-111 -18 -193 -44q-110 -37 -198 -140q-133 -155 -133 -417q0 -168 67 -289q78 -135 225 -172q23 -6 52 -4l20 2q55 10 70 10q63 0 63 -57q0 -27 -18 -43q-49 -21 -64 -23q-43 -8 -84 -8q-192 0 -321 174q-121 162 -129 375q-8 180 60 347q34 84 87 165
q81 98 201 119h-368v116h663zM530 1831q-6 -25 -6 -47q0 -121 209 -139l395 -29q221 -47 241 -238h170v-129h-155v-1093q0 -68 -62 -68q-65 0 -65 66v1095h-217v129h209q-15 111 -234 133l-401 41q-211 50 -211 226q0 30 6 67q25 29 57 29q41 0 64 -43z" />
    <glyph glyph-name="u09cd" unicode="&#x9cd;" 
d="M-145 20l338 -247l-66 -88l-344 258z" />
    <glyph glyph-name="uni09CE" unicode="&#x9ce;" horiz-adv-x="1026" 
d="M411 1374q129 -2 206 -69q68 -58 115 -185q0 -24 -24 -40q-23 -17 -50 -17q-22 0 -30 12q-66 180 -203 180q-29 0 -59 -6q-170 -53 -170 -213q0 -177 297 -411l272 -211q143 -131 211 -291q7 -34 -21 -45q-15 -6 -38 -6q-46 0 -58 28q-61 140 -233 277l-301 231
q-166 146 -226 318q-20 57 -20 114q0 142 113 242q103 93 219 92z" />
    <glyph glyph-name="u09d7" unicode="&#x9d7;" horiz-adv-x="475" 
d="M-522 1831q-6 -25 -6 -47q0 -121 209 -139l395 -29q221 -47 241 -238h170v-129h-155v-1093q0 -68 -62 -68q-65 0 -65 66v1095h-217v129h209q-15 111 -234 133l-401 41q-211 50 -211 226q0 30 6 67q25 29 57 29q41 0 64 -43z" />
    <glyph glyph-name="u09dc" unicode="&#x9dc;" horiz-adv-x="1445" 
d="M1499 1378v-129h-782v-526q14 -41 49 -41q55 0 145 88q80 80 156 193q12 20 41 20q43 0 78 -35q160 -151 160 -342q0 -98 -41 -217q-154 -313 -418 -317q-113 -1 -224 46q-56 24 -112 60q-135 90 -223 221q-158 234 -271 629q-1 15 6 27q4 7 11 13q18 17 45 17
q31 0 51 -22q109 -340 195 -488q73 -161 215 -271q143 -111 290 -111q168 0 281 151q76 102 76 240q0 153 -92 260q-138 -156 -178 -191q-113 -96 -228 -96q-139 21 -139 225v467h-606v129h1515zM860 -20h160v-150h-160v150z" />
    <glyph glyph-name="u09dd" unicode="&#x9dd;" horiz-adv-x="998" 
d="M-12 1378h1045v-129h-713v-889q0 -51 36 -88q36 -36 91 -36q78 0 154 79q159 172 159 330q0 92 -47 137q-2 2 -82 62q-8 12 -8 26q0 25 20.5 45.5t53.5 20.5q180 -125 180 -279q0 -186 -145 -381q-152 -204 -320 -204q-76 0 -147 80q-72 79 -72 176v919l-205 2v129z
M339 -10h160v-150h-160v150z" />
    <glyph glyph-name="u09df" unicode="&#x9df;" horiz-adv-x="1014" 
d="M-12 1378h1028v-129h-156v-1126q0 -53 -72 -53q-32 0 -55 16l-667 483q-23 17 -23 43q0 23 16 45l277 242l-295 350h-53v129zM199 1249l266 -323q16 -36 7 -60q-4 -12 -15 -22l-269 -226l545 -382v1013h-534zM304 240h128v-120h-128v120z" />
    <glyph glyph-name="u09e0" unicode="&#x9e0;" horiz-adv-x="1348" 
d="M831 252v754l-495 -306zM1179 1374q0 35 64 35q63 0 63 -35v-1042q0 -51 -75 -51q-37 0 -52 18l-221 258v-440q0 -54 -82 -54q-28 0 -45 15l-637 594q-14 14 -14 33q0 32 29 59l456 287l-92 100q-100 -117 -239 -117q-177 0 -283 160q-2 8 -2 18q0 58 74 58q14 0 26 -2
q68 -117 182 -117q115 0 168 117q35 35 84 26q9 -1 19 -4l170 -180l59 41v219q0 37 68 37q59 0 59 -33v-633l221 -249v882zM690 178q27 6 43.5 -10.5t16.5 -38.5q0 -17 -13 -29l-198 -115l313 -256q10 -12 10 -26q0 -45 -51 -45q-8 0 -16 2l-365 291q-16 14 -16 36
q0 25 18 43z" />
    <glyph glyph-name="u09e1" unicode="&#x9e1;" horiz-adv-x="1124" 
d="M880 131q38 -19 65 -40q97 -74 97 -178q0 -115 -107 -181q-67 -42 -145 -48q-35 6 -35 22q0 6 9 18q8 26 18 50q9 25 9 45q0 26 -12 56q-26 50 -84 50q-31 0 -57 -20q-33 -29 -33 -75q0 -34 17 -71q3 -9 0 -15q-2 -4 -6 -7q-9 -8 -24 -8q-16 0 -21 9q-21 45 -21 92
q0 53 27 91q44 60 120 60q43 0 81 -23q69 -44 69 -140q0 -31 -12 -68q66 17 105 55q45 44 45 103q0 100 -105 165q-24 14 -67 31q-78 -26 -163 -32q-72 12 -72 36q0 23 18 62q56 126 56 186q0 54 -24 117q-56 105 -177 105q-67 0 -122 -43q-66 -60 -66 -158q0 -70 35 -148
q4 -20 -3 -34q-4 -8 -11 -13q-19 -18 -48 -18q-36 0 -47 22q-45 93 -45 191q0 112 58 192q92 127 252 127q92 0 170 -49q79 -49 113 -133t34 -162q0 -65 -25 -143q136 35 220 117q94 92 94 217q0 39 -11 80q-36 159 -210 266q-95 55 -322 135q-244 86 -299 117
q-135 75 -131 194q2 54 53 54q60 0 66 -48q-4 -44 41 -82q23 -19 59 -36q39 -21 254 -95q272 -94 414 -200q205 -156 205 -375q0 -68 -19 -141q-55 -146 -205 -240q-37 -23 -75 -41z" />
    <glyph glyph-name="u09e2" unicode="&#x9e2;" horiz-adv-x="4" 
d="M-439 536q-1 -17 17 -32q9 -8 23 -15q16 -8 102 -38q109 -37 166 -80q82 -62 82 -150q0 -97 -90 -152q-56 -35 -122 -40q-29 5 -29 18q0 1 22 57q8 21 8 38q0 22 -10 47q-22 42 -71 42q-26 0 -48 -17q-27 -24 -27 -63q0 -28 14 -59q2 -8 -1 -13l-4 -6q-8 -7 -20 -7
q-14 0 -18 8q-18 38 -18 77q0 45 23 77q37 50 101 50q36 0 67 -20q59 -36 59 -117q0 -26 -10 -57q55 14 88 46q38 37 38 87q0 84 -88 139q-38 22 -129 54q-98 34 -120 46q-54 30 -52 78q1 22 21 22q24 0 26 -20z" />
    <glyph glyph-name="u09e3" unicode="&#x9e3;" horiz-adv-x="9" 
d="M-456 146v5q0 45 23 77q37 50 101 50q36 0 68 -20q58 -36 58 -117q0 -26 -10 -57q55 14 88 46q38 37 38 87q0 84 -88 139q-38 22 -129 54q-98 34 -120 46q-54 30 -52 78q1 22 21 22q24 0 26 -20q-1 -17 17 -32q9 -8 23 -15q16 -8 102 -38q109 -37 166 -80q82 -62 82 -150
q0 -97 -90 -152q-56 -35 -122 -40q-29 5 -29 18q0 1 22 57q8 21 8 38q0 22 -10 47q-22 42 -71 42q-26 0 -48 -17q-27 -24 -27 -63q0 -25 12 -53q45 -51 45 -117q0 -97 -90 -152q-56 -35 -122 -40q-29 5 -29 18q0 1 22 57q8 21 8 38q0 22 -10 47q-22 42 -71 42q-26 0 -48 -17
q-27 -24 -27 -63q0 -28 14 -59q2 -8 -1 -13q-1 -3 -4 -6q-8 -7 -20 -7q-14 0 -18 8q-18 38 -18 77q0 45 23 77q37 50 101 50q36 0 68 -20q58 -36 58 -117q0 -26 -10 -57q55 14 88 46q38 37 38 87q0 51 -33 92q-3 1 -5 5l-1 2q-20 22 -49 40q-38 22 -129 54q-98 34 -120 46
q-54 30 -52 78q1 22 21 22q24 0 26 -20q-1 -17 17 -32q9 -8 23 -15q16 -8 102 -38q90 -30 144 -65z" />
    <glyph glyph-name="u09e6" unicode="&#x9e6;" horiz-adv-x="1101" 
d="M623 1087q-119 -2 -217 -71q-99 -70 -152 -195q-31 -71 -31 -149q0 -101 49 -176q79 -125 240 -125q106 0 207 69q92 64 147 162q52 92 52 193q0 125 -74 206q-81 88 -221 86zM166 926q70 127 188 204q119 78 248 82q126 5 225 -46q49 -25 92 -64q128 -117 128 -289
q0 -41 -9 -80q-77 -401 -434 -481q-53 -12 -102 -12q-178 0 -293 131q-109 125 -109 303q0 133 66 252z" />
    <glyph glyph-name="u09e7" unicode="&#x9e7;" horiz-adv-x="934" 
d="M842 500q-29 -258 -148 -340q-59 -41 -112 -50q-54 -10 -222 -10q-55 0 -182 101q-6 20 -6 37q0 60 74 56q4 -1 8 -1q76 -90 225 -90q78 0 119 26q136 93 131 377v12q-33 197 -383 392q-145 104 -186 153q-61 74 -58 178v5q7 34 54 34q53 0 57 -34q-4 -61 42 -115
q24 -27 59 -53l218 -150q312 -221 312 -481q0 -23 -2 -47z" />
    <glyph glyph-name="u09e8" unicode="&#x9e8;" horiz-adv-x="983" 
d="M170 1346q20 43 72 43q37 0 49 -35q-15 -33 -15 -51q0 -25 27 -39q186 -93 272 -162q185 -146 191 -316q3 -92 -53 -162q-27 -36 -70 -65q-106 -74 -266 -90l618 -502q13 -12 13 -28q0 -50 -64 -50q-29 0 -57 17l-778 624q-23 25 -23 50q0 51 61 51q13 0 25 -4
q70 -41 172 -41q119 0 210 53t91 145q0 43 -22 90q-88 130 -213 201l-174 88q-72 43 -72 123q0 27 6 60z" />
    <glyph glyph-name="u09e9" unicode="&#x9e9;" horiz-adv-x="1321" 
d="M767 1319q155 1 264 -71q55 -36 98 -91q113 -149 123 -401q6 -130 -47 -257q-27 -64 -69 -128q-142 -219 -355 -219q-174 0 -357 168q-183 167 -259 399q-70 213 -84 379q16 45 57 45q35 0 60 -37q22 -172 47 -260q33 -119 105 -245q73 -126 171 -216q127 -113 250 -113
q66 0 129 35q119 66 184 193q57 113 54 239v6q-17 458 -359 459h-8q-149 -26 -149 -194q0 -49 12 -111q0 -51 -64 -51q-36 0 -47 31q-18 57 -18 120q0 129 67 220q74 98 195 100z" />
    <glyph glyph-name="u09ea" unicode="&#x9ea;" horiz-adv-x="976" 
d="M522 686q-305 -22 -305 -250q0 -102 71 -158q72 -57 173 -57q129 0 212 80t83 186q0 88 -60 146q-62 58 -163 54q-5 -1 -11 -1zM532 1389q175 0 271 -91q90 -81 90 -208q0 -195 -182 -318q194 -92 194 -278q0 -170 -153 -293q-142 -113 -291 -113q-60 0 -123 16
q-252 68 -252 293q0 92 51 183q51 90 139 147q-170 96 -170 264q0 152 127 275t299 123zM246 1010q2 -103 65 -156q58 -49 148 -49q80 0 155 38q74 38 115 101q33 51 33 111q0 88 -62 153q-58 61 -147 57q-4 -1 -8 -1q-111 -9 -199 -72q-101 -75 -100 -182z" />
    <glyph glyph-name="u09eb" unicode="&#x9eb;" horiz-adv-x="1100" 
d="M613 1239q-135 -47 -274 -225q-154 -199 -154 -383q0 -64 21 -121q53 -150 194 -234q129 -77 291 -77q27 0 51 2q-186 172 -186 389q0 252 248 385q-105 84 -125 108q-64 72 -66 156zM687 1374q60 -6 60 -57q0 -10 -5 -21q-12 -22 -12 -47q0 -71 90 -143q78 -64 156 -82
q59 -14 59 -70q0 -22 -18 -41q-158 -12 -249 -109t-91 -226q0 -103 57 -191q62 -94 176 -147q41 -25 41 -60q0 -28 -24 -43q-105 -63 -236 -63q-196 0 -377 124q-249 170 -249 416q0 265 219 516q209 244 403 244z" />
    <glyph glyph-name="u90ec" unicode="&#x9ec;" horiz-adv-x="1220" 
d="M589 1313v-465q20 -37 61 -37q103 0 314 240q26 22 47 22q22 0 47 -22q104 -115 104 -299q0 -220 -133 -400q-139 -190 -330 -192q-131 0 -258 78q-127 77 -206 204q-158 248 -158 531q0 43 6 85t49 42q47 0 57 -45q-2 -29 -2 -60q0 -202 82 -387q58 -129 174 -225
q127 -107 256 -107q148 0 254 166q95 146 95 301q0 97 -37 175q-244 -224 -379 -224q-113 0 -170 131v488q0 33 63 33q64 0 64 -33z" />
    <glyph glyph-name="u09ed" unicode="&#x9ed;" horiz-adv-x="970" 
d="M564 1253q-151 -8 -250 -102q-109 -108 -108 -295q31 -100 235 -100q68 0 171 11q102 11 116 11q-16 492 -158 476zM837 461q0 -281 90 -275q45 0 45 -39q0 -24 -22.5 -46.5t-55.5 -22.5q-67 -1 -107 39q-21 21 -34 53q-31 72 -31 217q0 33 4 139v127l-281 -20
q-319 0 -356 196q-6 37 -6 74q0 182 142.5 319.5t328.5 151.5q95 7 157 -45q31 -26 54 -67q41 -78 70 -271q10 -67 10 -176z" />
    <glyph glyph-name="u09ee" unicode="&#x9ee;" horiz-adv-x="1335" 
d="M725 741q-47 74 -168 74t-311 -74q0 -254 2 -278q12 -172 74 -248q24 -20 59 -20q111 0 242 149q131 148 131 289q0 61 -29 108zM145 1022q0 246 -88 242q-45 6 -45 45q0 24 22 47q21 22 54 22q94 0 133 -68q39 -69 39 -223q0 -83 -10 -213q199 60 311 60q141 0 227 -78
l441 180q40 7 54 -20q7 -15 7 -39q0 -31 -20 -51l-414 -170q16 -51 16 -109q0 -207 -159 -387q-162 -186 -361 -182h-4q-88 22 -131 74q-33 41 -61 137q-27 90 -27 258z" />
    <glyph glyph-name="u09ef" unicode="&#x9ef;" horiz-adv-x="1232" 
d="M200 1341q-4 -44 41 -82q23 -19 59 -36q39 -21 254 -95q272 -94 414 -200q205 -156 205 -375q0 -68 -19 -141q-55 -146 -205 -240q-139 -88 -305 -100q-72 12 -72 45q0 14 17 39q18 53 37.5 105t19.5 95q0 54 -24 117q-56 105 -177 105q-67 0 -122 -43q-66 -60 -66 -158
q0 -70 35 -148q4 -20 -3 -34q-4 -8 -11 -13q-19 -18 -48 -18q-36 0 -47 22q-45 93 -45 191q0 112 58 192q92 127 252 127q92 0 170 -49q79 -49 113 -133t34 -162q0 -65 -25 -143q136 35 220 117q94 92 94 217q0 39 -11 80q-36 159 -210 266q-95 55 -322 135
q-244 86 -299 117q-135 75 -131 194q2 54 53 54q60 0 66 -48z" />
    <glyph glyph-name="u09f0" unicode="&#x9f0;" horiz-adv-x="970" 
d="M997 1249h-155v-1122q-13 -47 -72 -47q-33 0 -55 20l-637 580q-17 14 -17 41q0 35 21 47l633 387v94h-727v129h1009v-129zM715 590v434l-275 -172zM715 262v213l-346 334l-156 -98z" />
    <glyph glyph-name="u09f1" unicode="&#x9f1;" horiz-adv-x="985" 
d="M715 262v762l-502 -313zM-12 1378h1009v-129h-155v-1122q-13 -47 -72 -47q-33 0 -55 20l-637 580q-17 14 -17 41q0 35 21 47l633 387v94h-727v129zM133 403l277 -264l-41 -43l-287 273z" />
    <glyph glyph-name="u09f2" unicode="&#x9f2;" horiz-adv-x="1160" 
d="M761 -337q7 -7 9 -21q3 -16 -1 -33q-2 -8 -5 -17q-18 -40 -46 -29q-8 4 -17 11l-455 413l-30 172z" />
    <glyph glyph-name="u09f3" unicode="&#x9f3;" horiz-adv-x="1342" 
d="M1338 275q0 -114 -77 -189q-96 -89 -282 -89q-228 0 -332 136q-65 95 -65 215l-4 410l-173 1v69h177v323q0 62 -26 97q-40 63 -172 63q-134 0 -188 -53t-54 -162h-115l-2 52l51 140q79 104 308 104q159 0 245 -89q66 -78 66 -189v-281l174 -5v-69l-174 -1v-431
q19 -91 49 -170q65 -65 235 -65q123 0 186 54q63 55 63 147q0 55 -46 92l-89 43l34 97q62 -24 121 -77q90 -81 90 -173z" />
    <glyph glyph-name="u09f4" unicode="&#x9f4;" horiz-adv-x="694" 
d="M493 590q7 7 20 9q25 5 51 -6t29 -32q2 -9 -3 -19q-3 -6 -8 -12l-411 -456l-171 -31z" />
    <glyph glyph-name="u09f5" unicode="&#x9f5;" horiz-adv-x="1314" 
d="M75 1364l22 104q587 -434 711 -540q227 -197 212 -493q-1 -12 -2 -23q-26 -146 -113 -230q-99 -88 -228 -100q-72 15 -59 67q2 8 6 17q16 118 -4 215q-9 49 -28 92q-57 105 -152 105q-53 0 -91 -43q-53 -72 -29 -184q12 -56 43 -122q5 -20 1 -34q-2 -8 -6 -13
q-13 -18 -36 -18q-28 0 -40 22q-47 93 -59 191q-9 75 4 135q6 30 18 57q57 127 183 127q72 0 140 -49t105 -133t46 -162l17 -133q102 35 140 107q67 99 47 223q-6 36 -19 74q-47 159 -197 266q-82 55 -632 475z" />
    <glyph glyph-name="u09f6" unicode="&#x9f6;" horiz-adv-x="1314" 
d="M789 1339l68 74q68 -165 112 -569q5 -98 -47 -223q-26 -63 -66 -133q-130 -228 -338 -343q-126 -69 -228 -67h-4q-32 16 -16 48q9 17 30 37l80 97q75 91 113 202q17 70 -9 98l-13 11l-22 7h-1q-26 4 -59 -11q-17 -7 -36 -19q-130 -93 -185 -289q-13 -29 -34 -43
q-20 -14 -38 -13q-18 3 -16 20q0 2 1 5q25 93 78 187q62 106 139 177q117 108 207 99q5 0 9 -1q53 -8 72 -62q13 -36 5 -85q-4 -24 -13 -52q-46 -146 -161 -291q98 21 192 91q143 109 210 276q35 150 10 442q-12 147 -40 330z" />
    <glyph glyph-name="u09f7" unicode="&#x9f7;" horiz-adv-x="719" 
d="M441 1166v-1246l-98 115v1243z" />
    <glyph glyph-name="u09f8" unicode="&#x9f8;" horiz-adv-x="649" 
d="M29 168v808q66 73 134 46q34 -13 70 -53l245 -332q29 -41 42 -26q7 8 9 33l-2 469q52 35 78 19q14 -8 21 -30l4 -676q-17 -137 -67 -96q-16 13 -36 44l-349 460q-13 26 -31 11l-13 -15l-6 -10l2 -655q-34 -79 -67 -52q-17 14 -34 55z" />
    <glyph glyph-name="u09f9" unicode="&#x9f9;" horiz-adv-x="563" 
d="M268 836q-129 -4 -152 -112l-7 -44l16 -70q21 -63 122 -68l35 -2q123 2 142 64q4 14 4 62v16q0 68 -61 118q-42 35 -99 36zM268 942q177 -3 243 -139q32 -61 33 -137q3 -65 -25 -122q-14 -29 -37 -55q-74 -88 -205 -88q-123 -1 -191 63q-35 33 -56 83q-20 47 -24 107
q-4 72 29 136q17 32 43 63q79 91 190 89z" />
    <glyph glyph-name="u09fa" unicode="&#x9fa;" horiz-adv-x="786" 
d="M335 1061q0 -45 -39 -74t-98 -29q-54 0 -90 29q-37 29 -37 74q0 47 37 77q38 29 92 29q59 0 97 -29q38 -30 38 -77zM574 1673q93 -53 93 -264q0 -166 -56 -334q-55 -176 -137 -246q-123 -86 -252 -86q-88 0 -182 39q-16 28 -16 49q0 39 59 60q127 -31 170 -31
q92 0 151 87q58 87 97 233q39 147 39 266q0 121 -43 153q-4 34 2 52q3 9 8 13q14 12 57 10q5 -1 10 -1z" />
    <glyph glyph-name="zwnj" unicode="&#x200c;" horiz-adv-x="0" 
d="M-25 1400l52 -1l-2 -1375h-51z" />
    <glyph glyph-name="zwj" unicode="&#x200d;" horiz-adv-x="0" 
d="M-39 20v1220l-170 -150l-60 20l200 180l-230 120l40 70l260 -160l190 160l60 -50l-210 -150l220 -140l-20 -40l-200 130v-1200z" />
    <glyph glyph-name="quotedblleft" unicode="&#x201c;" horiz-adv-x="1062" 
d="M276 1276q-129 31 -129 147q0 45 23 99q51 123 182 215q45 3 60 -20q8 -11 8 -29q0 -15 -4 -29q-37 -19 -99 -92q-71 -86 -71 -140q0 -41 45 -55q22 -3 58 0q19 1 42 4q37 -16 37 -53q0 -29 -27 -43q-60 -11 -101 -7zM705 1276q-130 31 -130 147q0 45 23 99
q51 123 182 215q45 3 60 -20q8 -11 8 -29q0 -15 -4 -29q-37 -19 -99 -92q-71 -86 -71 -140q0 -41 45 -55q22 -3 58 0q19 1 42 4q37 -16 37 -53q0 -29 -27 -43q-60 -11 -100 -7z" />
    <glyph glyph-name="quotedblright" unicode="&#x201d;" horiz-adv-x="1058" 
d="M894 1399q-53 -127 -184 -215q-45 -5 -60 19q-8 12 -8 32q0 12 4 27q37 16 101 92q71 86 71 139q0 41 -45 55q-22 3 -60 0q-19 -1 -42 -4q-37 15 -37 51q0 31 29 45q59 12 100 8q12 -1 22 -3q132 -31 132 -146q0 -47 -23 -100zM466 1399q-53 -127 -184 -215
q-45 -5 -60 19q-8 12 -8 32q0 12 4 27q37 16 100 92q72 86 72 139q0 41 -45 55q-22 3 -60 0q-19 -1 -42 -4q-37 15 -37 51q0 31 29 45q59 12 100 8q12 -1 22 -3q131 -31 131 -146q0 -47 -22 -100z" />
    <glyph glyph-name="euro" unicode="&#x20ac;" horiz-adv-x="1064" 
d="M553 839l456 1v-51l-484 2l-15 -26l-10 -90q13 -38 33 -83l-19 48l497 -1v-52l-477 2q27 -59 66 -129q70 -125 360 -335l-10 -100q-27 -7 -113 51q-43 29 -102 74q-175 135 -245 255q-49 84 -93 182l-386 2l1 54l362 -2l-14 34q0 53 35 132l-9 -17h-378l4 47l398 2
q20 42 50 91q203 335 520 355l30 -110q-120 -10 -240 -85q-101 -63 -217 -251z" />
    <glyph glyph-name="uni25CC" unicode="&#x25cc;" horiz-adv-x="1590" 
d="M303 642q122 267 344 390l76 -111q-187 -128 -299 -310zM1019 1066q268 -122 390 -344l-110 -76q-129 187 -311 299zM729 -44q-267 123 -389 345l110 75q128 -186 309 -298zM1421 375q-124 -266 -345 -391l-75 111q186 128 298 310z" />
    <glyph glyph-name="cbindusmall" horiz-adv-x="0" 
d="M-251 1534q-48 0 -69 36q-22 37 10 68q3 2 5 4q23 18 54 18q56 0 75 -36q7 -12 6 -28q2 -39 -41 -55q-18 -7 -40 -7zM-240 1422q-124 0 -181 71q-32 42 -32 100q16 24 30 24t39 -18q10 -55 58 -86q32 -21 67 -19q74 4 105 43q16 21 36 72q20 12 35 12q26 0 41 -28
q-19 -132 -170 -170q-15 -1 -28 -1z" />
    <glyph glyph-name="janya" horiz-adv-x="1726" 
d="M1530 354q0 71 -67 99q-28 12 -64 12q-47 16 -47 57q0 43 45 58q72 10 112 61q25 31 25 68q0 84 -121 90q-103 -21 -154 -76l-27 -33l-36 -61q-6 -11 -16 -29q34 -67 28 -149q-1 -11 -3 -23q65 -80 106 -111q55 -44 120 -53q88 -12 98 70q1 9 1 20zM877 803
q-115 266 -172 379q-67 -38 -118 -138q-48 -95 -48 -186q0 -117 80 -172zM414 874q0 161 110 300q34 43 74 75h-624v129h1785v-129h-958l191 -420q71 -34 127 -102q69 107 170 161q68 36 135 36q93 0 164 -68q67 -64 67 -149q0 -103 -92 -177q90 -71 90 -182
q0 -127 -113 -192q-36 -15 -77 -15q-123 0 -247 104q-36 30 -63 62q-82 -129 -151 -180q-75 -56 -176 -67q-28 -3 -58 -3q-293 0 -510 351q-180 294 -211 628q19 45 56 45q28 0 65 -26q47 -330 209 -598q178 -293 381 -293q119 0 232 110q83 101 83 220q0 137 -114 221
q-41 -13 -166 -88q-105 -62 -170 -62q-35 0 -68 15q-141 120 -141 294z" />
    <glyph glyph-name="kassa" horiz-adv-x="1672" 
d="M829 1249q-28 -30 -28 -61q0 -84 198 -176v237h-170zM999 272v609q-321 143 -321 303q0 30 12 65h-344q37 -59 37 -127q0 -30 -8 -69q137 -17 238 -110q110 -102 110 -241q0 -75 -37 -151zM588 700q0 94 -73 166q-68 68 -156 68q-23 0 -43 -6q-64 -101 -189 -174
q-52 -4 -69 24q-9 13 -9 35q0 14 9 27q74 37 137 116q67 84 67 160q0 101 -124 133h-162v129h1726v-129h-586v-284q179 -60 295 -154q127 -102 127 -203q0 -133 -221 -229q-30 -8 -51 26q-12 19 -12 39q0 15 4 27q149 66 149 143q0 121 -291 222v-697q0 -30 -46 -47
q-22 -8 -42 -8q-26 0 -39 12l-387 357q-77 -74 -192 -136q-40 7 -61 42q-9 16 -9 32q0 19 13 31q235 132 235 278z" />
    <glyph glyph-name="hama" horiz-adv-x="1605" 
d="M954 348v535q-53 -10 -163 -7q-56 2 -127 7q36 -82 36 -160q0 -53 -16 -98zM549 1026q156 -39 278 -39q68 0 127 12v250h-635q57 -91 51 -154q0 -5 -1 -10q108 -10 180 -59zM1563 121q0 -37 -46 -51q-21 -6 -44 -4q-95 84 -117 301q-6 180 -12 367q-5 186 -62 212
q-10 4 -27 4q-6 0 -174 -39v-712l-127 -27l-323 342q-90 -92 -221 -143q-54 16 -54 65q0 17 9 35q217 68 217 256q0 100 -71 173q-68 70 -171 66q-4 -1 -8 -1q-45 -101 -197 -203q-34 0 -59 35q-15 20 -15 41q0 12 7 20q65 27 123 105q61 81 61 155q0 131 -191 131h-73v129
h1630v-129h-537v-221q117 35 185 35q55 0 86 -21q112 -88 112 -356l-4 -194q0 -254 96 -347q7 -12 7 -24z" />
    <glyph glyph-name="tata" horiz-adv-x="1445" 
d="M850 1180q138 0 239 -93l30 -32q75 -89 75 -201q0 -109 -72 -197q133 -116 133 -270q0 -150 -122 -241q-111 -83 -275 -83q-160 0 -356 150q-81 63 -142 131q-225 254 -321 729q-4 45 19 60q11 8 30 8q39 0 64 -43l86 -303q53 -160 145 -285q240 -324 498 -324
q47 0 94 11q158 36 158 192q0 115 -95 176q-67 29 -67 70q0 35 45 84q59 51 59 129q0 92 -71 157q-64 58 -152 58q-31 0 -61 -8q-123 -64 -123 -185q0 -55 26 -129q3 -43 -23 -58q-13 -7 -34 -7q-31 0 -49 24q-41 74 -41 158q0 132 86 226q88 96 217 96zM-24 1378h1465v-129
h-1465v129z" />
    <glyph glyph-name="halfka" horiz-adv-x="1449" 
d="M856 0l338 -247l-66 -88l-344 258zM731 1010l-502 -310l502 -452v762zM1288 782q0 -143 -70 -232q-62 -81 -159 -77q-45 -4 -60 21q-8 13 -8 34q0 45 41 60q71 -9 115 70q31 57 31 128q0 88 -52 150q-95 116 -259 111h-9v-934q0 -41 -43 -41q-47 0 -84 32l-641 568
q-27 16 -27 41q0 30 35 51l633 383v102h-745v129h1470v-129h-598v-78q430 -48 430 -389z" />
    <glyph glyph-name="halfkha" horiz-adv-x="1251" 
d="M1085 1l338 -247l-66 -88l-344 258zM1256 1378v-129h-159v-1118q0 -29 -43 -44q-19 -7 -37 -7q-29 0 -47 14l-697 514q-18 27 -18 56q0 51 41 51q127 14 221 99q98 90 98 208q0 76 -43 149q-88 -202 -278 -202q-111 0 -244 71q-25 21 -25 52q0 59 54 59q10 0 20 -4
q105 -60 189 -60q172 0 194 209q-1 41 21 55q11 7 28 7q19 0 39 -12q168 -109 162 -331v-9q-10 -267 -295 -375l533 -383v1016q0 114 110 114h176z" />
    <glyph glyph-name="halfga" horiz-adv-x="1227" 
d="M1068 0l338 -247l-66 -88l-344 258zM474 647q0 101 -72 169q-63 61 -149 61q-68 0 -133 -39q-29 -17 -53 -17q-46 0 -46 47q0 13 5 27q55 209 195 308q83 59 210 93q62 11 117 11q227 0 401 -191v262h287v-129h-160v-1140q0 -46 -63 -46q-64 0 -64 46v673q0 133 -71 224
q-146 182 -355 182q-215 0 -334 -197q122 13 213 -32q46 -23 84 -60q107 -100 107 -252q0 -209 -193 -315q-12 -4 -24 -4q-42 0 -61 30q-7 12 -7 25q0 25 23 45q143 82 143 219z" />
    <glyph glyph-name="u0998_u09cd.haln" horiz-adv-x="1107" 
d="M943 4l338 -247l-66 -88l-344 258zM168 1122q0 -71 63 -114q44 -31 101 -31l88 14q59 0 59 -59q0 -23 -16 -41l-209 -246l569 -397v1001h-567q-88 -49 -88 -127zM-26 1378h1136v-129h-160v-1122q0 -47 -75 -47q-31 0 -52 14l-696 494q-29 12 -29 41q0 20 19 43l160 188
q-109 16 -173 99q-51 66 -51 153q0 68 35 137h-114v129z" />
    <glyph glyph-name="u0999_u09cd.haln" horiz-adv-x="1288" 
d="M884 1l338 -247l-66 -88l-344 258zM892 1222q-85 62 -176 -13q-69 -57 -101 -153q-4 -12 -7 -24q88 -18 133 -18q129 0 184 125q10 51 -33 83zM780 193q121 0 221 84q99 83 111 194q2 13 2 27q0 137 -136 243l-368 -198q-154 119 -154 264q0 94 15 145q-3 6 -7 6
q-256 117 -348 338q-11 42 23 59q15 7 33 7q22 0 40 -12q119 -203 281 -281q28 99 116 192q97 103 195 113q87 10 157 -49q35 -29 65 -76q16 -41 16 -86q0 -117 -95 -196q-89 -74 -212 -74q-84 0 -152 29q-12 0 -12 -97q0 -73 49 -131l295 144q25 22 68 22q18 0 36 -4
q211 -154 211 -356q0 -168 -135 -295t-311 -127q-203 0 -388 162q-141 124 -212 284q-66 151 -102 316q-11 49 -42 207q7 53 54 53q35 0 57 -37q59 -318 143 -494q76 -154 202 -260q139 -116 284 -116z" />
    <glyph glyph-name="u099a_u09cd.haln" horiz-adv-x="980" 
d="M583 -3l338 -247l-66 -88l-344 258zM256 973v-676q0 -102 72 -102q30 0 75 24q97 55 189 195q98 153 98 274q0 33 -8 62q-29 47 -203 99t-223 124zM-26 1378h1007v-129h-725v-82q57 -112 193 -178l221 -88q96 -44 122 -116q15 -39 15 -95q0 -184 -139 -378
q-140 -193 -303 -240q-13 -4 -29 -4q-88 0 -151 66q-56 59 -56 138v977h-155v129z" />
    <glyph glyph-name="u099b_u09cd.haln" horiz-adv-x="1250" 
d="M940 -3l338 -247l-66 -88l-344 258zM306 1074v-405q0 -52 49 -52q84 0 216 109q161 134 110 209q-32 48 -148 65q-176 27 -227 74zM1072 802q0 -165 -118 -322q-66 -86 -144 -137q-58 -35 -152 -64q240 -13 495 -138q92 -46 165 -97q12 -27 12 -47q0 -52 -70 -49h-8
q-213 148 -497 204q-169 33 -416 46q-31 26 -31 67q0 33 27 47q161 19 217 33q108 29 192 98q85 57 150 159q69 108 69 204q0 139 -159 182q4 -25 4 -49q0 -170 -166 -301q-152 -121 -307 -121q-156 0 -156 139v580l-18 13h-187v129h1274v-124h-942q0 -78 163 -119
q103 -26 210 -26q49 0 78 6q185 -12 266 -134q49 -74 49 -179z" />
    <glyph glyph-name="u099c_u09cd.haln" horiz-adv-x="1740" 
d="M1162 -3l338 -247l-66 -88l-344 258zM-7 1378q1285 3 1743 0v-129h-614l467 -286q33 -11 33 -48q0 -16 -9 -30q-116 -271 -116 -441q0 -184 116 -405q0 -74 -63 -74q-16 0 -35 8q-135 263 -135 469q0 181 111 443l-592 370q-96 -47 -170 -144q-80 -105 -80 -204
q0 -98 84 -147q8 2 192 76q115 46 197 45q164 -119 164 -310q0 -221 -207 -335q-131 -72 -262 -72q-307 0 -555 366q-69 76 -134 295q-39 129 -51 230q0 63 50 63q30 0 61 -35q25 -297 195 -526q206 -278 444 -278q137 0 256 106q84 76 84 188q0 115 -88 199
q-41 -12 -184 -74q-113 -49 -185 -53q-178 76 -178 258q0 178 148 346h-687v129z" />
    <glyph glyph-name="u099d_u09cd.haln" horiz-adv-x="1444" 
d="M824 -4l338 -247l-66 -88l-344 258zM711 1006l-492 -306l492 -448v754zM1141 1249q0 129 127 129h176v-129h-176v-917q0 -41 -66 -41q-41 0 -61 20l-303 246v-440q0 -54 -74 -54q-31 0 -53 17l-639 588q-13 10 -13 39q0 41 29 57l623 383v102h-723v129h723
q127 0 127 -129v-530l303 -232v762z" />
    <glyph glyph-name="u099e_u09cd.haln" horiz-adv-x="1893" 
d="M1208 0l338 -247l-66 -88l-344 258zM517 872q0 195 132 335q100 106 243 143q45 16 86 16q86 0 166 -70q73 -63 73 -190v-983q0 -26 -52 -42q-22 -7 -42 -7q-25 0 -33 12q-129 170 -323 170q-28 0 -243 -27q-93 -12 -124 -12q-55 0 -102 10q-164 60 -222 185
q-42 89 -42 227q0 55 6 125q28 24 57 24q33 0 61 -32q-6 -107 -6 -129q0 -174 115 -254q53 -37 131 -37q47 0 163 20.5t185 20.5q187 0 344 -125v846q0 147 -100 147q-53 0 -143 -47q-203 -104 -203 -301q0 -88 39 -207q-6 -53 -66 -53q-33 0 -53 20q-47 105 -47 215z
M1738 700q129 -84 129 -223q0 -155 -170 -201q-26 -4 -53 -4q-258 0 -426 383v113q59 156 115 225q110 135 256 144q111 -9 187 -85q67 -68 67 -157q0 -109 -105 -195zM1730 494q0 59 -66 105q-53 36 -112 36q-49 27 -49 61q0 35 41 60q78 9 127 65q34 40 34 88
q0 102 -133 101q-78 0 -153 -113q-19 -27 -103 -184q52 -132 141 -225q90 -93 179 -93q16 0 33 4q61 39 61 95z" />
    <glyph glyph-name="u099f_u09cd.haln" horiz-adv-x="1006" 
d="M585 -5l338 -247l-66 -88l-344 258zM382 72q-78 0 -146 76q-71 85 -73 180v919q-72 3 -147 2h-28v129h781q6 21 6 39q0 131 -307 131l-176 -6q-289 31 -364 74q-127 67 -140 289q4 39 53 39q39 0 60 -27q2 -156 113 -211q83 -41 270 -41h121q223 -2 323 -39
q168 -63 168 -248h107v-129h-713v-889q0 -68 55 -104q32 -20 72 -20q78 0 154 79q159 172 159 330q0 82 -35 122l-25 24l-69 53q-8 12 -8 26q0 39 38 58q17 8 36 8q180 -125 180 -279q0 -186 -145 -381q-152 -204 -320 -204z" />
    <glyph glyph-name="u09a0_u09cd.haln" horiz-adv-x="1060" 
d="M626 -6l338 -247l-66 -88l-344 258zM569 1128q2 -34 2 -69q0 -377 -394 -555q-1 -91 30 -160q16 -35 40 -64q72 -87 176 -87q109 0 207 94q149 143 149 336q0 237 -210 505zM152 1946q0 170 217 208q56 -16 56 -73q0 -31 -23 -41q-131 0 -131 -96q0 -68 72 -220
q129 -235 198 -346h525v-129h-422q264 -319 264 -641q0 -200 -127 -360q-135 -168 -332 -168q-73 0 -147 26q-82 29 -156 151q-74 121 -74 226q0 76 43 115q209 85 293 208q74 108 74 267q0 80 -18 176h-467v129h405q-20 45 -117 207q-133 229 -133 361z" />
    <glyph glyph-name="u09a1_u09cd.haln" horiz-adv-x="1506" 
d="M1501 1378v-129h-782v-526q14 -41 49 -41q55 0 145 88q80 80 156 193q12 20 41 20q43 0 78 -35q160 -151 160 -342q0 -98 -41 -217q-154 -313 -418 -317q-205 -2 -396 151q-97 78 -163 176q-158 234 -271 629q-3 33 29 49q15 8 33 8q31 0 51 -22q109 -340 195 -488
q67 -148 194 -256q150 -126 311 -126q168 0 281 151q76 102 76 240q0 153 -92 260q-138 -156 -178 -191q-113 -96 -228 -96q-139 21 -139 225v467h-606v129h1515zM930 -8l338 -247l-66 -88l-344 258z" />
    <glyph glyph-name="u09a2_u09cd.haln" horiz-adv-x="1034" 
d="M526 -3l338 -247l-66 -88l-344 258zM412 72q-78 0 -146 76q-71 85 -73 180v919l-205 2v129h1045v-129h-713v-889q0 -68 55 -104q32 -20 72 -20q78 0 154 79q159 172 159 330q0 82 -35 122l-25 24l-69 53q-8 12 -8 26q0 39 38 58q17 8 36 8q180 -125 180 -279
q0 -186 -145 -381q-152 -204 -320 -204z" />
    <glyph glyph-name="u09a3_u09cd.haln" horiz-adv-x="1070" 
d="M859 0l338 -247l-66 -88l-344 258zM81 944q0 186 131 290q113 89 291 89q145 0 287 -119q0 174 127 174h155v-129h-155v-1108q0 -51 -58 -51q-69 0 -69 49v709q0 45 -25 162q-17 85 -110 144q-87 56 -189 56q-123 0 -203 -88l-25 -32q-44 -66 -44 -146q0 -106 70 -181
q61 -65 145 -69q26 -8 26 -41q0 -41 -27 -63q-12 -10 -26 -10q-221 43 -281 235q-20 64 -20 129z" />
    <glyph glyph-name="u09a4_u09cd.haln" horiz-adv-x="1490" 
d="M993 -2l338 -247l-66 -88l-344 258zM637 854q0 115 93 194q86 72 200 72q189 2 299 -142q102 -132 102 -337q0 -212 -104 -370q-84 -128 -212 -172q-60 -21 -126 -21q-43 0 -86 8q-176 32 -287 120q-68 54 -164 171q-241 299 -291 694q-8 32 29 47q15 6 31 6q39 0 51 -30
q61 -250 98 -344q65 -168 187 -319q90 -110 174 -159q55 -30 198 -71q25 -2 48 -2q194 0 281 187q48 103 54 249q9 182 -82 281q-88 93 -218 86q-6 0 -13 -1q-141 -26 -141 -149q0 -57 33 -102q0 -62 -64 -62q-22 0 -43 12q-47 78 -47 154zM-12 1378h1499v-129h-1499v129z
" />
    <glyph glyph-name="u09a5_u09cd.haln" horiz-adv-x="1192" 
d="M1024 0l338 -247l-66 -88l-344 258zM364 1337q165 0 255 -103q70 -81 70 -202q0 -108 -59 -225q-51 -100 -203 -209l481 -358v1009q0 77 60 112q29 17 67 17h156v-129h-156v-1126q0 -41 -79 -41q-31 0 -48 12l-628 467q-13 29 -13 51q0 35 27 45q96 38 178 136
q101 120 101 239q0 131 -136 180q-41 7 -73 7q-183 0 -193 -218q-8 -43 -65 -43q-39 0 -50 29q-12 233 129 311q70 39 179 39z" />
    <glyph glyph-name="u09a6_u09cd.haln" horiz-adv-x="901" 
d="M715 1l338 -247l-66 -88l-344 258zM901 1378v-129h-706v-481q47 57 164 143q197 143 299 142q10 -1 18 -2q66 -7 64 -72q-99 -274 -99 -451q0 -190 103 -387q10 -51 -56 -59q-21 -2 -47 0q-118 209 -118 432q0 170 69 393q-231 -90 -411 -305q-25 -14 -56 -14
q-57 0 -57 47v614h-94v129h927z" />
    <glyph glyph-name="u09a7_u09cd.haln" horiz-adv-x="994" 
d="M799 4l338 -247l-66 -88l-344 258zM696 248v766l-502 -309zM42 1143q0 146 144 203q73 28 172 28q37 -10 37 -51q0 -53 -35 -70q-199 0 -199 -102q0 -23 10 -49q70 -119 209 -119q23 0 45 4l271 168v94q0 129 127 129h155v-129h-155v-1140q0 -33 -78 -33q-31 0 -49 10
l-635 586q-13 14 -13 39q0 37 27 67l184 107q-161 71 -213 209q-4 24 -4 49z" />
    <glyph glyph-name="u09a8_u09cd.haln" horiz-adv-x="1064" 
d="M906 -3l338 -247l-66 -88l-344 258zM82 567q0 169 121 269q109 92 280 92q181 0 312 -129v450h-807v129h1089v-129h-155v-1145q0 -36 -64 -36q-63 0 -63 36v435q-44 194 -184 247q-60 23 -140 23q-139 0 -214 -87q-54 -64 -54 -157q0 -114 57 -171q28 -28 90 -62
q15 -15 15 -33q0 -35 -30 -55q-18 -12 -38 -8q-127 49 -178 163q-37 82 -37 168z" />
    <glyph glyph-name="u09aa_u09cd.haln" horiz-adv-x="1319" 
d="M1150 4l338 -247l-66 -88l-344 258zM820 1110q-137 131 -276 131t-273 -131l250 -295zM112 899q-44 0 -67 41q-7 13 -9 27q145 317 434 387q45 10 90 10q271 0 490 -336v219q0 66 52 105q33 26 75 26h155v-129h-155v-1136q0 -41 -62 -41q-65 0 -65 39v561q0 94 -49 192
q-23 47 -99 160l-469 -459q-49 -11 -75 23q-13 16 -13 39q0 12 4 22l82 84l-229 277l-62 -103q-14 -8 -28 -8z" />
    <glyph glyph-name="u09ab_u09cd.haln" horiz-adv-x="1405" 
d="M863 -3l338 -247l-66 -88l-344 258zM1178 797q0 151 -125 218q-76 40 -186 40v-928q3 -34 -23 -45q-13 -6 -33 -6q-43 0 -71 24l-623 508q-12 25 -12 45q0 29 24 58l211 196l-307 342h-51v129h1440v-129h-1225l268 -301q17 -44 6 -70q-6 -14 -18 -22l-211 -199l498 -409
v805q0 114 65 114q344 0 449 -196q45 -86 45 -178q0 -123 -71 -219q-65 -89 -153 -97q-53 6 -53 70q0 39 33 51q56 -7 94 72q29 59 29 127z" />
    <glyph glyph-name="u09ac_u09cd.haln" horiz-adv-x="980" 
d="M812 1l338 -247l-66 -88l-344 258zM715 262v762l-502 -313zM-12 1378h1009v-129h-155v-1122q-13 -47 -72 -47q-33 0 -55 20l-637 580q-17 14 -17 41q0 35 21 47l633 387v94h-727v129z" />
    <glyph glyph-name="u09ad_u09cd.haln" horiz-adv-x="1598" 
d="M1205 10l338 -247l-66 -88l-344 258zM922 590q-133 0 -211 99q-62 79 -62 192q0 53 17 106q20 23 47 23q39 0 71 -47q-10 -45 -10 -84q0 -174 146 -174q22 0 45 6q86 20 147 88q27 30 88 127q14 32 64 32q22 0 39 -14q186 -172 186 -364q0 -113 -66 -226
q-176 -305 -477 -305q-346 0 -618 402q-130 189 -185 347q-48 135 -82 353q11 43 56 43q24 0 51 -12q39 -278 183 -541q98 -178 216 -289q176 -166 369 -166q215 0 350 172q80 103 80 222q0 120 -92 223q-150 -176 -279 -205q-37 -8 -73 -8zM-12 1378h1648v-129h-1648v129z
" />
    <glyph glyph-name="u09ae_u09cd.haln" horiz-adv-x="1165" 
d="M990 -6l338 -247l-66 -88l-344 258zM883 1249h-586l-80 -129q146 -18 222 -116q34 -45 47 -103q5 -22 6 -45q78 4 148 -18q36 -11 69 -29q78 -43 174 -145v585zM250 494q0 -124 82 -192q61 -50 147 -50q27 -12 27 -49q0 -66 -45 -66q-248 23 -318 262q-8 54 -8 99
q0 211 236 336q5 112 -104 152q-47 17 -109 17q-19 0 -39 -2q-62 11 -62 68q0 12 2 25l97 155h-172v129h1181v-129h-155v-1132q0 -37 -60 -37q-67 0 -67 39v90q0 213 -51 314q-32 64 -91 112q-104 100 -237 100q-168 0 -242 -155q-12 -43 -12 -86z" />
    <glyph glyph-name="u09af_u09cd.haln" horiz-adv-x="1029" 
d="M859 -3l338 -247l-66 -88l-344 258zM-2 1378h1028v-129h-156v-1126q0 -53 -72 -53q-32 0 -55 16l-667 483q-23 17 -23 43q0 23 16 45l277 242l-295 350h-53v129zM209 1249l266 -323q16 -36 7 -60q-4 -12 -15 -22l-269 -226l545 -382v1013h-534z" />
    <glyph glyph-name="u09b0_u09cd.haln" horiz-adv-x="989" 
d="M824 -3l338 -247l-66 -88l-344 258zM715 262v762l-502 -313zM-12 1378h1009v-129h-155v-1122q-13 -47 -72 -47q-33 0 -55 20l-637 580q-17 14 -17 41q0 35 21 47l633 387v94h-727v129zM300 250h160v-150h-160v150z" />
    <glyph glyph-name="u09b0_u09cd.haln" horiz-adv-x="1429" 
d="M1251 1l338 -247l-66 -88l-344 258zM180 727q0 -113 88 -180q69 -53 164 -53q19 0 37 2q39 -15 39 -50q0 -43 -39 -65q-20 -2 -43 -2q-156 0 -262 103q-105 104 -105 245q0 96 56 186q104 168 295 168q165 0 268 -137q104 123 211 123q117 0 252 -141v323h-1153v129h1435
v-129h-155v-1122q0 -64 -66 -64q-61 0 -61 60v596q-121 229 -244 229q-96 0 -162 -149q-16 -17 -55 -17t-57 21q-56 158 -213 158q-109 0 -176 -78q-54 -64 -54 -156z" />
    <glyph glyph-name="u09b6_u09cd.haln" horiz-adv-x="1293" 
d="M1140 -7l338 -247l-66 -88l-344 258zM715 1253q-100 0 -166 -64l-22 -24q-36 -50 -33 -114q7 -139 120 -192q66 -31 193 -44q14 -8 14 -35q0 -55 -28 -80q-160 15 -232 52q-82 43 -147 159q-70 -135 -164 -180q-64 -29 -217 -37q-25 19 -25 56q0 34 21 59q146 8 235 90
q53 49 68 113q19 78 -52 154q-54 58 -118 73q-45 10 -164 10q-31 0 -31 68q0 61 31 61q164 0 219 -18q111 -35 195 -178q65 100 131 141q59 39 172 55q96 4 198 -41q87 -39 109 -90q0 52 46 96q38 35 81 35h156v-129h-156v-1126q0 -41 -57 -41q-70 0 -70 41v928
q0 80 -96 141t-211 61z" />
    <glyph glyph-name="u09b7_u09cd.haln" horiz-adv-x="1009" 
d="M848 -2l338 -247l-66 -88l-344 258zM1011 1249h-156v-1126q0 -53 -72 -53q-32 0 -55 16l-667 483q-23 17 -23 43q0 23 16 45l277 242l-295 350h-53v129h1028v-129zM728 803v446h-534l264 -321zM728 236v438l-313 139l-232 -195z" />
    <glyph glyph-name="u09b8_u09cd.haln" horiz-adv-x="1344" 
d="M1193 -3l338 -247l-66 -88l-344 258zM1073 1249h-627l-84 -139q148 -28 234 -108q47 -43 102 -123q62 41 119 41q103 0 256 -175v504zM1356 1378v-129h-156v-1149q0 -41 -57 -41q-70 0 -70 41v140q0 229 -92 405q-82 160 -168 160q-45 0 -68 -55q-63 -215 -172 -355
q-116 -149 -241 -149q-144 0 -264 205q-5 14 -5 26q0 51 60 51q22 0 45 -12q82 -147 168 -147q129 0 285 387q-65 126 -124 174q-81 67 -241 71q-39 -4 -52 21q-7 13 -7 33t12 39l84 155h-305v129h1368z" />
    <glyph glyph-name="u09b9_u09cd.haln" horiz-adv-x="919" 
d="M749 -40l338 -247l-66 -88l-344 258zM723 856q0 130 -89 197l-31 19l-39 15q-37 11 -81 11q-237 0 -250 -246q-18 -29 -57 -29q-43 0 -57 43q0 122 79 222q50 62 113 88l-90 73h-233v129h944v-129h-555q-4 0 6 -4q5 -2 14 -6q37 -14 47 -27q21 5 45 5q168 0 265 -113
l27 -36q59 -91 59 -216q0 -35 -4 -70q-76 -295 -529 -350l719 -444q4 -13 4 -25q0 -56 -59 -53h-6l-906 555q-18 24 -18 51q0 57 51 57q10 0 23 -4q84 -12 159 -12q342 0 443 236q6 30 6 63z" />
    <glyph glyph-name="u09dc_u09cd.haln" horiz-adv-x="1509" 
d="M1199 -3l338 -247l-66 -88l-344 258zM864 -20h160v-150h-160v150zM1503 1378v-129h-782v-526q14 -41 49 -41q55 0 145 88q80 80 156 193q12 20 41 20q43 0 78 -35q160 -151 160 -342q0 -98 -41 -217q-154 -313 -418 -317q-205 -2 -396 151q-97 78 -163 176
q-158 234 -271 629q-3 33 29 49q15 8 33 8q31 0 51 -22q109 -340 195 -488q67 -148 194 -256q150 -126 311 -126q168 0 281 151q76 102 76 240q0 153 -92 260q-138 -156 -178 -191q-113 -96 -228 -96q-139 21 -139 225v467h-606v129h1515z" />
    <glyph glyph-name="u09dd_u09cd.haln" horiz-adv-x="1029" 
d="M697 -4l338 -247l-66 -88l-344 258zM339 -10h160v-150h-160v150zM412 72q-78 0 -146 76q-71 85 -73 180v919l-205 2v129h1045v-129h-713v-889q0 -68 55 -104q32 -20 72 -20q78 0 154 79q159 172 159 330q0 82 -35 122l-25 24l-69 53q-8 12 -8 26q0 39 38 58q17 8 36 8
q180 -125 180 -279q0 -186 -145 -381q-152 -204 -320 -204z" />
    <glyph glyph-name="glyph219" horiz-adv-x="1019" 
d="M843 0l338 -247l-66 -88l-344 258zM-12 1378h1028v-129h-156v-1126q0 -53 -72 -53q-32 0 -55 16l-667 483q-23 17 -23 43q0 23 16 45l277 242l-295 350h-53v129zM199 1249l266 -323q16 -36 7 -60q-4 -12 -15 -22l-269 -226l545 -382v1013h-534zM304 240h128v-120h-128
v120z" />
    <glyph glyph-name="janya_u09cd.half" horiz-adv-x="1779" 
d="M998 -1l338 -247l-66 -88l-344 258zM1544 354q0 71 -67 99q-28 12 -64 12q-47 16 -47 57q0 43 45 58q72 10 112 61q25 31 25 68q0 84 -121 90q-103 -21 -154 -76l-27 -33l-36 -61q-6 -11 -16 -29q34 -67 28 -149q-1 -11 -3 -23q65 -80 106 -111q55 -44 120 -53
q88 -12 98 70q1 9 1 20zM891 803q-115 266 -172 379q-67 -38 -118 -138q-48 -95 -48 -186q0 -117 80 -172zM428 874q0 161 110 300q34 43 74 75h-624v129h1785v-129h-958l191 -420q71 -34 127 -102q69 107 170 161q68 36 135 36q93 0 164 -68q67 -64 67 -149
q0 -103 -92 -177q90 -71 90 -182q0 -127 -113 -192q-36 -15 -77 -15q-123 0 -247 104q-36 30 -63 62q-82 -129 -151 -180q-75 -56 -176 -67q-28 -3 -58 -3q-293 0 -510 351q-180 294 -211 628q19 45 56 45q28 0 65 -26q47 -330 209 -598q178 -293 381 -293q119 0 232 110
q83 101 83 220q0 137 -114 221q-41 -13 -166 -88q-105 -62 -170 -62q-35 0 -68 15q-141 120 -141 294z" />
    <glyph glyph-name="kassa_u09cd.half" horiz-adv-x="1708" 
d="M1106 0l338 -247l-66 -88l-344 258zM841 1249q-28 -30 -28 -61q0 -84 198 -176v237h-170zM1011 272v609q-321 143 -321 303q0 30 12 65h-344q37 -59 37 -127q0 -30 -8 -69q137 -17 238 -110q110 -102 110 -241q0 -75 -37 -151zM600 700q0 94 -73 166q-68 68 -156 68
q-23 0 -43 -6q-64 -101 -189 -174q-52 -4 -69 24q-9 13 -9 35q0 14 9 27q74 37 137 116q67 84 67 160q0 101 -124 133h-162v129h1726v-129h-586v-284q179 -60 295 -154q127 -102 127 -203q0 -133 -221 -229q-30 -8 -51 26q-12 19 -12 39q0 15 4 27q149 66 149 143
q0 121 -291 222v-697q0 -30 -46 -47q-22 -8 -42 -8q-26 0 -39 12l-387 357q-77 -74 -192 -136q-40 7 -61 42q-9 16 -9 32q0 19 13 31q235 132 235 278z" />
    <glyph glyph-name="hama_u09cd.half" horiz-adv-x="1614" 
d="M1076 -2l338 -247l-66 -88l-344 258zM954 348v535q-53 -10 -163 -7q-56 2 -127 7q36 -82 36 -160q0 -53 -16 -98zM549 1026q156 -39 278 -39q68 0 127 12v250h-635q57 -91 51 -154q0 -5 -1 -10q108 -10 180 -59zM1563 121q0 -37 -46 -51q-21 -6 -44 -4q-95 84 -117 301
q-6 180 -12 367q-5 186 -62 212q-10 4 -27 4q-6 0 -174 -39v-712l-127 -27l-323 342q-90 -92 -221 -143q-54 16 -54 65q0 17 9 35q217 68 217 256q0 100 -71 173q-68 70 -171 66q-4 -1 -8 -1q-45 -101 -197 -203q-34 0 -59 35q-15 20 -15 41q0 12 7 20q65 27 123 105
q61 81 61 155q0 131 -191 131h-73v129h1630v-129h-537v-221q117 35 185 35q55 0 86 -21q112 -88 112 -356l-4 -194q0 -254 96 -347q7 -12 7 -24z" />
    <glyph glyph-name="tata_u09cd.haln" horiz-adv-x="1457" 
d="M896 -5l338 -247l-66 -88l-344 258zM862 1180q138 0 239 -93l30 -32q75 -89 75 -201q0 -109 -72 -197q133 -116 133 -270q0 -150 -122 -241q-111 -83 -275 -83q-160 0 -356 150q-81 63 -142 131q-225 254 -321 729q-4 45 19 60q11 8 30 8q39 0 64 -43l86 -303
q53 -160 145 -285q240 -324 498 -324q47 0 94 11q158 36 158 192q0 115 -95 176q-67 29 -67 70q0 35 45 84q59 51 59 129q0 92 -71 157q-64 58 -152 58q-31 0 -61 -8q-123 -64 -123 -185q0 -55 26 -129q3 -43 -23 -58q-13 -7 -34 -7q-31 0 -49 24q-41 74 -41 158
q0 132 86 226q88 96 217 96zM-12 1378h1465v-129h-1465v129z" />
    <glyph glyph-name="u09b0_u09cd.rphf" 
d="M305 1824q38 0 61 -26l9 -14q2 -6 2 -12q0 -14 -17 -28l-485 -377h-174l582 451q8 6 22 6z" />
    <glyph glyph-name="u09af_u09cd.pstf" horiz-adv-x="544" 
d="M557 1378v-129h-82q-78 0 -142 -51l-23 -22q-11 -12 -17 -25q-23 -59 -23 -139q0 -109 65.5 -355.5t65.5 -355.5q0 -252 -268 -332q-70 11 -70 56q0 28 33 49q203 51 203 239q0 95 -72.5 338.5t-72.5 364.5q0 141 75 233h-241v129h569z" />
    <glyph glyph-name="u09b0_u09cd.blwf" 
d="M-270 221h127v-254q0 -45 -84 -45q-33 0 -43 10q-56 58 -144 58q-47 0 -156 -26q-107 -24 -167 -23q-133 4 -197 52q-63 48 -129 193q-4 45 21 60q13 8 34 8q27 0 56 -18q41 -105 82 -141q42 -36 108 -36q43 0 150 21q145 26 227 26q72 0 115 -16v131z" />
    <glyph glyph-name="u09ac_u09cd.blwf" 
d="M-208 -262v237l-188 -100zM-181 88q43 0 79 -26q21 -16 21 -33v-348q0 -31 -49 -48q-23 -8 -45 -8q-21 0 -33 8l-323 224q-17 20 -17 28q0 9 37 29l303 168q10 6 27 6z" />
    <glyph glyph-name="u0995_u09b0_u09cd.blwf.vatu" horiz-adv-x="1755" 
d="M911 1198q111 0 157 -89l14 -35q10 -34 10 -73v-121l79 83q86 77 206 57q105 -17 170 -95q52 -63 52 -143q0 -26 -6 -51q-50 -185 -273 -178h-8q-30 16 -30 47q0 39 39 55q97 -10 142 47q26 32 26 80q0 21 -5 39q-49 80 -124 80q-91 0 -205 -116q-37 -37 -63 -75v-606
q0 -26 -44 -45q-26 -8 -44 -10q-27 0 -39 14q-129 160 -279 160q-21 0 -194 -26q-76 -11 -103 -11q-41 0 -80 7q-250 67 -250 376q0 49 5 107q14 41 53 41q49 0 72 -45q-11 -58 -11 -109q0 -252 217 -252q23 0 196 26q72 11 97 11q172 0 277 -96v745q0 80 -62 80
q-14 0 -30 -4q-277 -74 -277 -303q0 -78 35 -168q4 -10 4 -20q0 -43 -55 -43q-37 0 -62 26q-41 105 -41 203q0 187 133 308q104 96 256 118q23 4 45 4zM1757 1249h-1773v129h1773v-129z" />
    <glyph glyph-name="u0996_u09b0_u09cd.blwf.vatu" horiz-adv-x="1279" 
d="M1005 250v124h3v890q0 114 110 114h176v-129h-159v-1118q0 -7 -3 -13v-35q0 -47 -82 -47q-31 0 -45 14q-78 82 -185 82q-69 0 -186 -35q-102 -30 -199 -30q-297 0 -385 276q2 55 74 55q18 0 35 -6q69 -211 266 -211q62 0 139 21q146 41 233 48l-486 358q-18 27 -18 56
q0 51 41 51q127 14 221 99q98 90 98 208q0 76 -43 149q-88 -202 -278 -202q-111 0 -244 71q-25 21 -25 52q0 59 54 59q10 0 20 -4q105 -60 189 -60q172 0 194 209q-1 41 21 55q11 7 28 7q19 0 39 -12q168 -109 162 -331v-9q-10 -267 -295 -375z" />
    <glyph glyph-name="u0997_u09b0_u09cd.blwf.vatu" horiz-adv-x="1272" 
d="M521 627q0 101 -72 169q-63 61 -149 61q-68 0 -133 -39q-29 -17 -53 -17q-46 0 -46 47q0 13 5 27q55 209 195 308q83 59 210 93q62 11 117 11q227 0 401 -191v262h287v-129h-160v-1140q0 -14 -6 -24v-17q0 -47 -82 -47q-31 0 -45 14q-78 82 -185 82q-69 0 -186 -35
q-102 -30 -199 -30q-297 0 -385 276q2 55 74 55q18 0 35 -6q69 -211 266 -211q62 0 139 21q176 49 267 49q86 0 174 -39v162h6v423q0 133 -71 224q-146 182 -355 182q-215 0 -334 -197q122 13 213 -32q46 -23 84 -60q107 -100 107 -252q0 -209 -193 -315q-12 -4 -24 -4
q-42 0 -61 30q-7 12 -7 25q0 25 23 45q143 82 143 219z" />
    <glyph glyph-name="u0998_u09b0_u09cd.blwf.vatu" horiz-adv-x="1117" 
d="M175 1122q0 -71 63 -114q44 -31 101 -31l88 14q59 0 59 -59q0 -23 -16 -41l-209 -246l568 -396v12h1v988h-567q-88 -49 -88 -127zM759 144l-625 444q-29 12 -29 41q0 20 19 43l160 188q-109 16 -173 99q-51 66 -51 153q0 68 35 137h-114v129h1136v-129h-160v-1122
q0 -5 -1 -10v-110q0 -45 -84 -45q-33 0 -43 10q-56 58 -144 58q-47 0 -157 -26q-106 -24 -166 -23q-133 4 -196 52q-64 48 -130 193q-4 45 21 60q13 8 34 8q27 0 56 -18q40 -104 81 -140q42 -37 109 -37q43 0 150 21q145 26 227 26q24 0 45 -2z" />
    <glyph glyph-name="u0999_u09b0_u09cd.blwf.vatu" horiz-adv-x="1278" 
d="M892 1222q-85 62 -176 -13q-69 -57 -101 -153q-4 -12 -7 -24q88 -18 133 -18q129 0 184 125q10 51 -33 83zM1230 500q0 -154 -117 -277q-75 -80 -174 -117v-245q0 -47 -74 -47q-26 0 -32 13q-37 77 -105 77q-39 0 -123 -34q-194 -80 -270 -80q-125 0 -233 149
q-1 41 13 55q7 7 19 7q21 0 54 -21q53 -97 137 -98q43 0 119 31l139 57q108 39 139 39q49 0 111 -37v109q-24 -3 -49 -3q-203 0 -388 162q-141 124 -212 284q-66 151 -102 316q-11 49 -42 207q7 53 54 53q35 0 57 -37q59 -318 143 -494q76 -154 202 -260q139 -116 284 -116
q121 0 221 84q99 83 111 194q2 13 2 27q0 137 -136 243l-368 -198q-154 119 -154 264q0 94 15 145q-3 6 -7 6q-256 117 -348 338q-11 42 23 59q15 7 33 7q22 0 40 -12q119 -203 281 -281q28 99 116 192q97 103 195 113q87 10 157 -49q35 -29 65 -76q16 -41 16 -86
q0 -117 -95 -196q-89 -74 -212 -74q-84 0 -152 29q-12 0 -12 -97q0 -73 49 -131l295 144q25 22 68 22q18 0 36 -4q211 -154 211 -356z" />
    <glyph glyph-name="u099a_u09b0_u09cd.blwf.vatu" horiz-adv-x="973" 
d="M271 973v-676q0 -102 72 -102q30 0 75 24q97 55 189 195q98 153 98 274q0 33 -8 62q-29 47 -203 99t-223 124zM540 158q-77 -62 -160 -86q-13 -4 -29 -4q-88 0 -151 66q-56 59 -56 138v977h-155v129h1007v-129h-725v-82q57 -112 193 -178l221 -88q96 -44 122 -116
q15 -39 15 -95q0 -184 -140 -378q-22 -30 -44 -57l8 3v-357q0 -47 -74 -47q-26 0 -32 13q-37 76 -105 77q-39 0 -123 -34q-194 -80 -270 -80q-125 0 -233 149q-1 41 13 55q7 7 19 7q21 0 54 -21q53 -98 137 -98q43 0 119 31l139 57q108 39 139 39q49 0 111 -37v146z" />
    <glyph glyph-name="u099b_u09b0_u09cd.blwf.vatu" horiz-adv-x="1264" 
d="M320 1074v-405q0 -52 49 -52q84 0 216 109q161 134 110 209q-32 48 -148 65q-176 27 -227 74zM1086 802q0 -165 -118 -322q-66 -86 -144 -137q-58 -35 -152 -64q240 -13 495 -138q92 -46 165 -97q12 -27 12 -47q0 -52 -70 -49h-8q-140 98 -311 155v-257q0 -47 -74 -47
q-26 0 -32 13q-37 77 -105 77q-39 0 -123 -34q-194 -80 -270 -80q-125 0 -233 149q-1 41 13 55q7 7 19 7q21 0 54 -21q53 -98 137 -98q43 0 119 31l139 57q108 39 139 39q49 0 111 -37v177q-194 48 -496 64q-31 26 -31 67q0 33 27 47q161 19 217 33q108 29 192 98
q85 57 150 159q69 108 69 204q0 139 -159 182q4 -25 4 -49q0 -170 -166 -301q-152 -121 -307 -121q-156 0 -156 139v580l-18 13h-187v129h1274v-124h-942q0 -78 163 -119q103 -26 210 -26q49 0 78 6q185 -12 266 -134q49 -74 49 -179z" />
    <glyph glyph-name="u099c_u09b0_u09cd.blwf.vatu" horiz-adv-x="1363" 
d="M668 446q106 0 170 66q51 52 51 127q0 78 -60 156q-41 -7 -135 -47q-86 -39 -133 -39q-24 0 -47 8q-127 76 -127 215q0 174 154 317h-553v129h1388v-129h-401l317 -211q43 -16 43 -77q0 -13 -4 -19q-117 -151 -117 -405q0 -185 60 -402q-12 -57 -72 -57q-16 0 -31 6
q-84 90 -217 90q-82 0 -247.5 -37t-251.5 -37q-293 0 -392 293q9 60 56 60q26 0 57 -23q76 -215 264 -215q88 0 259 37t259 37q86 0 160 -21q-18 211 -18 293q0 221 98 404l-401 268q-17 10 -39 10q-72 0 -152 -83q-80 -84 -98 -178l-4 -38q0 -72 55 -117q8 -2 16 -2
q25 0 109 45t150 45q18 0 38 -4q132 -80 132 -256q0 -140 -86 -233q-66 -71 -160 -84q-41 -6 -78 -6q-469 0 -592 782q33 33 68 33q24 0 49 -17q53 -352 194 -532q119 -152 269 -152z" />
    <glyph glyph-name="u099d_u09b0_u09cd.blwf.vatu" horiz-adv-x="1423" 
d="M709 253q1 7 -2 71q-1 26 3 40v642l-492 -306zM535 241l-464 427q-13 10 -13 39q0 41 29 57l623 383v102h-723v129h723q127 0 127 -129v-530l303 -232v762q0 129 127 129h176v-129h-176v-917q0 -41 -66 -41q-41 0 -61 20l-303 246v-440q0 -6 -1 -12v-32q0 -46 -82 -47
q-31 0 -45 14q-78 82 -185 82q-69 0 -186 -35q-102 -30 -199 -30q-297 0 -385 276q2 55 74 55q18 0 35 -6q69 -211 266 -211q62 0 139 21q176 49 267 49z" />
    <glyph glyph-name="u099e_u09b0_u09cd.blwf.vatu" horiz-adv-x="1851" 
d="M1742 700q129 -84 129 -223q0 -155 -170 -201q-26 -4 -53 -4q-258 0 -426 383v113q59 156 115 225q110 135 256 144q111 -9 187 -85q67 -68 67 -157q0 -109 -105 -195zM1734 494q0 59 -66 105q-53 36 -112 36q-49 27 -49 61q0 35 41 60q78 9 127 65q34 40 34 88
q0 102 -133 101q-78 0 -153 -113q-19 -27 -103 -184q52 -132 141 -225q90 -93 179 -93q16 0 33 4q61 39 61 95zM521 872q0 195 132 335q100 106 243 143q45 16 86 16q86 0 166 -70q73 -63 73 -190v-903h1v-357q0 -47 -74 -47q-26 0 -32 13q-37 77 -105 77q-39 0 -123 -34
q-194 -80 -270 -80q-125 0 -233 149q-1 41 13 55q7 7 19 7q21 0 54 -21q53 -98 137 -98q43 0 119 31l139 57q108 39 139 39q49 0 111 -37v118q-16 2 -22 11q-129 170 -323 170q-28 0 -243 -27q-93 -12 -124 -12q-55 0 -102 10q-164 60 -222 185q-42 89 -42 227q0 55 6 125
q28 24 57 24q33 0 61 -32q-6 -107 -6 -129q0 -174 115 -254q53 -37 131 -37q47 0 163 20.5t185 20.5q187 0 344 -125v846q0 147 -100 147q-53 0 -143 -47q-203 -104 -203 -301q0 -88 39 -207q-6 -53 -66 -53q-33 0 -53 20q-47 105 -47 215z" />
    <glyph glyph-name="u099f_u09b0_u09cd.blwf.vatu" horiz-adv-x="1010" 
d="M592 870q0 39 38 58q17 8 36 8q180 -125 180 -279q0 -186 -145 -381l-24 -31l7 3v-357q0 -47 -74 -47q-26 0 -32 13q-37 77 -105 77q-39 0 -123 -34q-194 -80 -270 -80q-125 0 -233 149q-1 41 13 55q7 7 19 7q21 0 54 -21q53 -98 137 -98q43 0 119 31l139 57
q108 39 139 39q49 0 111 -37v144q-96 -74 -197 -74q-78 0 -146 76q-71 85 -73 180v919q-72 3 -147 2h-28v129h781q6 21 6 39q0 131 -307 131l-176 -6q-289 31 -364 74q-127 67 -140 289q4 39 53 39q39 0 60 -27q2 -156 113 -211q83 -41 270 -41h121q223 -2 323 -39
q168 -63 168 -248h107v-129h-713v-889q0 -68 55 -104q32 -20 72 -20q78 0 154 79q159 172 159 330q0 82 -35 122l-25 24l-69 53q-8 12 -8 26z" />
    <glyph glyph-name="u09a0_u09b0_u09cd.blwf.vatu" horiz-adv-x="1058" 
d="M576 1128q2 -34 2 -69q0 -377 -394 -555q-1 -91 30 -160q16 -35 40 -64q72 -87 176 -87q109 0 207 94q149 143 149 336q0 237 -210 505zM672 154q-103 -74 -234 -74q-73 0 -147 26q-82 29 -156 151q-74 121 -74 226q0 76 43 115q209 85 293 208q74 108 74 267
q0 80 -18 176h-467v129h405q-20 45 -117 207q-133 229 -133 361q0 170 217 208q56 -16 56 -73q0 -31 -23 -41q-131 0 -131 -96q0 -68 72 -220q129 -235 198 -346h525v-129h-422q264 -319 264 -641q0 -198 -125 -357l6 2v-357q0 -47 -74 -47q-26 0 -32 13q-37 76 -105 77
q-39 0 -123 -34q-194 -80 -270 -80q-125 0 -233 149q-1 41 13 55q7 7 19 7q21 0 54 -21q53 -98 137 -98q43 0 119 31l139 57q108 39 139 39q49 0 111 -37v147z" />
    <glyph glyph-name="u09a1_u09b0_u09cd.blwf.vatu" horiz-adv-x="1502" 
d="M839 74q-193 17 -369 170q-81 71 -138 155q-158 234 -271 629q-3 33 29 49q15 8 33 8q31 0 51 -22q109 -340 195 -488q67 -148 194 -256q150 -126 311 -126q168 0 281 151q76 102 76 240q0 153 -92 260q-138 -156 -178 -191q-113 -96 -228 -96q-139 21 -139 225v467h-606
v129h1515v-129h-782v-526q14 -41 49 -41q55 0 145 88q80 80 156 193q12 20 41 20q43 0 78 -35q160 -151 160 -342q0 -98 -41 -217q-138 -280 -364 -313v-235q0 -47 -74 -47q-26 0 -32 13q-37 77 -105 77q-39 0 -123 -34q-194 -80 -270 -80q-125 0 -233 149q-1 41 13 55
q7 7 19 7q21 0 54 -21q53 -98 137 -98q43 0 119 31l139 57q108 39 139 39q49 0 111 -37v122z" />
    <glyph glyph-name="u09a2_u09b0_u09cd.blwf.vatu" horiz-adv-x="1033" 
d="M624 870q0 39 38 58q17 8 36 8q180 -125 180 -279q0 -186 -145 -381l-17 -22v-343q0 -47 -74 -47q-26 0 -32 13q-37 76 -105 77q-39 0 -123 -34q-194 -80 -270 -80q-124 0 -233 149q-1 41 13 55q7 7 19 7q21 0 54 -21q53 -98 137 -98q43 0 119 31l139 57q108 39 139 39
q49 0 111 -37v124q-96 -74 -197 -74q-78 0 -146 76q-71 85 -73 180v919l-205 2v129h1045v-129h-713v-889q0 -68 55 -104q32 -20 72 -20q78 0 154 79q159 172 159 330q0 82 -35 122l-25 24l-69 53q-8 12 -8 26z" />
    <glyph glyph-name="u09a3_u09b0_u09cd.blwf.vatu" horiz-adv-x="1045" 
d="M52 944q0 186 131 290q113 89 291 89q145 0 287 -119q0 174 127 174h155v-129h-155v-1108q0 -51 -58 -51q-50 0 -64 26q-7 -5 -13 -4q-2 0 -4 1q-72 79 -141 79q-44 0 -203 -55q-103 -49 -180 -49q-164 0 -285 229q-6 15 -6 29q0 43 53 43q18 0 41 -8q86 -164 190 -164
q41 0 116 25l152 48q76 23 130 23q81 0 145 -60v595q0 45 -25 162q-17 85 -110 144q-87 56 -189 56q-123 0 -203 -88l-25 -32q-44 -66 -44 -146q0 -106 70 -181q61 -65 145 -69q26 -8 26 -41q0 -41 -27 -63q-12 -10 -26 -10q-221 43 -281 235q-20 64 -20 129z" />
    <glyph glyph-name="u09a4_u09b0_u09cd.blwf.vatu" horiz-adv-x="1241" 
d="M386 311q23 0 196 26q72 11 97 11q172 0 277 -96v745q0 80 -62 80q-14 0 -30 -4q-277 -74 -277 -303q0 -78 35 -168q4 -10 4 -20q0 -43 -55 -43q-37 0 -62 26q-41 105 -41 203q0 187 133 308q104 96 256 118q23 4 45 4q111 0 157 -89l14 -35q10 -34 10 -73v-897
q0 -26 -44 -45q-26 -8 -44 -10q-27 0 -39 14q-129 160 -279 160q-21 0 -194 -26q-76 -11 -103 -11q-41 0 -80 7q-250 67 -250 376q0 49 5 107q14 41 53 41q49 0 72 -45q-11 -58 -11 -109q0 -252 217 -252zM-25 1378h1263v-129h-1263v129z" />
    <glyph glyph-name="u09a5_u09b0_u09cd.blwf.vatu" horiz-adv-x="1208" 
d="M384 1337q165 0 255 -103q70 -81 70 -202q0 -108 -59 -225q-51 -100 -203 -209l481 -358v1009q0 77 60 112q29 17 67 17h156v-129h-156v-1126q0 -13 -8 -22v-129q0 -45 -84 -45q-33 0 -43 10q-56 58 -144 58q-47 0 -156 -25q-107 -25 -167 -24q-133 4 -197 52
q-63 48 -129 193q-4 45 21 60q13 8 34 8q27 0 56 -18q41 -105 82 -141q42 -36 108 -36q43 0 150 21q145 26 227 26q72 0 115 -16v5l-620 461q-13 29 -13 51q0 35 27 45q96 38 178 136q101 120 101 239q0 131 -136 180q-41 7 -73 7q-183 0 -193 -218q-8 -43 -65 -43
q-39 0 -50 29q-12 233 129 311q70 39 179 39z" />
    <glyph glyph-name="u09a6_u09b0_u09cd.blwf.vatu" horiz-adv-x="890" 
d="M747 113q0 -35 -22 -64q-13 -17 -25 -11q-24 26 -47 43q-5 0 -11 1l-6 11q-39 24 -77 24q-44 0 -203 -55q-103 -49 -180 -49q-164 0 -285 229q-6 15 -6 29q0 43 53 43q18 0 41 -8q86 -164 190 -164q41 0 116 24l151 48q77 24 131 24h4q-47 135 -47 276q0 170 69 393
q-231 -90 -411 -305q-25 -14 -56 -14q-57 0 -57 47v614h-94v129h927v-129h-706v-481q47 57 164 143q197 143 299 142q10 -1 18 -2q66 -7 64 -72q-99 -274 -99 -451q0 -190 103 -387q2 -10 2 -28z" />
    <glyph glyph-name="u09a7_u09b0_u09cd.blwf.vatu" horiz-adv-x="1001" 
d="M715 248v766l-502 -309zM61 1143q0 146 144 203q73 28 172 28q37 -10 37 -51q0 -53 -35 -70q-199 0 -199 -102q0 -23 10 -49q70 -119 209 -119q23 0 45 4l271 168v94q0 129 127 129h155v-129h-155v-1008h1v-254q0 -45 -84 -45q-33 0 -43 10q-56 58 -144 58
q-47 0 -156 -26q-107 -24 -167 -23q-133 4 -197 52q-63 48 -129 193q-4 45 21 60q13 8 34 8q27 0 56 -18q41 -105 82 -141q42 -36 108 -36q43 0 150 21q145 26 227 26q44 0 77 -6l-598 552q-13 14 -13 39q0 37 27 67l184 107q-161 71 -213 209q-4 24 -4 49z" />
    <glyph glyph-name="u09a8_u09b0_u09cd.blwf.vatu" horiz-adv-x="1073" 
d="M76 567q0 169 121 269q109 92 280 92q181 0 312 -129v450h-807v129h1089v-129h-155v-1191q0 -47 -82 -47q-31 0 -45 14q-78 82 -185 82q-69 0 -186 -35q-102 -30 -199 -30q-297 0 -385 276q2 55 74 55q18 0 35 -6q69 -211 266 -211q62 0 139 21q176 49 267 49
q86 0 174 -39v352q-44 194 -184 247q-60 23 -140 23q-139 0 -214 -87q-54 -64 -54 -157q0 -114 57 -171q28 -28 90 -62q15 -15 15 -33q0 -35 -30 -55q-18 -12 -38 -8q-127 49 -178 163q-37 82 -37 168z" />
    <glyph glyph-name="u09aa_u09b0_u09cd.blwf.vatu" horiz-adv-x="1327" 
d="M811 1110q-137 131 -276 131t-273 -131l250 -295zM103 899q-44 0 -67 41q-7 13 -9 27q145 317 434 387q45 10 90 10q271 0 490 -336v219q0 66 52 105q33 26 75 26h155v-129h-155v-1136q0 -41 -62 -41q-65 0 -65 39v25q-10 -11 -22 -8q-72 79 -141 79q-44 0 -203 -55
q-103 -49 -180 -49q-164 0 -285 229q-6 15 -6 29q0 43 53 43q18 0 41 -8q86 -164 190 -164q41 0 116 24l152 48q76 24 130 24q87 0 155 -70v414q0 94 -49 192q-23 47 -99 160l-469 -459q-49 -11 -75 23q-13 16 -13 39q0 12 4 22l82 84l-229 277l-62 -103q-14 -8 -28 -8z" />
    <glyph glyph-name="u09ab_u09b0_u09cd.blwf.vatu" horiz-adv-x="1427" 
d="M1182 797q0 151 -125 218q-76 40 -186 40v-719h1v-254q0 -45 -84 -45q-33 0 -43 10q-56 58 -144 58q-47 0 -157 -25q-106 -25 -166 -24q-133 4 -196 52q-64 48 -130 193q-4 45 21 60q13 8 34 8q27 0 56 -18q40 -104 81 -140q42 -37 109 -37q43 0 150 21q118 21 194 25
l-476 388q-12 25 -12 45q0 29 24 58l211 196l-307 342h-51v129h1440v-129h-1225l268 -301q17 -44 6 -70q-6 -14 -18 -22l-211 -199l498 -409v805q0 114 65 114q344 0 449 -196q45 -86 45 -178q0 -123 -71 -219q-65 -89 -153 -97q-53 6 -53 70q0 39 33 51q56 -7 94 72
q29 59 29 127z" />
    <glyph glyph-name="u09ac_u09b0_u09cd.blwf.vatu" horiz-adv-x="997" 
d="M715 262v762l-502 -313zM697 116l-619 564q-17 14 -17 41q0 35 21 47l633 387v94h-727v129h1009v-129h-155v-1008h3v-254q0 -45 -84 -45q-33 0 -43 10q-56 58 -144 58q-47 0 -156 -26q-107 -24 -167 -23q-133 4 -197 52q-63 48 -129 193q-4 45 21 60q13 8 34 8
q27 0 56 -18q41 -105 82 -141q42 -36 108 -36q43 0 150 21q145 26 227 26q56 0 94 -10z" />
    <glyph glyph-name="u09ad_u09b0_u09cd.blwf.vatu" horiz-adv-x="1229" 
d="M-12 1378h1246v-129h-1246v129zM1139 807v-703q0 -27 -44 -44q-23 -9 -44 -9q-29 0 -39 17q-66 115 -163 160q-92 43 -276 51q-186 8 -264 24q-158 36 -212 168q-40 96 -36 270q17 35 52 35q34 0 69 -31q8 -182 17 -208q35 -117 244 -137q53 -5 124 -5q156 -2 219 -12
q123 -25 226 -109v504q-4 45 -21 125q-172 -219 -366 -219q-21 0 -43 2q-122 38 -161 138q-24 61 -24 157q0 33 2 78q17 41 64 41q45 0 53 -41q-1 -98 3 -146l5 -36q26 -78 129 -74h6q113 28 185 121q96 120 135 145q31 3 59 -14q15 -9 29 -23q72 -131 72 -225z" />
    <glyph glyph-name="u09ae_u09b0_u09cd.blwf.vatu" horiz-adv-x="986" 
d="M769 874v18h39q47 35 47 116q0 84 -62 168q-49 51 -81 65q-23 8 -84 8h-312q41 -57 41 -135q0 -18 -4 -33q58 -24 164 -118q94 -84 150 -93q22 -4 43 -4q33 0 59 8zM200 897q0 -51 36 -78q16 -13 35 -14q23 -37 23 -62q0 -43 -66 -43q-137 70 -137 213q0 142 141 181
q9 22 9 47q0 55 -48 108h-200v129h995v-129h-139q68 -40 104 -144q21 -61 21 -124q0 -130 -78 -194v-624q0 -45 -84 -45q-32 0 -43 11q-55 57 -143 57q-47 0 -156 -26q-107 -24 -168 -23q-133 4 -196 52q-64 48 -129 193q-4 45 21 60q13 8 34 8q27 0 55 -18q40 -105 82 -140
q42 -36 109 -36q43 0 149 20q146 27 228 27q71 0 114 -17v446q-21 -3 -41 -3q-90 0 -184 68q-29 18 -146 125q-74 67 -114 67q-43 0 -70 -45q-14 -24 -14 -47z" />
    <glyph glyph-name="u09af_u09b0_u09cd.blwf.vatu" horiz-adv-x="1024" 
d="M206 1249l266 -323q16 -36 7 -60q-4 -12 -15 -22l-269 -226l545 -382v1013h-534zM666 140l-593 429q-23 17 -23 43q0 23 16 45l277 242l-295 350h-53v129h1028v-129h-156v-993h1v-254q0 -45 -84 -45q-33 0 -43 10q-56 58 -144 58q-47 0 -157 -25q-106 -25 -166 -24
q-133 4 -196 52q-64 48 -130 193q-4 45 21 60q13 8 34 8q27 0 56 -18q40 -104 81 -140q42 -37 109 -37q43 0 150 21q145 26 227 26q21 0 40 -1z" />
    <glyph glyph-name="u09b0_u09b0_u09cd.blwf.vatu" horiz-adv-x="994" 
d="M708 262v762l-502 -313zM293 250h160v-150h-160v150zM706 102l-635 578q-17 14 -17 41q0 35 21 47l633 387v94h-727v129h1009v-129h-155v-1122l-2 -6v-231q0 -47 -82 -47q-31 0 -45 14q-78 82 -185 82q-69 0 -186 -35q-102 -30 -199 -30q-297 0 -385 276q2 55 74 55
q18 0 35 -6q69 -210 266 -211q62 0 139 21q176 49 267 49q86 0 174 -39v83z" />
    <glyph glyph-name="u09b0_u09b0_u09cd.blwf.vatu" horiz-adv-x="1131" 
d="M56 930q0 104 78 188q84 85 185 88q114 0 211 -96q75 88 159 88q76 0 172 -78v129h-878v129h1161v-129h-156v-1128q0 -45 -84 -45q-32 0 -43 11q-55 57 -143 57q-47 0 -156 -26q-107 -24 -168 -23q-133 4 -196 52q-64 48 -129 193q-4 45 21 60q13 8 34 8q27 0 55 -18
q40 -105 82 -140q42 -36 109 -36q43 0 149 20q146 27 228 27q71 0 114 -17v606q-1 151 -100 215q-37 22 -68 22q-55 0 -118 -104q-17 -27 -45 -27q-29 0 -50 27q-43 111 -163 111q-87 0 -128 -71q-19 -34 -22 -79q-8 -117 109 -152q49 -15 114 -12q29 -14 29 -53
q0 -47 -27 -53q-26 -6 -51 -6q-122 0 -206 79q-79 75 -79 183z" />
    <glyph glyph-name="u09b6_u09b0_u09cd.blwf.vatu" horiz-adv-x="1344" 
d="M716 1253q-100 0 -166 -64l-22 -24q-36 -50 -33 -114q7 -139 120 -192q66 -31 193 -44q14 -8 14 -35q0 -55 -28 -80q-160 15 -232 52q-82 43 -147 159q-70 -135 -164 -180q-64 -29 -217 -37q-25 19 -25 56q0 34 21 59q146 8 235 90q53 49 68 113q19 78 -52 154
q-54 58 -118 73q-45 10 -164 10q-31 0 -31 68q0 61 31 61q164 0 219 -18q111 -35 195 -178q65 100 131 141q59 39 172 55q96 4 198 -41q87 -39 109 -90l-2 254l119 -8l-2 -105h198v-139h-186v-1124q0 -31 -42 -49q-20 -8 -40 -8t-31 10q-78 82 -225 82q-39 0 -220 -36
q-114 -22 -153 -22q-214 0 -348 132q-77 76 -110 182q0 55 71 55q19 0 35 -6q50 -154 180 -216q71 -34 158 -34q55 0 106 14q177 50 295 50q109 0 197 -39v811q0 80 -96 141t-211 61z" />
    <glyph glyph-name="u09b7_u09b0_u09cd.blwf.vatu" horiz-adv-x="995" 
d="M734 803l-270 125l-264 321h534v-446zM734 236l-545 382l232 195l313 -139v-438zM861 123v1126h156v129h-1028v-129h53l295 -350l-277 -242q-16 -22 -16 -45q0 -26 23 -43l643 -466q-37 16 -78 16q-54 0 -130 -23l-152 -48q-75 -25 -116 -25q-104 0 -190 164q-23 8 -41 8
q-53 0 -53 -43q0 -14 6 -29q121 -229 285 -229q77 0 180 49q159 55 203 55q69 0 141 -79q34 -17 72 -16q28 0 28 17q-12 36 -4 181q2 22 0 22z" />
    <glyph glyph-name="u09b8_u09b0_u09cd.blwf.vatu" horiz-adv-x="1184" 
d="M803 870q55 0 83 59q15 31 15 68q0 60 -33 109q-65 98 -110 143h-230q0 -24 33 -80l96 -176q78 -123 146 -123zM874 761q-38 -9 -71 -9q-103 0 -180 82q-58 61 -125 194q-168 -254 -279 -254q-82 0 -158 105q-9 39 28 63q29 18 63 10q14 -55 45 -55q77 0 182 223
q15 54 10 98q-2 16 -6 31h-395v129h1196v-129h-250l49 -80q61 -100 61 -196q0 -86 -43 -139v-716q0 -45 -84 -45q-32 0 -43 11q-55 57 -143 57q-47 0 -157 -25q-106 -25 -167 -24q-133 4 -197 52q-63 48 -128 193q-4 45 21 60q13 8 34 8q27 0 55 -18q40 -105 82 -140
q42 -36 109 -36q43 0 149 20q146 27 228 27q71 0 114 -17v520z" />
    <glyph glyph-name="u09b9_u09b0_u09cd.blwf.vatu" horiz-adv-x="929" 
d="M486 1217q168 0 265 -113l27 -36q59 -91 59 -216q0 -35 -4 -70q-76 -295 -529 -350l719 -444q4 -13 4 -25q0 -56 -59 -53h-6l-319 195v-244q0 -47 -74 -47q-26 0 -32 13q-37 77 -105 77q-39 0 -123 -34q-194 -80 -270 -80q-125 0 -233 149q-1 41 13 55q7 7 19 7
q21 0 54 -21q53 -97 137 -98q43 0 119 31l139 57q108 39 139 39q49 0 111 -37v198l-481 295q-18 24 -18 51q0 57 51 57q10 0 23 -4q84 -12 159 -12q342 0 443 236q6 30 6 63q0 130 -89 197l-31 19l-39 15q-37 11 -81 11q-237 0 -250 -246q-18 -29 -57 -29q-43 0 -57 43
q0 122 79 222q50 62 113 88l-90 73h-233v129h944v-129h-555q-4 0 6 -4q5 -2 14 -6q37 -14 47 -27q21 5 45 5z" />
    <glyph glyph-name="janya_u09b0_u09cd.blwf.vatu" horiz-adv-x="1771" 
d="M1543 354q0 71 -67 99q-28 12 -64 12q-47 16 -47 57q0 43 45 58q72 10 112 61q25 31 25 68q0 84 -121 90q-103 -21 -154 -76l-27 -33l-36 -61q-6 -11 -16 -29q34 -67 28 -149q-1 -11 -3 -23q65 -80 106 -111q55 -44 120 -53q88 -12 98 70q1 9 1 20zM890 803
q-115 266 -172 379q-67 -38 -118 -138q-48 -95 -48 -186q0 -117 80 -172zM1476 141q-123 0 -247 104q-36 30 -63 62q-73 -114 -133 -166q-38 -32 -84 -52v-253q0 -47 -74 -47q-26 0 -32 13q-37 77 -105 77q-39 0 -123 -34q-194 -80 -270 -80q-125 0 -233 149q-1 41 13 55
q7 7 19 7q21 0 54 -21q53 -98 137 -98q43 0 119 31l139 57q108 39 139 39q49 0 111 -37v114q-30 -4 -62 -4q-293 0 -510 351q-180 294 -211 628q19 45 56 45q28 0 65 -26q47 -330 209 -598q178 -293 381 -293q119 0 232 110q83 101 83 220q0 137 -114 221q-41 -13 -166 -88
q-105 -62 -170 -62q-35 0 -68 15q-141 120 -141 294q0 161 110 300q34 43 74 75h-624v129h1785v-129h-958l191 -420q71 -34 127 -102q69 107 170 161q68 36 135 36q93 0 164 -68q67 -64 67 -149q0 -103 -92 -177q90 -71 90 -182q0 -127 -113 -192q-36 -15 -77 -15z" />
    <glyph glyph-name="kassa_u09b0_u09cd.blwf.vatu" horiz-adv-x="1705" 
d="M830 1249q-28 -30 -28 -61q0 -84 198 -176v237h-170zM994 277v82h6v522q-321 143 -321 303q0 30 12 65h-344q37 -59 37 -127q0 -30 -8 -69q137 -17 238 -110q110 -102 110 -241q0 -75 -37 -151zM589 700q0 94 -73 166q-68 68 -156 68q-23 0 -43 -6q-64 -101 -189 -174
q-52 -4 -69 24q-9 13 -9 35q0 14 9 27q74 37 137 116q67 84 67 160q0 101 -124 133h-162v129h1726v-129h-586v-284q179 -60 295 -154q127 -102 127 -203q0 -133 -221 -229q-30 -8 -51 26q-12 19 -12 39q0 15 4 27q149 66 149 143q0 121 -291 222v-477h4v-291q0 -46 -82 -47
q-31 0 -45 14q-78 82 -185 82q-69 0 -186 -35q-102 -30 -199 -30q-297 0 -385 276q2 55 74 55q18 0 35 -6q69 -211 266 -211q62 0 139 21q176 49 267 49h19l-236 217q-77 -74 -192 -136q-40 7 -61 42q-9 16 -9 32q0 19 13 31q235 132 235 278z" />
    <glyph glyph-name="hama_u09b0_u09cd.blwf.vatu" horiz-adv-x="1613" 
d="M548 1026q156 -39 278 -39q68 0 127 12v250h-635q57 -91 51 -154q0 -5 -1 -10q108 -10 180 -59zM949 352l1 11q1 2 3 1v519q-53 -10 -163 -7q-56 2 -127 7q36 -82 36 -160q0 -53 -16 -98zM1562 121q0 -37 -46 -51q-21 -6 -44 -4q-95 84 -117 301q-6 180 -11 367
q-6 186 -63 212q-10 4 -27 4q-6 0 -174 -39v-712l-4 -1v-125q0 -46 -82 -47q-31 0 -45 14q-78 82 -185 82q-69 0 -186 -35q-102 -30 -199 -30q-297 0 -385 276q2 55 74 55q18 0 35 -6q69 -211 266 -211q62 0 139 21q176 49 267 49q67 0 135 -24l-280 297q-90 -92 -221 -143
q-54 16 -54 65q0 17 9 35q217 68 217 256q0 100 -71 173q-68 70 -171 66q-4 -1 -8 -1q-45 -101 -197 -203q-34 0 -59 35q-15 20 -15 41q0 12 7 20q65 27 123 105q61 81 61 155q0 131 -191 131h-73v129h1630v-129h-537v-221q117 35 185 35q55 0 86 -21q112 -88 112 -356
l-4 -194q0 -254 96 -347q7 -12 7 -24z" />
    <glyph glyph-name="u09a4_u09cd.half_u09a4_u09b0_u09cd.blwf.vatu.pres" horiz-adv-x="1443" 
d="M-27 1378h1465v-129h-1465v129zM1252 387q0 -138 -111 -231q-47 -40 -106 -63v-242q0 -47 -74 -47q-26 0 -32 13q-37 77 -105 77q-39 0 -123 -34q-194 -80 -270 -80q-125 0 -233 149q-1 41 13 55q7 7 19 7q21 0 54 -21q53 -98 137 -98q43 0 119 31l139 57q108 39 139 39
q49 0 111 -37v105q-35 -4 -74 -4q-160 0 -356 150q-81 63 -142 131q-225 254 -321 729q-4 45 19 60q11 8 30 8q39 0 64 -43l86 -303q53 -160 145 -285q240 -324 498 -324q47 0 94 11q158 36 158 192q0 115 -95 176q-67 29 -67 70q0 35 45 84q59 51 59 129q0 92 -71 157
q-64 58 -152 58q-31 0 -61 -8q-123 -64 -123 -185q0 -55 26 -129q3 -43 -23 -58q-13 -7 -34 -7q-31 0 -49 24q-41 74 -41 158q0 132 86 226q88 96 217 96q138 0 239 -93l30 -32q75 -89 75 -201q0 -109 -72 -197q133 -116 133 -270z" />
    <glyph glyph-name="u0995_u09cd.half_u0995.pres" horiz-adv-x="1196" 
d="M596 115v334l-312 -123zM1045 942q0 -121 -59 -195q-42 -54 -104 -57q-47 6 -47 53q0 29 22 50q47 8 71 70q13 32 13 69q0 43 -18 82q-66 88 -164 88q-15 0 -31 -2v-451q0 -15 -5 -26v-78q57 1 113 -16q27 -9 54 -22q150 -73 150 -237q0 -118 -58 -192q-43 -56 -106 -59
q-47 6 -47 53q0 28 23 49q46 8 70 68q14 34 14 71q0 43 -19 82q-69 93 -186 88h-8v-424q0 -39 -78 -39q-31 0 -47 13l-477 319q-23 14 -23 41q0 29 33 43l467 201v16l-513 279q-43 22 -43 82q0 20 10 34l549 203v51h-612v129h1212v-129h-473v-32q126 9 221 -70
q22 -18 40 -39q15 -19 26 -39q30 -47 30 -127zM598 729l1 15q1 1 2 1v328l-381 -147z" />
    <glyph glyph-name="u0995_u09cd.half_u099f.pres" horiz-adv-x="1134" 
d="M538 1001l-297 -118l237 -189q37 86 60 307zM525 201q99 0 176 71q76 71 76 164q0 29 -8 56q25 26 55 26q31 0 56 -22q8 -41 8 -80q0 -173 -153 -268q-62 -39 -140 -58q-41 -10 -80 -10q-182 0 -295 190q-18 31 -18 58q0 32 22 61q142 76 205 191l-348 272q-17 14 -17 37
q0 47 41 63l433 176v121h-549v129h757q11 79 -78 111q-45 16 -116 20q-369 21 -399 29q-218 54 -215 278v5q18 37 55 37q33 0 57 -27q0 -143 111 -184q56 -21 149 -21l234 8q206 0 279 -100q42 -58 50 -156h263v-129h-471v-98q148 -20 238 -108q77 -77 77 -181
q0 -102 -80 -217q-43 -2 -70 20q-18 16 -18 37q0 11 6 21q49 82 49 145q0 127 -202 168q2 -24 2 -51q0 -182 -88 -379q-101 -223 -248 -291q73 -114 194 -114z" />
    <glyph glyph-name="u0995_u09cd.half_u09a4.pres" horiz-adv-x="1829" 
d="M847 1180q138 0 239 -94q85 -78 101 -183l58 60q86 77 206 57q105 -17 170 -95q52 -63 52 -143q0 -26 -6 -51q-50 -185 -273 -178h-8q-30 16 -30 47q0 39 39 55q97 -10 142 47q26 32 26 80q0 21 -5 39q-49 80 -124 80q-94 0 -209 -120q-45 -47 -74 -93l-2 11
q-13 -21 -30 -42q133 -116 133 -270q0 -150 -122 -241q-111 -83 -275 -83q-160 0 -356 150q-81 63 -142 131q-225 254 -321 729q-4 45 19 60q11 8 30 8q39 0 64 -43l86 -303q53 -160 145 -285q240 -324 498 -324q47 0 94 11q158 36 158 192q0 115 -95 176q-67 29 -67 70
q0 35 45 84q59 51 59 129q0 92 -71 157q-64 58 -152 58q-31 0 -61 -8q-123 -64 -123 -185q0 -55 26 -129q3 -43 -23 -58q-13 -7 -34 -7q-31 0 -49 24q-41 74 -41 158q0 132 86 226q88 96 217 96zM1831 1249h-1858v129h1858v-129z" />
    <glyph glyph-name="u0995_u09cd.half_u09a8.pres" horiz-adv-x="1198" 
d="M298 600q133 0 235 -98q38 -35 62 -78v174l-516 281q-43 22 -43 82q0 20 10 34l549 203v51h-612v129h1212v-129h-473v-32q126 9 221 -70q22 -18 40 -39q15 -19 26 -39q30 -47 30 -127q0 -121 -59 -195q-42 -54 -104 -57q-47 6 -47 53q0 29 22 50q47 8 71 70q13 32 13 69
q0 43 -18 82q-66 88 -164 88q-15 0 -31 -2v-1041q0 -36 -70 -36q-57 0 -57 36q0 162 -2 183q-11 102 -64 155q-94 95 -196 95q-90 0 -150 -67q-47 -53 -47 -122q0 -117 141 -174q21 -8 21 -35q0 -59 -45 -59q-62 0 -138 88q-73 86 -90 171q-4 17 -4 32q0 65 37 131
q80 143 240 143zM595 727v346l-381 -147z" />
    <glyph glyph-name="u0995_u09cd.half_u09ae.pres" horiz-adv-x="1432" 
d="M600 727v346l-381 -147zM456 324q0 109 70 186q33 37 74 53v35l-516 281q-43 22 -43 82q0 20 10 34l549 203v51h-612v129h1435v-129h-156v-1126q0 -39 -61 -39q-66 0 -66 39v84q0 53 -125 149q-135 105 -251 105q-95 0 -147 -70q-34 -45 -34 -104q0 -133 148 -142
q24 -20 24 -57q0 -45 -39 -61q-99 11 -150 55q-25 21 -56 63q-54 88 -54 179zM1044 942q0 -121 -59 -195q-42 -54 -104 -57q-47 6 -47 53q0 29 22 50q47 8 71 70q13 32 13 69q0 43 -18 82q-66 88 -164 88q-15 0 -31 -2v-522q136 13 267 -68q109 -66 146 -156v895h-413v-32
q126 9 221 -70q22 -18 40 -39q15 -19 26 -39q30 -47 30 -127z" />
    <glyph glyph-name="u0995_u09cd.half_u09b0.pres" horiz-adv-x="1193" 
d="M1039 942q0 -121 -59 -195q-42 -54 -104 -57q-47 6 -47 53q0 29 22 50q47 8 71 70q13 32 13 69q0 43 -18 82q-66 88 -164 88q-15 0 -31 -2v-451q0 -15 -5 -26v-524q0 -28 -64 -28q-63 0 -63 28q0 140 -54 249q-53 110 -120 110q-54 0 -101 -74q-14 -21 -41 -21
q-30 0 -55 25q-39 109 -158 109q-84 0 -129 -71q-41 -64 -20 -134q14 -45 53 -72l12 -8q57 -32 146 -29h8q29 -12 29 -51q0 -49 -33 -59q-15 -4 -43 -4q-122 0 -207 80q-82 77 -82 186q0 106 78 190t184 86q115 0 215 -94q58 68 123 68q111 0 195 -156v172l-511 278
q-43 22 -43 82q0 20 10 34l549 203v51h-612v129h1212v-129h-473v-32q126 9 221 -70q22 -18 40 -39q15 -19 26 -39q30 -47 30 -127zM595 815v258l-381 -147l376 -196v82z" />
    <glyph glyph-name="u0995_u09cd.half_u09b8.pres" horiz-adv-x="1528" 
d="M627 465v563l-394 -242zM1143 848q0 -129 -78 -208q-47 -48 -113 -60q-45 0 -66 38q-9 15 -9 33q0 47 51 60q90 22 90 139q0 88 -64 149q-71 74 -200 74v-706q164 96 264 96q112 0 225 -105v891h-489v-41q185 -4 293 -114l29 -33q67 -89 67 -213zM113 350q0 34 37 53
q16 9 34 9q29 0 41 -23q88 -194 183 -194q73 0 219 98l-543 452q-23 19 -23 50q0 34 29 53l537 334v67h-639v129h1538v-129h-156v-1155q0 -28 -42 -43q-18 -6 -36 -6q-41 0 -49 27q-84 258 -217 258q-57 0 -143 -43q-37 -19 -174 -101q-185 -108 -306 -108q-186 0 -286 254
q-4 10 -4 18z" />
    <glyph glyph-name="kassa_u09cd.half_u09a8.pres" horiz-adv-x="1707" 
d="M832 1249q-28 -30 -28 -61q0 -84 198 -176v237h-170zM1002 272v609q-321 143 -321 303q0 30 12 65h-344q37 -59 37 -127q0 -30 -8 -69q137 -17 238 -110q110 -102 110 -241q0 -75 -37 -151zM788 6q-60 0 -90 -45q-15 -22 -15 -50q0 -61 72 -110q12 -8 12 -29
q0 -55 -37 -55q-6 0 -14 4q-137 74 -137 215q0 93 80 138q46 26 108 26q137 0 234 -113v103q-5 2 -9 6l-387 357q-77 -74 -192 -136q-40 7 -61 42q-9 16 -9 32q0 19 13 31q235 132 235 278q0 94 -73 166q-68 68 -156 68q-23 0 -43 -6q-64 -101 -189 -174q-52 -4 -69 24
q-9 13 -9 35q0 14 9 27q74 37 137 116q67 84 67 160q0 101 -124 133h-162v129h1726v-129h-586v-284q179 -60 295 -154q127 -102 127 -203q0 -133 -221 -229q-30 -8 -51 26q-12 19 -12 39q0 15 4 27q149 66 149 143q0 121 -291 222l1 -516l8 -99v-482q0 -36 -62 -36
q-65 0 -65 41q0 118 -33 157q-88 105 -180 105z" />
    <glyph glyph-name="kassa_u09cd.half_u09ae.pres" horiz-adv-x="1538" 
d="M1093 678q-61 -7 -91 25q-19 21 -12 51q68 41 68 92q0 69 -119 123v-348q45 8 80 8q127 0 240 -131v751h-320v-157q124 -31 191 -114q49 -61 49 -134q0 -90 -86 -166zM501 901q0 64 -64 105q-46 28 -100 28q-27 0 -53 -8q-103 -88 -158 -125q-72 6 -72 70q0 16 7 33
q66 19 116 75q41 45 41 90q0 62 -88 80h-151v129h1562v-129h-155v-1138q0 -41 -60 -41q-51 0 -67 26q0 105 -13 154q-31 125 -105 202q-62 64 -134 64q-73 0 -128 -56q-48 -49 -48 -110q0 -74 55 -122q39 -35 90 -35q12 0 25 2q22 -9 22 -35q0 -47 -41 -80q-121 0 -198 86
q-66 74 -66 178q0 92 57 170l-247 203q-58 -47 -164 -92q-62 20 -62 73q0 19 15 33q184 64 184 170zM812 1249h-139q-4 -14 -4 -26q0 -80 143 -109v135zM550 1249h-231q20 -35 20 -100q98 0 185 -72q22 -19 40 -40q58 -70 58 -148q0 -41 -19 -80l209 -166v350
q-176 49 -231 125q-40 55 -31 131z" />
    <glyph glyph-name="u0997_u09cd.half_u0997.pres" horiz-adv-x="1043" 
d="M447 993q0 -109 -113 -211q-45 -40 -96 -67q-36 -8 -61 19q-15 16 -15 38q0 16 10 35q146 84 146 184q0 76 -76 76q-47 0 -102 -43q-13 -4 -25 -4q-57 0 -68 57q26 141 145 222q104 71 245 67q140 -5 219 -53q42 -25 102 -82q0 70 49 115q34 32 78 32h156v-129h-156v-466
h3v-697q0 -41 -70 -41q-57 0 -57 35v213q0 95 -89 181q-90 86 -203 101q-19 3 -38 3q-125 0 -213 -107q29 8 59 8q64 0 107 -32q96 -76 96 -193q0 -72 -48 -130q-43 -52 -99 -52q-34 0 -54 34q-10 15 -10 31q0 19 14 29q64 41 64 103q0 54 -33 89q-20 21 -45 21
q-35 0 -104 -51q-21 -8 -37 -8q-47 0 -55 59q24 148 119 223q59 48 182 93q28 10 65 10q96 0 189 -53q104 -60 133 -154v94h-3v307q0 143 -44 216q-23 37 -63 72q-87 75 -200 75q-109 0 -242 -88q238 -19 238 -181z" />
    <glyph glyph-name="u0997_u09cd.half_u09a4.pres" horiz-adv-x="1060" 
d="M465 993q0 -109 -113 -211q-45 -40 -96 -67q-36 -8 -61 19q-15 16 -15 38q0 16 10 35q146 84 146 184q0 76 -76 76q-47 0 -102 -43q-13 -4 -25 -4q-57 0 -68 57q26 141 145 222q104 71 245 67q140 -5 219 -53q42 -25 102 -82q0 70 49 115q34 32 78 32h156v-129h-156v-589
q74 -64 101 -179q11 -44 11 -87q0 -96 -43 -163q-121 -191 -352 -191q-183 0 -363 116t-266 290q-1 41 24 55q14 8 35 8q23 0 49 -12q68 -146 217 -239q148 -93 295 -93q142 0 226 88q51 55 51 154q0 143 -99 185h-13v2q-141 13 -154 -181q-13 -33 -50 -33q-39 0 -69 33
q-8 153 93 238q64 53 157 63q12 0 23 -1v186q0 143 -44 216q-23 37 -63 72q-87 75 -200 75q-109 0 -242 -88q238 -19 238 -181z" />
    <glyph glyph-name="u0997_u09cd.half_u09a6.pres" horiz-adv-x="1329" 
d="M425 993q0 -109 -113 -211q-45 -40 -96 -67q-36 -8 -61 19q-15 16 -15 38q0 16 10 35q146 84 146 184q0 76 -76 76q-47 0 -102 -43q-13 -4 -25 -4q-57 0 -68 57q26 141 145 222q104 71 245 67q140 -5 219 -53q42 -25 102 -82q0 30 11 57q-1 42 25 61q13 10 34 14
q26 15 57 15h156v-13h306v-117q-23 -1 -193 3l-99 -1q-7 0 -14 -1h-156v-457q52 64 149 141q153 121 226 104q54 -2 52 -67q-80 -257 -80 -424q0 -181 84 -368q7 -46 -44 -55l-31 -1q-4 0 -9 1q-95 198 -95 409q0 162 56 370q-173 -80 -308 -258v-52h-127v307q0 143 -44 216
q-23 37 -63 72q-87 75 -200 75q-109 0 -242 -88q238 -19 238 -181z" />
    <glyph glyph-name="u0997_u09cd.half_u09a7.pres" horiz-adv-x="1282" 
d="M729 613l-236 -133l236 -188v321zM420 993q0 -109 -113 -211q-45 -40 -96 -67q-36 -8 -61 19q-15 16 -15 38q0 16 10 35q146 84 146 184q0 76 -76 76q-47 0 -102 -43q-13 -4 -25 -4q-57 0 -68 57q26 141 145 222q104 71 245 67q140 -5 219 -53q42 -25 102 -82
q0 70 49 115q34 32 78 32h420v-129h-420v-442q60 25 108 25q75 0 94 -69l7 -43l2 -52l-17 -278q0 -152 47 -162l60 -4q26 -12 26 -43t-28 -61q-90 -5 -123 12q-88 41 -88 252l15 278q0 23 -1 37q0 16 -45 16q-48 0 -57 -21v-102h-2v-407q0 -49 -82 -49q-31 0 -45 10
l-361 293q-39 31 -39 63q0 23 25 37l375 203v148h2v9q0 143 -44 216q-23 37 -63 72q-87 75 -200 75q-109 0 -242 -88q238 -19 238 -181z" />
    <glyph glyph-name="u0997_u09cd.half_u09a8.pres" horiz-adv-x="1026" 
d="M437 655q133 0 235 -98l32 -34q17 -21 30 -44v367l2 1v52q0 143 -44 216q-23 37 -63 72q-87 75 -200 75q-109 0 -242 -88q238 -19 238 -181q0 -109 -113 -211q-45 -40 -96 -67q-36 -8 -61 19q-15 16 -15 38q0 16 10 35q146 84 146 184q0 76 -76 76q-47 0 -102 -43
q-13 -4 -25 -4q-57 0 -68 57q26 141 145 222q104 71 245 67q140 -5 219 -53q42 -25 102 -82q0 70 49 115q34 32 78 32h156v-129h-156v-657h-2v-478q0 -36 -70 -36q-57 0 -57 36q0 162 -2 183q-11 102 -64 155q-94 95 -196 95q-90 0 -150 -67q-47 -53 -47 -122
q0 -117 141 -174q21 -8 21 -35q0 -59 -45 -59q-62 0 -138 88q-73 86 -90 171q-4 17 -4 32q0 65 37 131q80 143 240 143z" />
    <glyph glyph-name="u0997_u09cd.half_u09ae.pres" horiz-adv-x="1464" 
d="M838 842q3 -7 3 -15v-204q144 0 256 -119q47 -50 77 -111v856h-336v-407zM843 496q-86 0 -120 -77q-15 -35 -15 -79q0 -97 72 -136q30 -16 67 -18q28 -2 28 -51q0 -70 -41 -67q-100 10 -150 53q-26 21 -58 65q-52 105 -52 195q0 149 137 221v297q0 143 -44 216
q-23 37 -63 72q-87 75 -200 75q-109 0 -242 -88q238 -19 238 -181q0 -109 -113 -211q-45 -40 -96 -67q-36 -8 -61 19q-15 16 -15 38q0 16 10 35q146 84 146 184q0 76 -76 76q-47 0 -102 -43q-13 -4 -25 -4q-57 0 -68 57q26 141 145 222q104 71 245 67q140 -5 219 -53
q42 -25 102 -82q0 70 49 115q34 32 78 32h619v-129h-156v-1126q0 -37 -57 -37q-70 0 -70 39v123q0 49 -106 143q-119 105 -225 105z" />
    <glyph glyph-name="u0997_u09cd.half_u09b0.pres" horiz-adv-x="1057" 
d="M461 993q0 -109 -113 -211q-45 -40 -96 -67q-36 -8 -61 19q-15 16 -15 38q0 16 10 35q146 84 146 184q0 76 -76 76q-47 0 -102 -43q-13 -4 -25 -4q-57 0 -68 57q26 141 145 222q104 71 245 67q140 -5 219 -53q42 -25 102 -82q0 70 49 115q34 32 78 32h156v-129h-156v-657
h-7v-463q0 -28 -64 -28q-63 0 -63 28q0 140 -53 249q-54 110 -121 110q-54 0 -101 -74q-14 -21 -41 -21q-30 0 -55 25q-39 109 -158 109q-84 0 -129 -71q-41 -64 -20 -134q14 -45 53 -72l12 -8q57 -32 146 -29h8q29 -12 29 -51q0 -49 -33 -59q-15 -4 -43 -4q-122 0 -207 80
q-82 77 -82 186q0 106 78 190t184 86q115 0 215 -94q58 68 123 68q111 0 195 -156v383l7 5v52q0 143 -44 216q-23 37 -63 72q-87 75 -200 75q-109 0 -242 -88q238 -19 238 -181z" />
    <glyph glyph-name="u0999_u09cd.half_u0995.pres" horiz-adv-x="1187" 
d="M587 252v493l-328 -192zM841 1071q67 0 104 43q19 23 19 49q0 39 -37 86h-297q38 -87 108 -139q51 -39 103 -39zM222 1249l60 -59q28 6 59 6q96 0 199 -57l-49 110h-269zM345 1073q-94 0 -140 -56l-14 -23q-12 -25 -12 -54q0 -12 2 -27q-10 -28 -47 -28q-51 0 -74 41
q2 139 105 217l-107 106h-82v129h1201v-129h-99q17 -35 17 -78q0 -96 -71 -168q-66 -67 -153 -67q-67 0 -200 84l43 -107q159 -6 243 -94q76 -76 76 -188q0 -115 -72 -193q-50 -54 -118 -65q-31 -9 -44 29q-5 13 -5 28q0 33 20 53q57 0 84 65q14 32 14 70q0 105 -90 150
q-46 24 -108 25v-676q0 -34 -47 -51q-19 -7 -39 -7q-27 0 -41 13l-467 444q-19 16 -19 45q0 37 27 51l459 273q-24 104 -113 155q-58 33 -129 33z" />
    <glyph glyph-name="u0999_u09cd.half_u0996.pres" horiz-adv-x="1640" 
d="M505 1153q56 0 93 36q22 21 22 44q0 20 -25 35q-80 0 -112 -41q-15 -19 -31 -62q24 -12 53 -12zM523 621q86 0 150 63q57 56 57 129q0 43 -24 82q-13 8 -27 8q-25 0 -246 -104q-137 96 -137 233q0 94 66 217h-379v129h635q41 0 80 -53q36 -49 36 -98q0 -77 -78 -133
q-64 -47 -133 -47q-32 0 -98 12q-7 -46 3 -76q4 -15 13 -25q50 11 152 50q94 39 125 43q102 -78 127 -177q82 13 119 117q18 53 67 53q21 0 33 -12q133 -94 133 -260q0 -135 -89 -238q-52 -61 -120 -88l367 -217v1020q0 129 129 129h153v-129h-155v-1118q0 -63 -86 -63
q-25 0 -41 10l-529 325q-24 23 -24 50q0 34 39 59q237 92 237 242q0 57 -30 125q-47 -93 -207 -134q-32 -119 -125 -189q-93 -71 -209 -56q-203 23 -337 256q-99 171 -134 405q16 35 57 35q33 0 62 -25q43 -198 78 -274q65 -149 208 -256q39 -20 82 -20z" />
    <glyph glyph-name="u0999_u09cd_u0997.akhn" horiz-adv-x="1185" 
d="M1010 1249h-387q28 -82 118 -125q71 -42 159 -49q113 -8 131 64q3 12 3 26q0 37 -24 84zM362 1024q-79 0 -136 -67q-61 -70 -48 -158q-20 -27 -57 -27q-39 0 -60 31q-4 135 63 219q34 42 87 72l-107 155h-116v129h1194v-129h-39q10 -30 10 -71q0 -160 -149 -211
q22 -23 67 -60q-88 -235 -88 -454q0 -168 64 -408q8 -25 -38 -45q-24 -10 -44 -10q-23 0 -27 14q-74 275 -74 488q0 149 37 264l-426 -353q-119 -98 -209 -98q-102 0 -178 127q-6 19 -6 35q0 49 47 49q23 0 53 -16q56 -78 105 -78q37 0 92 51l110 102l43 155q13 57 13 95
q0 49 -19 93q-69 106 -164 106zM961 963q-35 -7 -68 -7q-177 0 -309 145q-60 65 -97 148h-235l78 -110q147 16 243 -84q89 -92 89 -234q0 -61 -19 -121z" />
    <glyph glyph-name="u099a_u09cd.half_u099b.pres" horiz-adv-x="1743" 
d="M819 1069v-405q0 -52 49 -52q84 0 216 110q161 133 110 208q-8 13 -23 24l-29 16q-37 16 -96 25q-176 27 -227 74zM601 903q-8 68 -160 90q-182 29 -233 76v-508q29 -49 76 -49q92 0 211 158q111 147 106 229v4zM1585 797q0 -165 -118 -322q-66 -86 -144 -137
q-58 -35 -152 -64q240 -13 495 -138q92 -46 165 -97q12 -27 12 -47q0 -52 -70 -49h-8q-213 148 -497 204q-169 33 -416 46q-31 26 -31 67q0 33 27 47q161 19 217 33q108 29 192 98q85 57 150 159q69 108 69 204q0 139 -159 182q4 -25 4 -49q0 -170 -166 -301
q-152 -121 -307 -121q-156 0 -156 139v143q-34 -114 -128 -223q-149 -172 -295 -172q-157 0 -188 232v618h-94v129h807v-2q12 2 25 2h922v-129h-922q0 -78 163 -119q103 -26 210 -26q49 0 78 6q185 -12 266 -134q49 -74 49 -179zM693 1249h-485q0 -78 157 -120
q128 -35 261 -27q15 5 49 -40l17 -28v197q0 9 1 18z" />
    <glyph glyph-name="u099a_u09cd.half_u099e.pres" horiz-adv-x="1297" 
d="M1292 127q0 62 -62 103q-46 30 -102 30q-49 12 -49 55q0 39 37 58q79 7 123 61q27 34 27 74q0 94 -125 94q-80 -18 -127 -123q-40 -85 -37 -166v-6q78 -162 113 -203q38 -49 106 -55q96 4 96 78zM604 903q-8 66 -160 90q-184 27 -235 76v-467q31 -53 82 -53q94 0 209 137
q110 133 105 212q-1 2 -1 5zM1182 725q72 0 136 -68q68 -73 68 -159q0 -95 -92 -172q113 -82 113 -197q0 -133 -145 -190q-64 -5 -114 8l-38 14l-8 4q-55 29 -125 111v-107h-127q-92 84 -229 84q-52 0 -99 -14q-73 -33 -143 -33q-127 0 -207 103q-78 96 -78 235q0 37 6 74
q35 31 64 31t53 -39q-6 -33 -6 -66q0 -130 71 -186q39 -31 95 -31q55 0 125 33q49 12 100 12q129 0 248 -68v449q0 29 -64 29q-86 0 -160 -52q-67 -48 -67 -106q0 -43 31 -94q5 -37 -27 -59q-17 -11 -37 -11q-24 0 -43 19q-49 88 -49 159q0 35 10 66q-92 -64 -174 -64
q-157 0 -188 232v577h-94v129h1308v-129h-1087q0 -74 153 -117q129 -37 259 -30h8q8 3 24 -12l17 -19q47 -55 47 -145q0 -115 -119 -275q131 54 201 62q97 11 145 -34l16 -18q17 -26 17 -63q100 127 205 127z" />
    <glyph glyph-name="u099c_u09cd.half_u099c.pres" horiz-adv-x="2288" 
d="M735 1251q-131 -31 -207 -127q-63 -79 -63 -180q0 -121 98 -221l279 111q68 5 126 -43q29 -24 56 -62q76 -104 76 -219q0 -45 -16 -78q171 -246 428 -239h8q109 21 177 101q56 66 56 148q0 111 -108 185q-37 -11 -172 -66q-105 -45 -172 -45q-234 133 -234 283
q0 84 68 188zM1866 442q0 -155 -115 -263q-106 -99 -256 -108q-13 -1 -26 -1q-252 0 -443 241q-143 -157 -313 -157q-37 0 -74 6q-446 76 -608 909q14 47 65 47q35 0 56 -33q28 -256 160 -501q165 -308 385 -308q145 0 227 108q51 67 51 144q0 119 -111 185q-40 -6 -148 -57
q-108 -52 -159 -52q-37 0 -65 21q-150 135 -150 313q0 174 142 313h-506v129h2307v-129h-1355l274 -180q150 102 144 102q-7 0 64 -30q36 -16 91 -39q480 -203 693 -203q41 -20 41 -68q0 -14 -4 -28q-166 -221 -166 -424q0 -121 65 -299q4 -10 4 -21q0 -45 -61 -45
q-47 0 -60 31q-65 162 -65 315q0 226 141 447q-81 3 -518 176l-174 72q-18 5 -58 -32q-20 -18 -46 -48q-88 -96 -88 -180q0 -101 131 -154q24 8 155 61q96 39 164 48q104 -28 163 -131q46 -79 46 -177z" />
    <glyph glyph-name="u099c_u09cd.half_u099d.pres" horiz-adv-x="1540" 
d="M999 477l-163 -88l163 -141v229zM1245 281v968h-356l188 -139q49 -37 49 -74v-669zM502 891q157 53 239 88q30 4 54 -8q12 -6 23 -17q75 -71 101 -125q25 -53 25 -114q0 -68 -31 -123l86 39v383l-323 239q-73 -11 -142 -93q-74 -95 -77 -183q0 -62 45 -86zM596 498
q82 0 160 64q84 76 88 159q0 76 -82 135q-5 -1 -157 -59q-72 -28 -99 -33q-47 0 -121 65q-53 82 -53 166q0 121 110 254h-464v129h1560v-129h-166v-1089q0 -29 -53 -41q-16 -4 -33 -4q-26 0 -41 12l-119 98v-112q0 -29 -47 -44q-20 -6 -39 -6q-26 0 -41 13l-309 278l4 45
q-45 -8 -86 -8q-248 0 -401 260q-109 185 -146 455q11 37 52 37q30 0 61 -19q12 -233 137 -426q129 -200 285 -200z" />
    <glyph glyph-name="u099e_u09cd_u099a.akhn" horiz-adv-x="1559" 
d="M758 948l-475 -291l475 -413v704zM885 1350v-1241q0 -48 -88 -48q-29 0 -39 11l-621 551q-18 16 -18 47q0 35 24 49l615 366q-176 152 -350 152q-126 0 -186 -78q-36 -47 -36 -110q0 -76 50 -146q-31 -63 -78 -63q-15 0 -31 8q-66 98 -66 201q0 170 156 256q64 34 150 34
q176 0 391 -131v142q0 36 63 36q64 0 64 -36zM1420 720q129 -84 129 -223q0 -155 -170 -201q-26 -4 -53 -4q-258 0 -440 383v113q73 156 129 225q110 135 256 144q111 -9 187 -85q67 -68 67 -157q0 -109 -105 -195zM1412 514q0 59 -66 105q-53 36 -112 36q-49 27 -49 61
q0 35 41 60q78 9 127 65q34 40 34 88q0 102 -133 101q-78 0 -153 -113q-19 -27 -103 -184q52 -132 141 -225q90 -93 179 -93q16 0 33 4q61 39 61 95z" />
    <glyph glyph-name="u099e_u09cd.half_u099b.pres" horiz-adv-x="1209" 
d="M465 848h-4q-117 -76 -277 -152q43 -102 174 -102q140 0 174 92q-59 70 -67 162zM1032 840q0 43 -46 75q-26 18 -52 21q-53 12 -53 72q0 39 39 65q62 5 95 48q17 22 17 48q0 72 -108 74q-43 -4 -129 -67.5t-111 -112.5q58 -162 144 -242q68 -63 139 -53q65 25 65 72z
M492 301q96 0 179 50q85 50 85 120t-123 133q-113 -135 -264 -135q-112 0 -206 60q-102 66 -102 159q0 35 19 72q26 31 170 108q168 95 231 142q124 91 100 163q-11 34 -57 57q-49 25 -131 34q-83 8 -139 -53q-45 -49 -45 -115q0 -68 55 -90q4 -9 4 -17q0 -31 -35 -58
q-22 -16 -43 -16q-10 0 -20 7q-84 65 -84 168q0 102 72 192q74 92 169 101q8 1 17 1q148 0 246 -59q20 -12 94 -82q139 121 254 121q101 0 162 -78q45 -57 45 -127q0 -92 -72 -149q92 -66 92 -160q0 -89 -74 -151q-61 -52 -139 -52q-221 0 -354 305q-23 -34 -23 -69
q0 -60 64 -127q35 -37 125 -105q74 -55 82 -76q35 -55 35 -116q0 -108 -99 -190q-38 -32 -82 -50q134 -63 252 -137q60 -37 238 -160q29 -26 29 -59q0 -56 -56 -56q-18 0 -39 11q-270 180 -340 221q-180 102 -372 147q-27 17 -27 47q0 46 47 72q31 -4 60 -4z" />
    <glyph glyph-name="u099e_u09cd.half_u099c.pres" horiz-adv-x="1388" 
d="M1125 1260q-84 4 -154 -32q-36 -18 -67 -46q-80 -73 -71 -124l2 -7q19 -120 96 -215q84 -105 190 -105q17 0 33 2q84 33 84 86q0 78 -145 107q-39 4 -39 51t35 63q92 22 135 77q22 29 22 61q0 75 -121 82zM189 1065q0 164 126 250q98 67 245 67q166 0 256 -118
q144 129 318 114q107 -9 172 -84l21 -29q28 -48 28 -104q0 -104 -94 -174q96 -63 96 -172q0 -113 -103 -174q-32 -20 -57 -66q-57 -114 -57 -290q0 -154 114 -361q-18 -43 -92 -43q-10 0 -18 2q-125 223 -125 398q0 147 63 331q-158 46 -238 139q-58 67 -108 197
q-22 -35 -155 -133q-109 -84 -109 -141q0 -35 35 -72q27 10 141 74q84 47 146 47q16 0 34 -4q132 -111 132 -295q0 -148 -87 -248q-91 -105 -237 -99q-5 1 -10 1q-168 29 -259 105q-60 50 -122 149q-90 141 -137 297q-31 102 -68 319q16 51 53 51q29 0 64 -32
q61 -310 102 -406q84 -203 207 -299q84 -67 174 -67q131 0 179 111q22 50 22 116q0 115 -66 182q-41 -14 -143 -76q-80 -49 -123 -49q-88 0 -145 170q-11 29 -11 56q0 79 135 182q240 185 240 276q0 56 -74 86q-57 13 -108 13q-141 0 -204 -86l-18 -29l-12 -35
q-6 -25 -6 -53q0 -68 35 -137q-3 -25 -37 -44q-19 -10 -37 -10q-16 0 -32 11q-46 94 -46 186z" />
    <glyph glyph-name="u099e_u09cd.half_u099d.pres" horiz-adv-x="1407" 
d="M817 244v217l-182 -84zM1305 745q0 62 -62 104q-46 30 -102 30q-47 12 -47 55q0 39 36 57q79 7 123 61q27 34 27 74q0 95 -125 95q-84 -19 -151 -123q-61 -96 -60 -172q72 -146 135 -203q54 -49 129 -55q97 4 97 77zM180 963q0 -131 72 -187q39 -31 94 -31t125 33
q49 13 98 13q129 0 248 -68v448q0 91 -78 91q-43 0 -98 -27q-113 -53 -113 -131q0 -41 31 -94q5 -37 -27 -59l-19 -9q-8 -2 -17 -2q-25 0 -43 18q-50 91 -50 164q0 49 21 90q102 162 321 162q119 0 171 -69l15 -25q13 -28 13 -63q98 126 232 126q114 0 186 -108
q39 -59 39 -117q0 -96 -94 -174q116 -84 116 -199q0 -133 -143 -188v-330q0 -45 -63 -45q-39 0 -64 17l-209 147v-223q0 -51 -80 -51q-30 0 -47 12l-338 260q-24 18 -24 45q0 35 39 53l323 146q-92 84 -229 84q-51 0 -99 -15q-73 -32 -141 -32q-137 0 -218 112
q-67 93 -67 224q0 38 7 75q34 31 61 31q31 0 55 -39q-6 -33 -6 -65zM1153 557q-131 45 -209 137v-217l209 -145v225z" />
    <glyph glyph-name="u099f_u09cd.half_u099f.pres" horiz-adv-x="1076" 
d="M618 195q115 0 170 57q31 32 31 78q0 65 -71 139q-130 -125 -236 -116q-5 0 -10 1q-211 62 -211 254v641h-303v129h841q12 88 -93 114l-57 10l-101 6l-39 1q-183 4 -258 17q-156 26 -218 90t-77 215q6 29 47 29q33 0 59 -19q17 -136 115 -179q67 -29 228 -30h83
q219 -8 308 -48q80 -35 108 -107q16 -42 16 -99h127v-129h-659v-647q0 -70 53 -108q43 -29 78 -21q172 74 244 291q10 41 10 67q0 46 -29 78q-18 21 -86 74q-8 10 -8 23q0 33 41 55q21 11 43 12q160 -115 160 -239q0 -95 -99 -277q111 -98 111 -229q0 -141 -130 -206
q-84 -41 -204 -40q-280 5 -441 271q-63 104 -102 239q-8 27 39 42q21 7 41 7q29 0 33 -14q43 -150 76 -209q63 -112 179 -174q91 -49 191 -49z" />
    <glyph glyph-name="u09a1_u09cd.half_u09a1.pres" horiz-adv-x="2374" 
d="M1000 801q-20 52 -38 108q-13 23 -31 43q-107 -121 -143 -151q-91 -78 -183 -78q-135 20 -135 180v346h-495v129h2393v-129h-782v-526q14 -41 49 -41q55 0 145 88q80 80 156 193q12 20 41 20q43 0 78 -35q160 -151 160 -342q0 -98 -41 -217q-154 -313 -418 -317
q-205 -2 -396 151q-97 78 -163 176q-61 91 -116 206q-19 -64 -52 -120q-100 -172 -280 -172q-257 0 -469 270q-159 202 -247 486q-5 16 -9 31q-3 26 34 40q15 5 29 5q29 0 47 -19q60 -256 228 -471q182 -227 358 -227q109 0 192 87q91 95 91 235q0 26 -3 51zM939 1067
q2 0 3 1q19 17 46 17q31 0 51 -22l15 -47q4 -9 10 -15q39 -41 46 -145q67 -183 124 -281q67 -148 194 -256q150 -126 311 -126q168 0 281 151q76 102 76 240q0 153 -92 260q-138 -156 -178 -191q-113 -96 -228 -96q-139 21 -139 225v467h-862v-395q12 -33 39 -33
q43 0 115 72q65 63 125 154q30 20 63 20z" />
    <glyph glyph-name="u09a3_u09cd.half_u099f.pres" horiz-adv-x="1556" 
d="M188 1044q0 -102 75 -176q47 -46 106 -61q14 -25 14 -45q0 -39 -55 -62q-114 27 -192 125q-75 95 -75 211q0 88 50 168q110 180 305 180q168 0 303 -135q0 61 49 101q35 28 78 28h502q13 149 -135 189q-65 18 -173 18q-61 0 -262 -12q-264 34 -368 141q-96 99 -84 279
q22 26 59 26q35 0 61 -26q-31 -210 174 -270q93 -27 246 -27l277 6q189 -2 274 -134q50 -78 53 -190h86v-129h-710v-911q22 -160 112 -160q74 0 148 98q174 236 174 365q0 117 -127 203q-6 14 -6 28q0 54 78 54q178 -90 178 -289q0 -172 -123 -344t-281 -227q-24 -9 -49 -9
q-90 0 -162 90q-60 75 -69 164v633q0 160 -98 250q-80 74 -201 74q-49 0 -98 -15q-134 -71 -134 -209z" />
    <glyph glyph-name="u09a3_u09cd.half_u09a0.pres" horiz-adv-x="1273" 
d="M859 291q135 121 135 321q0 269 -202 516q19 -301 -162 -479q-91 -90 -232 -149q2 -157 89 -241q63 -62 157 -62q111 0 215 94zM69 1042q0 153 100 255q99 102 250 102q127 0 211 -68l-168 289q-107 203 -107 328q0 180 222 211q51 -9 51 -62q0 -29 -19 -53
q-131 -2 -131 -111q0 -110 151 -366l113 -189h527v-129h-416q264 -331 264 -647q0 -307 -282 -481q-78 -47 -166 -47q-164 0 -280 116q-116 115 -116 279q0 88 45 129q199 89 280 203q77 109 75 268q-44 143 -151 192q-58 28 -130 21q-107 -11 -166 -98l-20 -35
q-23 -51 -23 -111q0 -106 69 -163q36 -30 85 -37q22 -19 22 -47q0 -38 -30 -59q-11 -8 -23 -9q-125 30 -190 140q-47 78 -47 179z" />
    <glyph glyph-name="u09a3_u09cd.half_u09a1.pres" horiz-adv-x="1423" 
d="M666 1235q-116 0 -168 -84q-31 -51 -30 -123q28 -188 274 -203q23 -14 23 -53q0 -55 -35 -67q-194 16 -284 105q-52 50 -85 134q-10 45 -10 92q0 189 156 283q79 33 159 33q166 0 330 -144l4 105q2 47 64 47q14 0 30 -4q149 -86 232 -220q71 -112 71 -231
q0 -145 -112 -248q110 -92 110 -231q0 -134 -96 -234l-34 -31q-76 -62 -171 -75q-223 0 -346 37q-155 47 -305 184q-303 279 -410 803q7 45 56 45q28 0 53 -16q75 -332 195 -522q94 -150 249 -273q93 -73 241 -116q96 -29 177 -29q141 0 218 81q57 59 57 146q0 88 -61 137
l-27 16l-31 11l-8 2q-43 22 -43 55q0 29 28 53q142 70 142 205q0 162 -164 289l-17 -170q-20 -41 -61 -41q-27 0 -47 23q-74 145 -195 201q-61 28 -129 28z" />
    <glyph glyph-name="u09a4_u09cd.half_u09a5.pres" horiz-adv-x="1361" 
d="M843 999q0 -195 -128 -354q-53 -65 -118 -110l477 -316v1030q0 129 127 129h156v-129h-156v-1116q0 -78 -63 -78q-29 0 -64 23l-647 422q-23 14 -23 43q0 57 56 69q93 12 171 119q81 111 90 242q1 13 1 26q0 127 -80 205q-49 -69 -76 -141q-22 -43 -63 -43q-66 0 -68 82
q8 64 -42 110q-39 37 -93 37q-39 0 -82 -22q-70 -60 -70 -127q0 -99 109 -148q22 -22 22 -49q0 -55 -65 -55q-12 0 -27 4q-160 78 -160 244q0 172 193 260q41 12 80 12q123 0 223 -125q26 65 58 85q25 15 88 26q174 -129 174 -355z" />
    <glyph glyph-name="u09a4_u09cd.half_u09a8.pres" horiz-adv-x="933" 
d="M928 1249h-938v129h938v-129zM253 590q133 0 235 -98q38 -35 62 -78v264q-177 0 -339 156q-158 147 -182 321q-8 26 38 40q18 5 35 5q33 0 35 -20q8 -140 141 -266q134 -126 252 -126q19 0 36 3l111 72v-1q34 44 34 101q0 81 -72 143q-27 22 -64 22q-63 0 -104 -48
l-15 -23q-16 -31 -12 -66q5 -27 -17 -36l-23 -5h-7q-71 0 -71 92q0 87 75 146q63 51 146 51q121 0 204 -86q78 -81 78 -192q0 -126 -85 -209q-30 -29 -67 -47v-656q0 -36 -70 -36q-57 0 -57 36q0 162 -2 183q-11 102 -64 155q-94 95 -196 95q-90 0 -150 -67
q-47 -53 -47 -122q0 -117 141 -174q21 -8 21 -35q0 -58 -45 -59q-62 0 -138 88q-73 86 -90 171q-4 17 -4 32q0 65 37 131q80 143 240 143z" />
    <glyph glyph-name="u09a4_u09cd.half_u09ae.pres" horiz-adv-x="1412" 
d="M542 1239q121 0 204 -86q78 -81 78 -192q0 -76 -32 -138v-200q144 0 256 -119q47 -50 77 -111v856h-1140v129h1423v-129h-156v-1126q0 -37 -57 -37q-70 0 -70 39v123q0 49 -106 143q-119 105 -225 105q-86 0 -120 -77q-15 -35 -15 -79q0 -97 72 -136q30 -16 67 -18
q28 -2 28 -51q0 -70 -41 -67q-100 10 -150 53q-26 21 -58 65q-52 105 -52 195q0 151 140 223v98q-53 -24 -119 -24q-178 0 -340 156q-158 147 -182 321q-8 26 38 40q18 5 35 5q33 0 35 -20q8 -140 142 -266q133 -126 251 -126q82 0 137 62q44 49 44 113q0 81 -72 143
q-27 22 -64 22q-63 0 -104 -48l-15 -23q-16 -31 -12 -66q5 -27 -17 -36l-23 -5h-7q-71 0 -71 92q0 87 75 146q63 51 146 51z" />
    <glyph glyph-name="u09a6_u09cd.half_u09a6.pres" horiz-adv-x="1307" 
d="M165 518q-49 0 -76 24q-12 10 -12 23v684h-94v129h1321v-129h-1100v-522q170 186 207 217q127 111 262 125q48 4 64 -21l7 -17l1 -15q0 -15 -9 -29q-110 -203 -110 -358q0 -68 16 -142q189 312 469 351q42 5 56 -18l7 -17q1 -7 1 -15q0 -12 -4 -24q-89 -217 -89 -404
q0 -147 82 -458q9 -27 -33 -47q-21 -11 -40 -11q-23 0 -27 17q-92 366 -92 522q0 152 51 307q-217 -98 -346 -405q-29 -27 -57 -27q-31 0 -50 31q-59 205 -59 338q0 135 57 276q-98 -47 -198 -164l-166 -209q-10 -12 -39 -12z" />
    <glyph glyph-name="u09a6_u09cd.half_u09a7.pres" horiz-adv-x="1234" 
d="M646 643l-236 -133l236 -188v321zM863 414l15 278q0 23 -1 37q0 16 -45 16q-59 0 -59 -32v-498q0 -49 -82 -49q-31 0 -45 10l-361 293q-39 31 -39 63q0 23 25 37l374 202v124q0 143 -82 143q-84 0 -229 -133q-119 -110 -160 -178q-14 -4 -31 -4q-51 0 -65 41v485h-94v129
h1256v-129h-1035v-336q130 126 200 171q107 70 199 59q72 0 115 -70q53 -61 53 -145v-8q4 -9 0 -56q-1 -19 1 -28q61 26 110 26q75 0 94 -69l7 -43l2 -52l-17 -278q0 -152 47 -162l60 -4q26 -12 26 -43t-28 -61q-90 -5 -123 12q-88 41 -88 252z" />
    <glyph glyph-name="u09a6_u09cd.half_u09ae.pres" horiz-adv-x="1172" 
d="M888 1249h-684v-489q135 149 192 196q115 93 252 119q64 0 64 -61q0 -10 -2 -23q-82 -139 -82 -239q0 -62 24 -134q131 0 236 -122v753zM165 549q-47 0 -75 24q-13 12 -13 25v651h-94v129h1188v-129h-156v-1075q0 -72 -62 -72q-65 0 -65 72v66q-37 192 -184 256
q-31 14 -64 14q-77 0 -126 -60q-33 -39 -37 -88q-1 -15 1 -30q10 -74 39 -97q21 -17 100 -35q18 -5 27 -7q31 -13 31 -48q0 -49 -53 -63q-140 5 -208 102q-49 69 -46 170q6 168 172 244q-29 72 -29 166q0 88 33 149q-84 -48 -267 -264l-73 -88q-10 -12 -39 -12z" />
    <glyph glyph-name="u0998_u09cd.half_u09a8.pres" horiz-adv-x="1122" 
d="M617 91q-60 0 -90 -45q-15 -22 -15 -50q0 -61 72 -110q12 -8 12 -29q0 -55 -37 -55q-6 0 -14 4q-137 74 -137 215q0 93 80 138q46 26 108 26q137 0 234 -113v23l-695 493q-29 12 -29 41q0 20 19 43l160 188q-109 16 -173 99q-51 66 -51 153q0 68 35 137h-114v129h1136
v-129h-160v-1122q0 -5 -1 -10v-293q0 -36 -62 -36q-65 0 -65 41q0 118 -33 157q-88 105 -180 105zM176 1122q0 -71 63 -114q44 -31 101 -31l88 14q59 0 59 -59q0 -23 -16 -41l-209 -246l568 -396l-1 52q1 3 2 5v943h-567q-88 -49 -88 -127z" />
    <glyph glyph-name="u09a6_u09cd.half_u09ad.pres" horiz-adv-x="1238" 
d="M774 852q0 72 27 121q-78 -43 -154 -119q-26 -27 -125 -143q0 -63 50 -120q47 -54 104 -54q37 0 78 24q32 41 32 115zM522 1249v-370q125 127 160 155q84 66 197 99q38 5 62 -17q15 -15 15 -35q0 -5 -43 -141q-24 -76 -24 -125q0 -31 8 -59q163 -63 219 -200
q25 -60 25 -130q0 -148 -106 -248l-35 -29q-94 -68 -218 -71q-202 -4 -368 118q-83 61 -158 154q-123 154 -195 387q-3 35 23 48q14 6 35 6q28 0 49 -19q128 -394 377 -520q106 -54 231 -55q116 -2 188 78q58 65 58 157q0 123 -113 191l-8 -5q-12 -111 -91 -166
q-37 -26 -82 -33q-17 -3 -36 -3q-49 0 -104 22q-193 80 -193 273v538h-407v129h1246v-129h-712z" />
    <glyph glyph-name="u0995_u09ac_u09cd.blwf.blws" horiz-adv-x="1197" 
d="M591 205v354l-271 -143zM591 727v346l-381 -147zM1035 942q0 -121 -59 -195q-42 -54 -104 -57q-47 6 -47 53q0 29 22 50q47 8 71 70q13 32 13 69q0 43 -18 82q-66 88 -164 88q-15 0 -31 -2v-1004q0 -39 -78 -39q-31 0 -47 13l-396 319q-20 17 -20 41q0 27 31 43l313 163
l-446 243q-43 22 -43 82q0 20 10 34l549 203v51h-612v129h1212v-129h-473v-32q126 9 221 -70q22 -18 40 -39q15 -19 26 -39q30 -47 30 -127z" />
    <glyph glyph-name="u0997_u09ac_u09cd.blwf.blws" horiz-adv-x="1050" 
d="M761 190v354l-271 -143zM457 993q0 -109 -113 -211q-45 -40 -96 -67q-36 -8 -61 19q-15 16 -15 38q0 16 10 35q146 84 146 184q0 76 -76 76q-47 0 -102 -43q-13 -4 -25 -4q-57 0 -68 57q26 141 145 222q104 71 245 67q140 -5 219 -53q42 -25 102 -82q0 70 49 115
q34 32 78 32h156v-129h-156v-657h-7v-511q0 -39 -78 -39q-31 0 -47 13l-396 319q-20 17 -20 41q0 27 31 43l385 201v160l5 3v77q0 143 -44 216q-23 37 -63 72q-87 75 -200 75q-109 0 -242 -88q238 -19 238 -181z" />
    <glyph glyph-name="u099b_u09ac_u09cd.blwf.blws" horiz-adv-x="1255" 
d="M867 -222v237l-188 -100zM311 1074v-405q0 -52 49 -52q84 0 216 109q161 134 110 209q-32 48 -148 65q-176 27 -227 74zM1077 802q0 -165 -118 -322q-66 -86 -144 -137q-58 -35 -152 -64q240 -13 495 -138q92 -46 165 -97q12 -27 12 -47q0 -52 -70 -49h-8
q-123 86 -270 141q7 -10 7 -20v-348q0 -31 -49 -48q-23 -8 -45 -8q-21 0 -33 8l-323 224q-17 20 -17 28q0 9 37 29l303 168q3 2 7 3q-190 53 -484 70q-22 2 -46 3q-31 26 -31 67q0 33 27 47q161 19 217 33q108 29 192 98q85 57 150 159q69 108 69 204q0 139 -159 182
q4 -25 4 -49q0 -170 -166 -301q-152 -121 -307 -121q-156 0 -156 139v580l-18 13h-187v129h1274v-124h-942q0 -78 163 -119q103 -26 210 -26q49 0 78 6q185 -12 266 -134q49 -74 49 -179z" />
    <glyph glyph-name="u099c_u09ac_u09cd.blwf.blws" horiz-adv-x="1671" 
d="M1477 -135l-68 170l-115 -111zM1561 -31q45 -106 71 -176q-12 -47 -21 -56q-13 -10 -44 -5l-412 139q-27 37 -27 53q0 21 27 43l217 193q-43 127 -43 237q0 107 41 234q16 49 103 258l-590 368q-99 -49 -173 -147q-77 -101 -77 -201q0 -98 84 -147q2 0 192 78
q112 46 192 43h5q164 -119 164 -310q0 -221 -205 -335q-246 -136 -492 -25q-174 78 -299 254q-165 235 -213 590q-2 63 48 63q32 0 63 -35q23 -311 205 -559q188 -254 416 -254q145 0 274 115q84 76 84 188q0 115 -88 201q-37 -10 -184 -76q-113 -49 -187 -53
q-178 76 -178 256q0 178 150 346h-676v129h1689v-129h-571l465 -284q33 -9 33 -47q0 -17 -9 -29q-135 -320 -135 -527q0 -196 101 -393z" />
    <glyph glyph-name="u09a3_u09ac_u09cd.blwf.blws" horiz-adv-x="951" 
d="M673 145v354l-271 -143zM191 1004q0 -85 61 -143q53 -50 121 -46q20 -18 20 -49q0 -47 -49 -66q-132 23 -207 123q-59 79 -59 183q0 114 78 211q98 122 270 114q160 -6 242 -88v25q0 110 127 110h155v-129h-155v-397l5 3v-819q0 -39 -78 -39q-31 0 -47 13l-396 319
q-20 17 -20 41q0 27 31 43l378 197v408q-14 92 -100 151q-71 50 -158 50q-82 0 -142 -48q-77 -77 -77 -167z" />
    <glyph glyph-name="u09a4_u09ac_u09cd.blwf.blws" horiz-adv-x="928" 
d="M565 135v354l-271 -143zM928 1249h-938v129h938v-129zM547 1239q121 0 204 -86q78 -81 78 -192q0 -126 -84 -208q-24 -24 -53 -40v-687q0 -39 -78 -39q-31 0 -47 13l-396 319q-20 17 -20 41q0 27 31 43l385 201v74h-16q-178 0 -340 156q-158 147 -182 321q-8 26 38 40
q18 5 35 5q33 0 35 -20q8 -140 141 -266q134 -126 252 -126q82 0 137 62q44 49 44 113q0 81 -72 143q-27 22 -64 22q-63 0 -104 -48l-15 -23q-16 -31 -12 -66q5 -27 -17 -36l-23 -5h-7q-71 0 -71 92q0 87 75 146q63 51 146 51z" />
    <glyph glyph-name="u09a6_u09ac_u09cd.blwf.blws" horiz-adv-x="935" 
d="M646 165v354l-271 -143zM648 634l-3 22v1v238q0 143 -82 143q-84 0 -229 -133q-119 -110 -160 -178q-14 -4 -31 -4q-51 0 -65 41v485h-94v129h944v-129h-723v-336q130 126 200 171q107 70 199 59q72 0 115 -70q53 -61 53 -145v-54l1 1v-819q0 -39 -78 -39q-31 0 -47 13
l-396 319q-20 17 -20 41q0 27 31 43z" />
    <glyph glyph-name="u09a7_u09ac_u09cd.blwf.blws" horiz-adv-x="1690" 
d="M1408 262v762l-502 -313zM672 248v766l-502 -309zM799 1249v-466l609 372v94h-609zM18 1143q0 146 144 203q73 28 172 28q37 -10 37 -51q0 -53 -35 -70q-199 0 -199 -102q0 -23 10 -49q70 -119 209 -119q23 0 45 4l271 168v223h1018v-129h-155v-1122q-13 -47 -72 -47
q-33 0 -55 20l-609 555v-546q0 -33 -78 -33q-31 0 -49 10l-635 586q-13 14 -13 39q0 37 27 67l184 107q-160 71 -213 209q-4 24 -4 49z" />
    <glyph glyph-name="u09a8_u09ac_u09cd.blwf.blws" horiz-adv-x="905" 
d="M615 185v354l-271 -143zM192 952q0 -67 54 -118q25 -24 54 -33q8 -19 8 -37q0 -62 -51 -62q-92 36 -143 124q-37 62 -37 132q0 80 47 129q94 101 238 101q153 0 260 -105v166h-639v129h921v-129h-155v-653h-7v-520q0 -39 -78 -39q-31 0 -47 13l-396 319q-20 17 -20 41
q0 27 31 43l385 201v160l5 3v78q-16 92 -101 147q-65 41 -143 41q-102 0 -168 -73q-18 -23 -18 -58z" />
    <glyph glyph-name="u09aa_u09ac_u09cd.blwf.blws" horiz-adv-x="1108" 
d="M825 190v354l-271 -143zM631 1162q-98 99 -209 99t-199 -101l185 -221zM821 656v244q0 76 -47 134q-29 37 -65 44l-367 -360q-34 -5 -60 32q-18 24 -16 48l64 67l-174 203q-29 -47 -45 -78q-9 -10 -25 -10q-63 0 -70 66q159 317 420 317q101 0 172 -45q164 -106 213 -207
v133q0 61 49 101q34 28 78 28h156v-129h-156v-347l4 3v-819q0 -39 -78 -39q-31 0 -47 13l-396 319q-20 17 -20 41q0 27 31 43z" />
    <glyph glyph-name="u09ac_u09ac_u09cd.blwf.blws" horiz-adv-x="1712" 
d="M1425 262v762l-502 -313zM700 262v762l-502 -313zM827 1249v-460l598 366v94h-598zM827 644v-517q-13 -47 -72 -47q-33 0 -55 20l-637 580q-17 14 -17 41q0 35 21 47l633 387v94h-727v129h1734v-129h-155v-1122q-13 -47 -72 -47q-33 0 -55 20z" />
    <glyph glyph-name="u09b6_u09ac_u09cd.blwf.blws" horiz-adv-x="1110" 
d="M810 135v354l-271 -143zM571 1249q-65 0 -114 -55q-41 -45 -41 -98q0 -181 229 -189q12 -6 12 -33q0 -59 -22 -77q-213 -15 -303 147q-56 -106 -146 -139q-51 -19 -136 -15q-11 0 -23 1q-21 16 -21 53q0 39 17 59q184 10 223 162q12 83 -38 139q-33 36 -83 43
q-12 2 -127 2q-25 0 -25 68q0 61 25 61q133 0 176 -12q88 -29 156 -143q55 85 103 115q50 30 138 40q77 9 163 -32q66 -32 83 -72q0 38 49 75q40 29 78 29h156v-129h-156v-465q0 -11 -7 -17v-741q0 -39 -78 -39q-31 0 -47 13l-396 319q-20 17 -20 41q0 27 31 43l385 201v160
l10 6q-5 6 -5 14v332q0 69 -100 108q-67 25 -146 25z" />
    <glyph glyph-name="u09b8_u09ac_u09cd.blwf.blws" horiz-adv-x="1188" 
d="M885 235v354l-271 -143zM803 870q55 0 83 59q15 31 15 68q0 60 -33 109q-65 98 -110 143h-230q0 -24 33 -80l96 -176q78 -123 146 -123zM887 764q-45 -12 -84 -12q-103 0 -180 82q-58 61 -125 194q-168 -254 -279 -254q-82 0 -158 105q-9 39 28 63q29 18 63 10
q14 -55 45 -55q77 0 182 223q15 54 10 98q-2 16 -6 31h-395v129h1196v-129h-250l49 -80q61 -100 61 -196q0 -74 -32 -124v-723q0 -39 -78 -39q-31 0 -47 13l-396 319q-20 17 -20 41q0 27 31 43l385 201v60z" />
    <glyph glyph-name="u09a6_u09cd.half_u09a8.pres" horiz-adv-x="927" 
d="M343 565q133 0 235 -98q38 -35 62 -78v367l4 3v136q0 143 -82 143q-84 0 -229 -133q-119 -110 -160 -178q-14 -4 -31 -4q-51 0 -65 41v485h-94v129h944v-129h-723v-336q130 126 200 171q107 70 199 59q72 0 115 -70q53 -61 53 -145v-266q0 -9 -4 -15v-623q0 -36 -70 -36
q-57 0 -57 36q0 162 -2 183q-11 102 -64 155q-94 95 -196 95q-90 0 -150 -67q-47 -53 -47 -122q0 -117 141 -174q21 -8 21 -35q0 -59 -45 -59q-62 0 -138 88q-73 86 -90 171q-4 17 -4 32q0 65 37 131q80 143 240 143z" />
    <glyph glyph-name="u09a7_u09cd.half_u09a8.pres" horiz-adv-x="975" 
d="M696 248v766l-502 -309zM489 41q-60 0 -90 -45q-15 -22 -15 -50q0 -61 72 -110q12 -8 12 -29q0 -55 -37 -55q-6 0 -14 4q-137 74 -137 215q0 93 80 138q46 26 108 26q137 0 234 -113v61q-3 1 -6 3l-635 586q-13 14 -13 39q0 37 27 67l184 107q-161 71 -213 209
q-4 24 -4 49q0 146 144 203q73 28 172 28q37 -10 37 -51q0 -53 -35 -70q-199 0 -199 -102q0 -23 10 -49q70 -119 209 -119q23 0 45 4l271 168v94q0 129 127 129h155v-129h-155v-993h6v-482q0 -36 -62 -36q-65 0 -65 41q0 118 -33 157q-88 105 -180 105z" />
    <glyph glyph-name="u09a8_u09cd.half_u09a4.pres" horiz-adv-x="902" 
d="M190 952q0 -67 54 -118q25 -24 54 -33q8 -19 8 -37q0 -62 -51 -62q-92 36 -143 124q-37 62 -37 132q0 80 47 129q94 101 238 101q153 0 260 -105v166h-639v129h921v-129h-155v-569q77 -53 113 -164q19 -58 19 -117q0 -96 -43 -163q-121 -191 -352 -191q-183 0 -363 116
t-266 290q-1 41 24 55q14 8 35 8q23 0 49 -12q68 -146 217 -239q148 -93 295 -93q142 0 226 88q51 55 51 154q0 142 -96 184h-36v4q-122 -3 -134 -182q-13 -33 -50 -33q-39 0 -69 33q-8 153 93 238q64 53 157 63h3v176q-16 92 -101 147q-65 41 -143 41q-102 0 -168 -73
q-18 -23 -18 -58z" />
    <glyph glyph-name="u09a8_u09cd.half_u09a4_u09b0_u09cd.blwf.vatu.pres" horiz-adv-x="912" 
d="M272 105q11 0 136 21q42 7 58 7q80 0 164 -53v469q0 74 -22 78q-13 2 -27 2q-79 0 -125 -90l-17 -41q-14 -45 -14 -92q0 -33 8 -60q9 -26 -30 -44q-19 -9 -37 -9q-31 0 -39 23q-25 69 -25 137q0 143 93 225q75 68 188 68q23 0 43 -3v152q-16 92 -101 147q-65 41 -143 41
q-102 0 -168 -73q-18 -23 -18 -58q0 -67 54 -118q25 -24 54 -33q8 -19 8 -37q0 -62 -51 -62q-92 36 -143 124q-37 62 -37 132q0 80 47 129q94 101 238 101q153 0 260 -105v166h-639v129h921v-129h-155v-610q4 -30 4 -84v-610q0 -51 -74 -51q-37 0 -53 20q-80 101 -174 101
q-8 0 -137 -18q-40 -5 -56 -5q-105 0 -157 61q-17 21 -33 52q-41 80 -41 182q0 33 4 61q29 33 60 33q30 0 51 -33q-4 -32 -4 -63q0 -180 129 -180z" />
    <glyph glyph-name="u09a8_u09cd.half_u09a4.pres_u09c1.blws" horiz-adv-x="916" 
d="M347 449q0 115 87 183q57 44 134 51q28 0 54 -4v216q-16 92 -101 147q-65 41 -143 41q-102 0 -168 -73q-18 -23 -18 -58q0 -67 54 -118q25 -24 54 -33q8 -19 8 -37q0 -62 -51 -62q-92 36 -143 124q-37 62 -37 132q0 80 47 129q94 101 238 101q153 0 260 -105v166h-639
v129h921v-129h-155v-630q74 -66 81 -154v-14q0 -69 -43 -133q84 -82 84 -180q0 -116 -102 -184q-82 -54 -195 -54q-231 0 -403 253q-129 189 -187 452q2 45 57 45q37 0 54 -25q55 -217 168 -384q150 -219 331 -220q86 0 133 47q29 29 29 68q0 57 -65 110q-49 25 -49 64
q0 22 18 47q55 37 55 88q0 56 -53 94l-28 16q-25 11 -52 11q-12 0 -24 -2q-97 -35 -97 -117q0 -41 23 -90q-2 -53 -58 -53q-22 0 -49 14q-30 66 -30 131z" />
    <glyph glyph-name="u09a8_u09cd.half_u09a5.pres" horiz-adv-x="908" 
d="M197 952q0 -67 54 -118q25 -24 54 -33q8 -19 8 -37q0 -62 -51 -62q-92 36 -143 124q-37 62 -37 132q0 80 47 129q94 101 238 101q153 0 260 -105v166h-639v129h921v-129h-155v-653h-14q63 -80 63 -202q0 -23 -2 -45q-49 -168 -137 -222q-55 -34 -278 -80l487 -190
q4 -14 4 -29q0 -69 -65 -67l-631 291q-19 24 -19 53q0 57 50 57q10 0 20 -4q49 -6 98 -6q238 0 321 129q38 59 38 141q0 172 -203 172q-131 0 -193 -84q-31 -42 -36 -100q-19 -29 -58 -29q-45 0 -57 41q4 178 192 256q72 31 152 31q78 0 141 -27v213q-16 92 -101 147
q-65 41 -143 41q-102 0 -168 -73q-18 -23 -18 -58z" />
    <glyph glyph-name="u09a8_u09cd.half_u09a6.pres" horiz-adv-x="1368" 
d="M300 618q0 -37 -30 -57q-12 -8 -25 -8q-105 40 -155 133q-32 57 -32 125q0 90 60 172q78 107 225 107q105 0 188 -47v206h-544v129h1377v-129h-706v-481q47 57 164 143q197 143 299 142q10 -1 18 -2q66 -7 64 -72q-99 -274 -99 -451q0 -190 103 -387q10 -51 -56 -59
q-21 -2 -47 0q-118 209 -118 432q0 170 69 393q-231 -90 -411 -305q-25 -14 -56 -14q-57 0 -57 47v263q-64 81 -176 81q-96 0 -157 -76q-31 -57 -31 -106q0 -103 127 -148q6 -14 6 -31z" />
    <glyph glyph-name="u09a8_u09cd.half_u09a7.pres" horiz-adv-x="1231" 
d="M625 583l-236 -133l236 -188v321zM197 952q0 -67 54 -118q25 -24 54 -33q8 -19 8 -37q0 -62 -51 -62q-92 36 -143 124q-37 62 -37 132q0 80 47 129q94 101 238 101q153 0 260 -105v166h-639v129h1244v-129h-478v-472q60 25 108 25q75 0 94 -69l7 -43l2 -52l-17 -278
q0 -152 47 -162l60 -4q26 -12 26 -43t-28 -61q-90 -5 -123 12q-88 41 -88 252l15 278q0 23 -1 37q0 16 -45 16q-48 0 -57 -21v-68h-2v-441q0 -49 -82 -49q-31 0 -45 10l-361 293q-39 31 -39 63q0 23 25 37l375 203v148q5 2 2 23q-2 9 0 12q-16 92 -101 147q-65 41 -143 41
q-102 0 -168 -73q-18 -23 -18 -58z" />
    <glyph glyph-name="u09a8_u09cd.half_u09a8.pres" horiz-adv-x="909" 
d="M192 952q0 -67 54 -118q25 -24 54 -33q8 -19 8 -37q0 -62 -51 -62q-92 36 -143 124q-37 62 -37 132q0 80 47 129q94 101 238 101q153 0 260 -105v166h-639v129h921v-129h-155v-343l3 2v-814q0 -36 -70 -36q-57 0 -57 36q0 162 -2 183q-11 102 -64 155q-94 95 -196 95
q-90 0 -150 -67q-47 -53 -47 -122q0 -117 141 -174q21 -8 21 -35q0 -59 -45 -59q-62 0 -138 88q-73 86 -90 171q-4 17 -4 32q0 65 37 131q80 143 240 143q133 0 235 -98l32 -34q17 -21 30 -44v137h-3v299q-16 92 -101 147q-65 41 -143 41q-102 0 -168 -73q-18 -23 -18 -58z
" />
    <glyph glyph-name="u09a8_u09cd.half_u09ae.pres" horiz-adv-x="1373" 
d="M197 952q0 -67 54 -118q25 -24 54 -33q8 -19 8 -37q0 -62 -51 -62q-92 36 -143 124q-37 62 -37 132q0 80 47 129q94 101 238 101q153 0 260 -105v166h-639v129h900v5h485v-129h-156v-1126q0 -37 -57 -37q-70 0 -70 39v123q0 49 -106 143q-119 105 -225 105
q-86 0 -120 -77q-15 -35 -15 -79q0 -97 72 -136q30 -16 67 -18q28 -2 28 -51q0 -70 -41 -67q-100 10 -150 53q-26 21 -58 65q-52 105 -52 195q0 149 137 221v288q-16 92 -101 147q-65 41 -143 41q-102 0 -168 -73q-18 -23 -18 -58zM909 1254v-5h-155v-402q3 -7 3 -15v-204
q144 0 256 -119q47 -50 77 -111v856h-181z" />
    <glyph glyph-name="u09a8_u09cd.half_u09b8.pres" horiz-adv-x="1329" 
d="M519 1249l-147 -151q139 -40 210 -107q48 -46 101 -135q51 43 111 43q100 0 256 -154v504h-531zM58 608q0 128 110 187q68 36 165 36q170 0 264 -141q13 30 10 48q-1 4 -2 7q-78 144 -137 189q-72 53 -209 53q-63 21 -63 66q0 22 22 49l129 147h-364v129h1349v-129h-155
v-1140q0 -33 -64 -33q-63 0 -63 33v223q0 188 -46 275q-31 59 -96 108q-85 61 -116 61q-35 0 -60 -43q-35 -162 -125 -321q-139 -248 -307 -248q-112 0 -213 94q-6 14 -6 27q0 53 61 53q13 0 23 -2q78 -68 133 -68t111 72q30 39 112 184q-20 187 -184 187q-37 0 -78 -11
q-74 -43 -74 -110q0 -49 39 -113q6 -27 -25 -44q-17 -9 -36 -9q-21 0 -43 8q-62 84 -62 176z" />
    <glyph glyph-name="u09aa_u09cd.half_u09a4.pres" horiz-adv-x="1548" 
d="M955 1124q-123 109 -248 109q-127 0 -233 -113l217 -254zM875 487q0 103 73 178q70 70 167 70q31 0 63 -8v115q0 41 -98 146l-42 42l-3 2l-410 -397q-41 0 -69 32q-22 24 -15 52l62 59l-203 240q-33 -49 -43 -74q-47 -9 -81 29q-16 18 -21 41q71 131 121 182
q67 74 198 135q74 27 144 27q258 0 460 -322v213q0 79 60 113q30 16 67 16h240v-129h-240v-549q84 -94 84 -237q0 -185 -127 -296q-121 -106 -313 -104q-373 4 -689 516q-124 203 -231 472q7 55 68 55q25 0 45 -12q105 -263 197 -420q129 -221 295 -359q151 -127 311 -127
q187 0 270 124q51 75 51 155q0 108 -80 140l-32 9q-21 4 -45 2q-74 -4 -96 -58l-9 -35q-6 -36 -6 -105q-31 -27 -67 -27q-35 0 -43 23q-13 33 -13 71z" />
    <glyph glyph-name="u09aa_u09cd.half_u09aa.pres" horiz-adv-x="1155" 
d="M675 516q-90 82 -199 82q-112 0 -200 -86l180 -213zM676 1167q-98 99 -209 99t-199 -101l185 -221zM993 782h4v-718q0 -27 -70 -27q-57 0 -57 27q0 159 -9 198q-18 105 -106 166l-371 -356q-71 16 -71 67q0 11 2 21l57 57l-166 193l-45 -70q-10 -4 -20 -4q-58 0 -78 51
q157 332 397 332q238 0 410 -244v133h-4v297q0 76 -47 134q-29 37 -65 44l-367 -360q-34 -5 -60 32q-18 24 -16 48l64 67l-174 203q-29 -47 -45 -78q-9 -10 -25 -10q-63 0 -70 66q159 317 420 317q101 0 172 -45q164 -106 213 -207v133q0 61 49 101q34 28 78 28h156v-129
h-156v-467z" />
    <glyph glyph-name="u09aa_u09cd.half_u09ae.pres" horiz-adv-x="1572" 
d="M644 1167q-98 99 -209 99t-199 -101l185 -221zM961 623q143 -3 253 -122q45 -49 74 -108v856h-327v-626zM957 496q-86 0 -120 -77q-15 -35 -15 -79q0 -97 72 -136q30 -16 67 -18q28 -2 28 -51q0 -70 -41 -67q-100 10 -150 53q-26 21 -58 65q-52 105 -52 195
q0 151 140 223v227q0 11 6 19v55q0 76 -47 134q-29 37 -65 44l-367 -360q-34 -5 -60 32q-18 24 -16 48l64 67l-174 203q-29 -47 -45 -78q-9 -10 -25 -10q-63 0 -70 66q159 317 420 317q101 0 172 -45q164 -106 213 -207v133q0 61 49 101q34 28 78 28h610v-129h-156v-1126
q0 -37 -57 -37q-70 0 -70 39v123q0 49 -106 143q-119 105 -225 105z" />
    <glyph glyph-name="u09aa_u09cd.half_u09a8.pres" horiz-adv-x="1108" 
d="M632 1172q-98 99 -209 99t-199 -101l185 -221zM524 655q133 0 235 -98l32 -34q17 -21 30 -44q1 29 -2 230q-1 84 3 138v63q0 76 -47 134q-29 37 -65 44l-367 -360q-34 -5 -60 32q-18 24 -16 48l64 67l-174 203q-29 -47 -45 -78q-9 -10 -25 -10q-63 0 -70 66
q159 317 420 317q101 0 172 -45q164 -106 213 -207v133q0 61 49 101q34 28 78 28h156v-129h-156v-641h-1v-499q0 -36 -70 -36q-57 0 -57 36q0 162 -2 183q-11 102 -64 155q-94 95 -196 95q-90 0 -150 -67q-47 -53 -47 -122q0 -117 141 -174q21 -8 21 -35q0 -59 -45 -59
q-62 0 -138 88q-73 86 -90 171q-4 17 -4 32q0 65 37 131q80 143 240 143z" />
    <glyph glyph-name="u09aa_u09cd.half_u09b0.pres" horiz-adv-x="1101" 
d="M627 1167q-98 99 -209 99t-199 -101l185 -221zM21 375q0 106 78 190t184 86q115 0 215 -94q58 68 123 68q111 0 195 -156v383l1 1v52q0 76 -47 134q-29 37 -65 44l-367 -360q-34 -5 -60 32q-18 24 -16 48l64 67l-174 203q-29 -47 -45 -78q-9 -10 -25 -10q-63 0 -70 66
q159 317 420 317q101 0 172 -45q164 -106 213 -207v133q0 61 49 101q34 28 78 28h156v-129h-156v-641h-1v-469q0 -28 -64 -28q-63 0 -63 28q0 140 -54 249q-53 110 -120 110q-54 0 -101 -74q-14 -21 -41 -21q-30 0 -55 25q-39 109 -158 109q-84 0 -129 -71q-41 -64 -20 -134
q14 -45 53 -72l12 -8q57 -32 146 -29h8q29 -12 29 -51q0 -49 -33 -59q-15 -4 -43 -4q-122 0 -207 80q-82 76 -82 186z" />
    <glyph glyph-name="u09ab_u09cd.half_u09b0.pres" horiz-adv-x="1424" 
d="M13 -22q0 83 64 136q51 42 121 42q133 0 219 -102q57 76 143 76q68 0 146 -47v45l-589 480q-12 25 -12 45q0 29 24 58l211 196l-307 342h-51v129h1440v-129h-1225l268 -301q17 -44 6 -70q-6 -14 -18 -22l-211 -199l498 -409v805q0 114 65 114q344 0 449 -196
q45 -86 45 -178q0 -123 -71 -219q-65 -89 -153 -97q-53 6 -53 70q0 39 33 51q56 -7 94 72q29 59 29 127q0 151 -125 218q-76 40 -186 40v-928q2 -26 -13 -39q-8 -7 -21 -10v-206q-21 -31 -58 -31q-41 0 -69 33q0 120 -86 143q-23 6 -41 6q-52 0 -103 -72q-18 -20 -47 -20
q-33 0 -59 23q-28 53 -92 81q-35 15 -70 15q-82 0 -86 -82q-3 -68 88 -88q34 -7 76 -6q33 -13 33 -50q0 -43 -30 -52q-12 -3 -30 -3q-88 0 -165 60q-81 64 -81 149z" />
    <glyph glyph-name="u09ae_u09cd.half_u09aa.pres" horiz-adv-x="2225" 
d="M1697 1110q-137 131 -276 131t-273 -131l250 -295zM841 1008q0 84 -62 168q-49 51 -81 65q-23 8 -84 8h-312q41 -57 41 -135q0 -18 -4 -33q58 -24 164 -118q94 -84 150 -93q22 -4 43 -4q145 0 145 142zM205 897q0 -51 36 -78q16 -13 35 -14q23 -37 23 -62q0 -43 -66 -43
q-137 70 -137 213q0 142 141 181q9 22 9 47q0 55 -48 108h-200v129h995v-129h-139q65 -38 102 -137q12 -32 17 -65q143 246 393 307q45 10 90 10q271 0 490 -336v219q0 66 52 105q33 26 75 26h155v-129h-155v-1136q0 -41 -62 -41q-65 0 -65 39v561q0 94 -49 192
q-23 47 -99 160l-469 -459q-49 -11 -75 23q-13 16 -13 39q0 12 4 22l82 84l-229 277l-62 -103q-14 -8 -28 -8q-20 0 -36 10q-25 -116 -135 -159q-53 -21 -104 -21q-90 0 -184 68q-29 18 -146 125q-74 67 -114 67q-43 0 -70 -45q-14 -24 -14 -47z" />
    <glyph glyph-name="u09ae_u09cd.half_u09ab.pres" horiz-adv-x="1921" 
d="M850 1008q0 84 -62 168q-49 51 -81 65q-23 8 -84 8h-312q41 -57 41 -135q0 -18 -4 -33q58 -24 164 -118q94 -84 150 -93q22 -4 43 -4q145 0 145 142zM195 897q0 -51 36 -78q16 -13 35 -14q23 -37 23 -62q0 -43 -66 -43q-137 70 -137 213q0 142 141 181q9 22 9 47
q0 55 -48 108h-200v129h1934v-129h-1078q68 -40 104 -143q21 -61 21 -124l136 -128q24 -18 24 -43q0 -16 -14 -31l-186 -237l342 -299v743q0 143 90 141q180 -3 272 -77q25 -20 48 -47q24 -29 46 -68q39 -70 39 -166q0 -144 -75 -232q-46 -55 -111 -69q-49 -11 -71 35
q-9 19 -9 41q0 35 21 35q60 -15 99 65q28 57 28 125q0 59 -23 104q-69 136 -221 132h-6v-873q0 -31 -45 -50q-22 -9 -43 -9q-27 0 -39 12l-459 401q-4 19 -4 35q0 70 76 158q98 113 112 143l-46 45q-31 -77 -116 -115q-52 -24 -111 -24q-90 0 -184 68q-29 18 -146 125
q-74 67 -114 67q-43 0 -70 -45q-14 -24 -14 -47z" />
    <glyph glyph-name="u09ae_u09cd.half_u09ad.pres" horiz-adv-x="1461" 
d="M1006 909q88 0 140 68q36 47 36 108q0 129 -144 164h-456q36 -41 36 -92q0 -16 -4 -37q78 -20 164 -86q131 -102 142 -108q45 -17 86 -17zM786 201q135 0 238 98q96 92 108 215q1 15 1 29q0 112 -84 194q-109 -194 -269 -194q-41 0 -84 10q-139 70 -139 195q0 49 21 104
q30 16 59 16q49 0 57 -34q-18 -43 -18 -80q0 -95 96 -95q119 0 170 134q-63 8 -203 122q-119 98 -191 92l-7 -1q-47 3 -75 -41q-15 -24 -15 -50q0 -38 34 -49q5 -43 -13 -76l-12 -17l-14 -9l-14 -4q-96 57 -96 160q0 85 63 148q42 42 93 52q14 15 14 33q0 39 -47 76
q-20 16 -37 20h-434v129h1466v-129h-205q51 -100 51 -188q0 -170 -174 -236q123 -123 123 -286q0 -142 -93 -265q-140 -184 -370 -184q-202 0 -387 195q-282 299 -338 721q5 36 54 36q39 0 63 -24q50 -299 164 -481q69 -109 178 -209q139 -127 266 -127z" />
    <glyph glyph-name="u09ae_u09cd.half_u09a8.pres" horiz-adv-x="906" 
d="M618 1249h-409l-55 -49q184 -22 190 -164q94 7 184 -55q45 -31 90 -80v348zM318 530q133 0 235 -98q38 -35 62 -78v300q-15 170 -117 248q-62 48 -146 48q-116 0 -168 -106q-8 -31 -8 -60q0 -93 64 -140q40 -30 96 -30q18 -10 18 -36q0 -46 -30 -46q-174 17 -224 185
q-6 35 -6 67q0 150 166 236q3 86 -94 98q-33 4 -82 0q-47 9 -42 56q0 4 1 8l68 67h-123v129h913v-129h-156v-731q0 -6 -3 -10v-519q0 -36 -70 -36q-57 0 -57 36q0 162 -2 183q-11 102 -64 155q-94 95 -196 95q-90 0 -150 -67q-47 -53 -47 -122q0 -117 141 -174q21 -8 21 -35
q0 -59 -45 -59q-62 0 -138 88q-73 86 -90 171q-4 17 -4 32q0 65 37 131q80 143 240 143z" />
    <glyph glyph-name="u09ae_u09cd.half_u09ae.pres" horiz-adv-x="1442" 
d="M837 1008q0 84 -62 168q-49 51 -81 65q-23 8 -84 8h-312q41 -57 41 -135q0 -18 -4 -33q58 -24 164 -118q94 -84 150 -93q22 -4 43 -4q145 0 145 142zM819 752v-129q144 0 256 -119q47 -50 77 -111v856h-321q68 -40 104 -144q21 -61 21 -124q0 -173 -137 -229zM821 496
q-86 0 -120 -77q-15 -35 -15 -79q0 -97 72 -136q30 -16 67 -18q28 -2 28 -51q0 -70 -41 -67q-100 10 -150 53q-26 21 -58 65q-52 105 -52 195q0 151 140 223v126q-81 6 -166 67q-29 18 -146 125q-74 67 -114 67q-43 0 -70 -45q-14 -24 -14 -47q0 -51 36 -78q16 -13 35 -14
q23 -37 23 -62q0 -43 -66 -43q-137 70 -137 213q0 142 141 181q9 22 9 47q0 55 -48 108h-200v129h1460v-129h-156v-1126q0 -37 -57 -37q-70 0 -70 39v123q0 49 -106 143q-119 105 -225 105z" />
    <glyph glyph-name="u09ae_u09cd.half_u09b0.pres" horiz-adv-x="983" 
d="M849 1008q0 84 -62 168q-49 51 -81 65q-23 8 -84 8h-312q41 -57 41 -135q0 -18 -4 -33q58 -24 164 -118q94 -84 150 -93q22 -4 43 -4q145 0 145 142zM194 897q0 -51 36 -78q16 -13 35 -14q23 -37 23 -62q0 -43 -66 -43q-137 70 -137 213q0 142 141 181q9 22 9 47
q0 55 -48 108h-200v129h995v-129h-139q68 -40 104 -144q21 -61 21 -124q0 -84 -32 -140v-672q0 -28 -64 -28q-63 0 -63 28q0 140 -53 249q-54 110 -121 110q-54 0 -101 -74q-14 -21 -41 -21q-30 0 -55 25q-39 109 -158 109q-84 0 -129 -71q-41 -64 -20 -134q14 -45 53 -72
l12 -8q57 -32 146 -29h8q29 -12 29 -51q0 -49 -33 -59q-15 -4 -43 -4q-122 0 -207 80q-82 76 -82 186q0 106 78 190t184 86q115 0 215 -94q58 68 123 68q111 0 195 -156v245q-44 -15 -87 -15q-90 0 -184 68q-29 18 -146 125q-74 67 -114 67q-43 0 -70 -45q-14 -24 -14 -47z
" />
    <glyph glyph-name="u09ae_u09cd.half_u09ad_u09b0_u09cd.blwf.vatu.pres" horiz-adv-x="1195" 
d="M818 1249h-497q28 -41 32 -125q84 -20 195 -116q98 -88 166 -88q45 0 98 24q80 37 80 129q0 96 -74 176zM65 926q0 94 84 157q36 28 80 41q1 28 -7 52q-4 12 -10 22q-2 2 -43 51h-190v129h1218v-129h-229q45 -108 45 -184q0 -113 -107 -205q136 -80 136 -201v-555
q0 -41 -62 -41q-43 0 -65 31q-70 96 -244 96l-283 -16q-210 0 -287 141q-37 69 -49 177q11 59 54 59q39 0 63 -39q7 -142 90 -188q54 -29 152 -29l233 10q162 0 271 -53v375q0 57 -45 110q-111 -235 -279 -235q-176 0 -287 225q-5 42 26 68q17 14 38 14q16 0 29 -10
q81 -174 192 -174q109 0 178 174q-24 -6 -49 -6q-96 0 -236.5 109.5t-201.5 109.5q-54 0 -85 -46q-14 -22 -14 -42q0 -47 70 -80q6 -13 6 -27q0 -37 -33 -56q-14 -9 -30 -9q-17 0 -29 8q-100 67 -100 166z" />
    <glyph glyph-name="u09b0_u09cd.half_u0995.pres" horiz-adv-x="1490" 
d="M841 150v334l-312 -123zM70 930q0 104 78 188q84 85 185 88q114 0 211 -96q75 88 159 88q76 0 172 -78v129h-878v129h1161v-1h330v-129h-331v1h-155v-612q-3 -5 0 -39q1 -12 -1 -18q57 1 113 -16q27 -9 54 -22q150 -73 150 -237q0 -118 -58 -192q-43 -56 -106 -59
q-47 6 -47 53q0 28 23 49q46 8 70 68q14 34 14 71q0 43 -19 82q-69 93 -186 88h-8v-424q0 -39 -78 -39q-31 0 -47 13l-477 319q-23 14 -23 41q0 29 33 43l467 201v17l-1 1v211q0 153 -100 217q-37 22 -68 22q-55 0 -118 -104q-17 -27 -45 -27q-29 0 -50 27q-43 111 -163 111
q-87 0 -128 -71q-19 -34 -22 -79q-8 -117 109 -152q49 -15 114 -12q29 -14 29 -53q0 -47 -27 -53q-26 -6 -51 -6q-122 0 -206 79q-79 75 -79 183z" />
    <glyph glyph-name="u09b0_u09cd.half_u0997.pres" horiz-adv-x="1148" 
d="M437 37q-34 0 -54 34q-10 15 -10 31q0 19 14 29q64 41 64 103q0 54 -33 89q-20 21 -45 21q-35 0 -104 -51q-21 -8 -37 -8q-47 0 -55 59q24 148 119 223q59 48 182 93q28 10 65 10q96 0 189 -53q104 -60 133 -154v285h1v100q0 153 -100 217q-37 22 -68 22q-55 0 -118 -104
q-17 -27 -45 -27q-29 0 -50 27q-43 111 -163 111q-87 0 -128 -71q-19 -34 -22 -79q-8 -117 109 -152q49 -15 114 -12q29 -14 29 -53q0 -47 -26 -53q-27 -6 -52 -6q-122 0 -206 79q-79 75 -79 183q0 104 78 188q84 85 185 88q114 0 211 -96q75 88 159 88q76 0 172 -78v129
h-878v129h1161v-129h-156v-612h-1v-586q0 -41 -70 -41q-57 0 -57 35v213q0 95 -89 181q-90 86 -203 101q-19 3 -38 3q-125 0 -213 -107q29 8 59 8q64 0 107 -32q96 -76 96 -193q0 -72 -48 -130q-43 -52 -99 -52z" />
    <glyph glyph-name="u09b0_u09ac_u09cd.blwf.blws" horiz-adv-x="1155" 
d="M870 155v354l-271 -143zM61 930q0 104 78 188q84 85 185 88q114 0 211 -96q75 88 159 88q76 0 172 -78v129h-878v129h1161v-129h-156v-387l4 3v-819q0 -39 -78 -39q-31 0 -47 13l-396 319q-20 17 -20 41q0 27 31 43l385 201q-1 12 -2 13t-4 0v211q0 153 -100 217
q-37 22 -68 22q-55 0 -118 -104q-17 -27 -45 -27q-29 0 -50 27q-43 111 -163 111q-87 0 -128 -71q-19 -34 -22 -79q-8 -117 109 -152q49 -15 114 -12q29 -14 29 -53q0 -47 -26 -53q-27 -6 -52 -6q-122 0 -206 79q-79 75 -79 183z" />
    <glyph glyph-name="u09b0_u09cd.half_u09aa.pres" horiz-adv-x="1149" 
d="M669 451q-90 82 -199 82q-112 0 -200 -86l180 -213zM60 930q0 104 78 188q84 85 185 88q114 0 211 -96q75 88 159 88q76 0 172 -78v129h-878v129h1161v-129h-156v-612h-1v-638q0 -27 -70 -27q-57 0 -57 27q0 159 -9 198q-18 105 -106 166l-371 -356q-71 16 -71 67
q0 11 2 21l57 57l-166 193l-45 -70q-10 -4 -20 -4q-58 0 -78 51q157 332 397 332q238 0 410 -244v307h1v131q0 153 -100 217q-37 22 -68 22q-55 0 -118 -104q-17 -27 -45 -27q-29 0 -50 27q-43 111 -163 111q-87 0 -128 -71q-19 -34 -22 -79q-8 -117 109 -152
q49 -15 114 -12q29 -14 29 -53q0 -47 -27 -53q-26 -6 -51 -6q-122 0 -206 79q-79 75 -79 183z" />
    <glyph glyph-name="u09b0_u09cd.half_u09ae.pres" horiz-adv-x="1621" 
d="M61 930q0 104 78 188q84 85 185 88q114 0 211 -96q75 88 159 88q76 0 172 -78v129h-878v129h1140v5h485v-129h-156v-1126q0 -37 -57 -37q-70 0 -70 39v123q0 49 -106 143q-119 105 -225 105q-86 0 -120 -77q-15 -35 -15 -79q0 -97 72 -136q30 -16 67 -18q28 -2 28 -51
q0 -70 -41 -67q-100 10 -150 53q-26 21 -58 65q-52 105 -52 195q0 151 140 223v28h-4v211q0 153 -100 217q-37 22 -68 22q-55 0 -118 -104q-17 -27 -45 -27q-29 0 -50 27q-43 111 -163 111q-87 0 -128 -71q-19 -34 -22 -79q-8 -117 109 -152q49 -15 114 -12q29 -14 29 -53
q0 -47 -26 -53q-27 -6 -52 -6q-122 0 -206 79q-79 75 -79 183zM1149 1254v-5h-156v-400q4 -8 4 -17v-204q144 0 256 -119q47 -50 77 -111v856h-181z" />
    <glyph glyph-name="u09b0_u09cd.half_u09b0.pres" horiz-adv-x="1149" 
d="M71 375q0 106 78 190t184 86q115 0 215 -94q58 68 123 68q111 0 195 -156v383q-1 150 -100 213q-37 22 -68 22q-55 0 -118 -104q-17 -27 -45 -27q-29 0 -50 27q-43 111 -163 111q-87 0 -128 -71q-19 -34 -22 -79q-8 -117 109 -152q49 -15 114 -12q29 -14 29 -53
q0 -47 -26 -53q-27 -6 -52 -6q-122 0 -206 79q-79 75 -79 183q0 104 78 188q84 85 185 88q114 0 211 -96q75 88 159 88q76 0 172 -78v129h-878v129h1161v-129h-156v-1110q0 -28 -64 -28q-63 0 -63 28q0 140 -54 249q-53 110 -120 110q-54 0 -101 -74q-14 -21 -41 -21
q-30 0 -55 25q-39 109 -158 109q-84 0 -129 -71q-41 -64 -20 -134q14 -45 53 -72l12 -8q57 -32 146 -29h8q29 -12 29 -51q0 -49 -33 -59q-15 -4 -43 -4q-122 0 -207 80q-82 77 -82 186z" />
    <glyph glyph-name="u09ac_u09cd.half_u099c.pres" horiz-adv-x="1793" 
d="M798 719v383l-297 -176zM966 117q-407 0 -699 408q-123 171 -215 401q2 61 54 61q24 0 49 -16q129 -273 182 -357q117 -182 291 -286q168 -99 415 -93q9 1 19 1q123 37 183 129q38 58 38 127q0 106 -92 184l-311 -160l-518 369q-21 18 -21 43q0 24 25 51l432 256v14h-819
v129h1810v-129h-864l682 -217q57 -18 57 -74q-1 -21 -6 -40q-113 -168 -113 -381q0 -209 123 -521q-18 -47 -73 -47q-17 0 -31 6q-131 344 -131 576q0 217 102 393l-610 195v-463q164 110 274 110q19 0 37 -4q152 -118 152 -290q0 -158 -117 -264l-38 -31l-45 -28
q-100 -52 -222 -52z" />
    <glyph glyph-name="u09ac_u09cd.half_u09a6.pres" horiz-adv-x="1374" 
d="M532 745v353l-320 -150zM606 588h-25q-29 0 -49 12l-459 295q-23 14 -23 47q0 49 37 68l445 221v18h-557v129h1407v-129h-706v-481q47 57 164 143q197 143 299 142q10 -1 18 -2q66 -7 64 -72q-99 -274 -99 -451q0 -190 103 -387q10 -51 -56 -59q-21 -2 -47 0
q-118 209 -118 432q0 170 69 393q-231 -90 -411 -305q-25 -14 -56 -14z" />
    <glyph glyph-name="u09ac_u09cd.half_u09a7.pres" horiz-adv-x="1205" 
d="M608 657l-239 -157l239 -219v376zM608 1028l-375 -180l213 -152l162 107v225zM913 694q0 84 -43 84q-34 0 -135 -45v-592q0 -39 -67 -39q-39 0 -60 19l-368 334q-27 24 -27 59q0 29 23 43l100 66l-254 188q-21 14 -21 45q0 37 29 51l518 254v88h-620v129h1210v-129h-463
v-379q99 29 170 29q88 0 115 -39l4 -6q4 -6 18 -72q1 -27 -12 -308q-2 -51 -2 -71q0 -183 39 -210q14 -10 67 -8q8 0 17 1q41 -24 41 -63q0 -33 -35 -55q-24 -2 -45 -2q-168 0 -188 174q-15 125 -15 252z" />
    <glyph glyph-name="u09ac_u09cd.half_u09a8.pres" horiz-adv-x="874" 
d="M540 745v353l-320 -150zM248 615q133 0 235 -98l32 -34q17 -21 30 -44v158q-3 2 -5 3l-459 295q-23 14 -23 47q0 49 37 68l445 221v18h-557v129h891v-129h-207v-10v-354l5 3v-814q0 -36 -70 -36q-57 0 -57 36q0 162 -2 183q-11 102 -64 155q-94 95 -196 95
q-90 0 -150 -67q-47 -53 -47 -122q0 -117 141 -174q21 -8 21 -35q0 -59 -45 -59q-62 0 -138 88q-73 86 -90 171q-4 17 -4 32q0 65 37 131q80 143 240 143z" />
    <glyph glyph-name="u09ac_u09cd.half_u09b0.pres" horiz-adv-x="1125" 
d="M836 745v353l-320 -150zM35 367q0 106 78 190t184 86q115 0 215 -94q58 68 123 68q111 0 195 -156q-1 8 2 91q0 32 -3 50l-459 295q-23 14 -23 47q0 49 37 68l445 221v18h-819v129h1113v-129h-167v-10v-316l1 1v-795q0 -28 -64 -28q-63 0 -63 28q0 140 -54 249
q-53 110 -120 110q-54 0 -101 -74q-14 -21 -41 -21q-30 0 -55 25q-39 109 -158 109q-84 0 -129 -71q-41 -64 -20 -134q14 -45 53 -72l12 -8q57 -32 146 -29h8q29 -12 29 -51q0 -49 -33 -59q-15 -4 -43 -4q-122 0 -207 80q-82 76 -82 186z" />
    <glyph glyph-name="u09b6_u09cd.half_u09b0.pres" horiz-adv-x="1112" 
d="M576 1249q-65 0 -114 -55q-41 -45 -41 -98q0 -181 229 -189q12 -6 12 -33q0 -59 -22 -77q-213 -15 -303 147q-56 -106 -146 -139q-51 -19 -136 -15q-11 0 -23 1q-21 16 -21 53q0 39 17 59q184 10 223 162q12 83 -38 139q-33 36 -83 43q-12 2 -127 2q-25 0 -25 68
q0 61 25 61q133 0 176 -12q88 -29 156 -143q55 85 103 115q50 30 138 40q77 9 163 -32q66 -32 83 -72q0 38 49 75q40 29 78 29h156v-129h-156v-367l3 2v-795q0 -28 -64 -28q-63 0 -63 28q0 140 -53 249q-54 110 -121 110q-54 0 -101 -74q-14 -21 -41 -21q-30 0 -55 25
q-39 109 -158 109q-84 0 -129 -71q-41 -64 -20 -134q14 -45 53 -72l12 -8q57 -32 146 -29h8q29 -12 29 -51q0 -49 -33 -59q-15 -4 -43 -4q-122 0 -207 80q-82 76 -82 186q0 106 78 190t184 86q115 0 215 -94q58 68 123 68q111 0 195 -156v354q-3 5 -3 11v332q0 69 -100 108
q-67 25 -146 25z" />
    <glyph glyph-name="u09b7_u09cd.half_u0995.pres" horiz-adv-x="1052" 
d="M523 175v334l-312 -123zM587 1217q-64 32 -129 32q-96 0 -193 -71l332 -195q41 66 41 131q0 76 -51 103zM544 911l-340 197q-56 -71 -36 -156q11 -47 44 -80l51 -38q56 -23 92 -23q82 0 189 100zM740 1245l-20 4h-25q48 -78 48 -159q0 -121 -100 -228l7 3v-260
q57 1 113 -16q27 -9 55 -22q149 -73 149 -237q0 -118 -58 -192q-43 -56 -106 -59q-47 6 -47 53q0 28 23 49q46 8 70 68q14 34 14 71q0 43 -19 82q-69 93 -186 88h-8v-424q0 -39 -78 -39q-31 0 -47 13l-477 319q-23 14 -23 41q0 29 33 43l467 201v119q-81 -50 -161 -50
q-58 0 -115 24q-188 103 -188 277q0 145 114 235h-190v129l755 7l62 -1l250 -6v-129z" />
    <glyph glyph-name="u09b7_u09cd.half_u099f.pres" horiz-adv-x="874" 
d="M577 1217q-64 32 -129 32q-96 0 -193 -71l332 -195q41 66 41 131q0 76 -51 103zM534 911l-340 197q-56 -71 -36 -156q11 -47 44 -80l51 -38q56 -23 92 -23q82 0 189 100zM259 442q0 -78 84 -110q40 -15 90 -15q76 0 164 33q113 59 113 164q0 34 -13 88q-5 23 26 30
q15 4 40 4q51 0 57 -30q6 -37 6 -72q0 -154 -110 -260q-111 -105 -254 -105q-105 0 -191 64q-145 108 -145 217q0 107 226 268q-58 0 -115 24q-188 103 -188 277q0 145 114 235h-180v129h608q26 112 -111 149q-70 19 -181 19l-282 -9q-29 0 -42 1q-291 25 -330 350
q19 41 62 41q28 0 55 -22q12 -158 118 -213q75 -39 220 -39l201 4q168 0 270 -39q96 -47 126 -104l13 -33q13 -43 8 -105h152v-129h-187q48 -78 48 -159q17 -85 1 -146q-7 -30 -23 -55q-21 -111 -327 -270q-123 -90 -123 -182z" />
    <glyph glyph-name="u09b7_u09cd.half_u09a0.pres" horiz-adv-x="1124" 
d="M553 791l-254 217q-102 -162 -102 -217q0 -82 108 -170q170 81 248 170zM68 813q0 68 61 156t61 131q0 67 -94 149h-108v129h573l-153 289q-97 186 -97 295q0 172 234 207q51 -10 51 -62q0 -30 -25 -57q-133 -4 -133 -108q0 -93 109 -283l164 -281h416v-129h-310
q189 -260 242 -448q24 -84 24 -172q0 -223 -129 -381q-137 -172 -352 -172q-45 0 -92 8q-158 47 -231 195q-51 105 -48 243q-163 163 -163 291zM963 629q-15 170 -62 270q-24 49 -143 219q2 -28 2 -57q0 -133 -51 -238q-68 -186 -351 -315q-8 -153 84 -245q52 -51 125 -68
q123 -9 217 55q47 32 86 82q107 135 93 297zM618 1249h-350q11 -84 97 -135l249 -213q23 76 23 160q0 69 -19 188z" />
    <glyph glyph-name="u09b7_u09cd.half_u09a3.pres" horiz-adv-x="1499" 
d="M1372 529q0 59 -66 105q-53 36 -112 36q-49 27 -49 61q0 35 41 60q78 9 127 65q34 40 34 88q0 102 -133 101q-78 0 -153 -113q-19 -27 -103 -184q52 -132 141 -225q90 -93 179 -93q16 0 33 4q61 39 61 95zM733 803v446h-534l264 -321zM733 236v438l-313 139l-232 -195z
M860 1249v-417q89 183 174 258t197 82q111 -9 187 -85q67 -68 67 -157q0 -109 -105 -195q129 -84 129 -223q0 -155 -170 -201q-26 -4 -53 -4q-248 0 -426 354v-538q0 -53 -72 -53q-32 0 -55 16l-667 483q-23 17 -23 43q0 23 16 45l277 242l-295 350h-53v129h797h75h635v-129
h-635z" />
    <glyph glyph-name="u09b7_u09cd.half_u09aa.pres" horiz-adv-x="1975" 
d="M1457 1115q-137 131 -276 131t-273 -131l250 -295zM585 1217q-64 32 -129 32q-96 0 -193 -71l332 -195q41 66 41 131q0 76 -51 103zM542 911l-340 197q-56 -71 -36 -156q11 -47 44 -80l51 -38q56 -23 92 -23q82 0 189 100zM749 904q-32 0 -55 25q-25 -39 -62 -77
q-137 -139 -270 -139q-58 0 -115 24q-188 103 -188 277q0 145 114 235h-190v129h735v-129h-25q46 -75 48 -154q138 209 366 264q45 10 90 10q271 0 490 -336v219q0 66 52 105q33 26 75 26h155v-129h-155v-1136q0 -41 -62 -41q-65 0 -65 39v561q0 94 -49 192q-23 47 -99 160
l-469 -459q-49 -11 -75 23q-13 16 -13 39q0 12 4 22l82 84l-229 277l-62 -103q-14 -8 -28 -8z" />
    <glyph glyph-name="u09b8_u09cd.half_u0995.pres" horiz-adv-x="1513" 
d="M794 200v334l-312 -123zM802 870q55 0 83 59q15 31 15 68q0 60 -33 109q-65 98 -110 143h-230q0 -24 33 -80l96 -176q78 -123 146 -123zM796 752q-99 2 -174 82q-58 61 -125 194q-168 -254 -279 -254q-82 0 -158 105q-9 39 28 63q29 18 63 10q14 -55 45 -55q77 0 182 223
q15 54 10 98q-2 16 -6 31h-395v129h1526v-129h-580l49 -80q61 -100 61 -196q0 -144 -122 -196v-147q57 1 113 -16q27 -9 54 -22q150 -73 150 -237q0 -118 -58 -192q-43 -56 -106 -59q-47 6 -47 53q0 28 23 49q46 8 70 68q14 34 14 71q0 43 -19 82q-69 93 -186 88h-8v-424
q0 -39 -78 -39q-31 0 -47 13l-477 319q-23 14 -23 41q0 29 33 43l467 201v83z" />
    <glyph glyph-name="u09b8_u09cd.half_u09a4.pres" horiz-adv-x="1184" 
d="M802 870q55 0 83 59q15 31 15 68q0 60 -33 109q-65 98 -110 143h-230q0 -24 33 -80l96 -176q78 -123 146 -123zM905 770q93 -26 149 -129q46 -83 46 -182q0 -96 -43 -163q-121 -191 -352 -191q-183 0 -363 116t-266 290q-1 41 24 55q14 8 35 8q23 0 49 -12
q68 -146 216 -239q149 -93 296 -93q142 0 226 88q51 55 51 154q0 145 -101 186q-151 21 -165 -180q-13 -33 -50 -33q-39 0 -69 33q-7 135 74 220q37 39 88 60q-71 15 -128 76q-58 61 -125 194q-168 -254 -279 -254q-82 0 -158 105q-9 39 28 63q29 18 63 10q14 -55 45 -55
q77 0 182 223q15 54 10 98q-2 16 -6 31h-395v129h1196v-129h-250l49 -80q61 -100 61 -196q0 -153 -138 -203z" />
    <glyph glyph-name="u09b8_u09cd.half_u09a5.pres" horiz-adv-x="1189" 
d="M803 870q55 0 83 59q15 31 15 68q0 60 -33 109q-65 98 -110 143h-230q0 -24 33 -80l96 -176q78 -123 146 -123zM730 763q-59 20 -107 71q-58 61 -125 194q-168 -254 -279 -254q-82 0 -158 105q-9 39 28 63q29 18 63 10q14 -55 45 -55q77 0 182 223q15 54 10 98
q-2 16 -6 31h-395v129h1196v-129h-250l49 -80q61 -100 61 -196q0 -168 -165 -211q-41 -10 -75 -10q130 -35 186 -150q33 -68 33 -153q0 -23 -2 -45q-49 -168 -137 -222q-55 -34 -278 -80l487 -190q4 -14 4 -29q0 -69 -65 -67l-631 291q-19 24 -19 53q0 57 50 57q10 0 20 -4
q49 -6 98 -6q238 0 321 129q38 59 38 141q0 172 -203 172q-131 0 -193 -84l-18 -30q-10 -22 -15 -47q-2 -11 -3 -23q-19 -29 -58 -29q-45 0 -57 41q4 178 192 256q72 31 152 31q12 0 24 -1z" />
    <glyph glyph-name="u09b8_u09cd.half_u09a8.pres" horiz-adv-x="979" 
d="M705 1249h-365q-27 0 -52 -29q-15 -15 -16 -30q0 -21 90 -45q101 -27 125 -84q43 24 82 24q62 0 136 -75v239zM408 525q133 0 235 -98q38 -35 62 -78v269q0 119 -9 170q-14 91 -63 142q-31 34 -40 38q-8 5 -44 15l-98 -209q-62 -123 -172 -143q-96 0 -161 76
q-21 26 -52 75q-5 6 -5 15q0 23 35 45q20 12 37 12q14 0 21 -10q57 -109 110 -109q43 0 88 78q23 37 78 166q-6 47 -63 68q-127 45 -162 63q-49 8 -49 70q0 33 36 63q5 4 9 6h-213v129h999v-129h-156v-452l1 1v-814q0 -36 -70 -36q-57 0 -57 36q0 162 -2 183
q-11 102 -64 155q-94 95 -196 95q-90 0 -150 -67q-47 -53 -47 -122q0 -117 141 -174q21 -8 21 -35q0 -59 -45 -59q-62 0 -138 88q-73 86 -90 171q-4 17 -4 32q0 65 37 131q80 143 240 143z" />
    <glyph glyph-name="u09b8_u09cd.half_u09ae.pres" horiz-adv-x="1650" 
d="M799 870q55 0 83 59q15 31 15 68q0 60 -33 109q-65 98 -110 143h-230q0 -24 33 -80l96 -176q78 -123 146 -123zM1004 843q4 -7 4 -16v-204q144 0 256 -119q47 -50 77 -111v856h-411l49 -80q61 -100 61 -196q0 -78 -36 -130zM1010 496q-86 0 -120 -77q-15 -35 -15 -79
q0 -97 72 -136q30 -16 67 -18q28 -2 28 -51q0 -70 -41 -67q-100 10 -150 53q-26 21 -58 65q-52 105 -52 195q0 151 140 223v160q-43 -12 -82 -12q-103 0 -180 82q-58 61 -125 194q-168 -254 -279 -254q-82 0 -158 105q-9 39 28 63q29 18 63 10q14 -55 45 -55q77 0 182 223
q15 54 10 98q-2 16 -6 31h-395v129h1640v-129h-156v-1126q0 -37 -57 -37q-70 0 -70 39v123q0 49 -106 143q-119 105 -225 105z" />
    <glyph glyph-name="u09b8_u09cd.half_u09b0.pres" horiz-adv-x="1185" 
d="M804 870q55 0 83 59q15 31 15 68q0 60 -33 109q-65 98 -110 143h-230q0 -24 33 -80l96 -176q78 -123 146 -123zM116 385q0 106 78 190t184 86q115 0 215 -94q58 68 123 68q111 0 195 -156v293q-53 -20 -107 -20q-103 0 -180 82q-58 61 -125 194q-168 -254 -279 -254
q-82 0 -158 105q-9 39 28 63q29 18 63 10q14 -55 45 -55q77 0 182 223q15 54 10 98q-2 16 -6 31h-395v129h1196v-129h-250l49 -80q61 -100 61 -196q0 -35 -7 -64v-760q0 -28 -64 -28q-63 0 -63 28q0 140 -53 249q-54 110 -121 110q-54 0 -101 -74q-14 -21 -41 -21
q-30 0 -55 25q-39 109 -158 109q-84 0 -129 -71q-41 -64 -20 -134q14 -45 53 -72l12 -8q57 -32 146 -29h8q29 -12 29 -51q0 -49 -33 -59q-15 -4 -43 -4q-122 0 -207 80q-82 77 -82 186z" />
    <glyph glyph-name="u09b8_u09cd.half_u09ab.pres" horiz-adv-x="2000" 
d="M799 870q55 0 83 59q15 31 15 68q0 60 -33 109q-65 98 -110 143h-230q0 -24 33 -80l96 -176q78 -123 146 -123zM1027 1249h-97l49 -80q57 -94 61 -184l141 -133q24 -18 24 -43q0 -16 -14 -31l-186 -237l342 -299v743q0 143 90 141q180 -3 272 -77q25 -20 48 -47
q24 -29 46 -68q39 -70 39 -166q0 -144 -75 -232q-46 -55 -111 -69q-49 -11 -71 35q-9 19 -9 41q0 35 21 35q60 -15 99 65q28 57 28 125q0 59 -23 104q-69 136 -221 132h-6v-873q0 -31 -45 -50q-22 -9 -43 -9q-27 0 -39 12l-459 401q-4 19 -4 35q0 70 76 158q98 113 112 143
l-52 50q-31 -68 -119 -101q-49 -18 -102 -18q-103 0 -180 82q-58 61 -125 194q-168 -254 -279 -254q-82 0 -158 105q-9 39 28 63q29 18 63 10q14 -55 45 -55q77 0 182 223q15 54 10 98q-2 16 -6 31h-395v129h1196v-2h818v-129h-971v2z" />
    <glyph glyph-name="u09b8_u09cd.half_u099f.pres" horiz-adv-x="1556" 
d="M705 1249h-365q-27 0 -52 -29q-15 -15 -16 -30q0 -21 90 -45q101 -27 125 -84q43 24 82 24q62 0 136 -75v239zM932 72q-78 0 -146 76q-71 85 -73 180v290h-8q0 119 -9 170q-14 91 -63 142q-31 34 -40 38q-8 5 -44 15l-98 -209q-62 -123 -172 -143q-96 0 -161 76
q-21 26 -52 75q-5 6 -5 15q0 23 35 45q20 12 37 12q14 0 21 -10q57 -109 110 -109q43 0 88 78q23 37 78 166q-6 47 -63 68q-127 45 -162 63q-49 8 -49 70q0 33 36 63q5 4 9 6h-213v129h1331q6 21 6 39q0 131 -307 131l-176 -6q-289 31 -364 74q-127 67 -140 289q4 39 53 39
q39 0 60 -27q2 -156 113 -211q83 -41 270 -41h121q223 -2 323 -39q168 -63 168 -248h107v-129h-713v-889q0 -68 55 -104q32 -20 72 -20q78 0 154 79q159 172 159 330q0 82 -35 122q-16 19 -85 70l-9 7q-8 12 -8 26q0 39 38 58q17 8 36 8q180 -125 180 -279q0 -186 -145 -381
q-152 -204 -320 -204z" />
    <glyph glyph-name="u09b8_u09cd.half_u099f_u09b0_u09cd.blwf.vatu.pres" horiz-adv-x="1551" 
d="M700 1249h-365q-27 0 -52 -29q-15 -15 -16 -30q0 -21 90 -45q101 -27 125 -84q43 24 82 24q62 0 136 -75v239zM927 72q-78 0 -146 76q-71 85 -73 180v290h-8q0 119 -9 170q-14 91 -63 142q-31 34 -40 38q-8 5 -44 15l-98 -209q-62 -123 -172 -143q-96 0 -161 76
q-21 26 -52 75q-5 6 -5 15q0 23 35 45q20 12 37 12q14 0 21 -10q57 -109 110 -109q43 0 88 78q23 37 78 166q-6 47 -63 68q-127 45 -162 63q-49 8 -49 70q0 33 36 63q5 4 9 6h-213v129h1331q6 21 6 39q0 131 -307 131l-176 -6q-289 31 -364 74q-127 67 -140 289q4 39 53 39
q39 0 60 -27q2 -156 113 -211q83 -41 270 -41h121q223 -2 323 -39q168 -63 168 -248h107v-129h-713v-889q0 -68 55 -104q32 -20 72 -20q78 0 154 79q159 172 159 330q0 82 -35 122q-16 19 -85 70l-9 7q-8 12 -8 26q0 39 38 58q17 8 36 8q180 -125 180 -279q0 -186 -145 -381
q-21 -28 -42 -52v-328q0 -47 -74 -47q-26 0 -32 13q-37 76 -105 77q-39 0 -123 -34q-194 -80 -270 -80q-125 0 -233 149q-1 41 13 55q7 7 19 7q21 0 54 -21q53 -98 137 -98q43 0 119 31l139 57q108 39 139 39q49 0 111 -37v121q-84 -56 -172 -56z" />
    <glyph glyph-name="u09b8_u09cd.half_u09aa.pres" horiz-adv-x="2248" 
d="M1731 1115q-137 131 -276 131t-273 -131l250 -295zM803 870q55 0 83 59q15 31 15 68q0 60 -33 109q-65 98 -110 143h-230q0 -24 33 -80l96 -176q78 -123 146 -123zM1018 1100q60 89 136 149h-220q61 -99 71 -121q8 -14 13 -28zM1036 906q-28 -110 -157 -144
q-41 -10 -76 -10q-103 0 -180 82q-58 61 -125 194q-168 -254 -279 -254q-82 0 -158 105q-9 39 28 63q29 18 63 10q14 -55 45 -55q77 0 182 223q15 54 10 98q-2 16 -6 31h-395v129h1196v-107q88 62 197 88q45 10 90 10q271 0 490 -336v219q0 66 52 105q33 26 75 26h155v-129
h-155v-1136q0 -41 -62 -41q-65 0 -65 39v561q0 94 -49 192q-23 47 -99 160l-469 -459q-49 -11 -75 23q-13 16 -13 39q0 12 4 22l82 84l-229 277l-62 -103q-7 -4 -15 -6z" />
    <glyph glyph-name="u09b8_u09cd.half_u09a4_u09b0_u09cd.blwf.vatu.pres" horiz-adv-x="1190" 
d="M804 870q55 0 83 59q15 31 15 68q0 60 -33 109q-65 98 -110 143h-230q0 -24 33 -80l96 -176q78 -123 146 -123zM524 508q0 141 92 225q34 30 76 47q-36 20 -68 54q-58 61 -125 194q-168 -254 -279 -254q-82 0 -158 105q-9 39 28 63q29 18 63 10q14 -55 45 -55
q77 0 182 223q15 54 10 98q-2 16 -6 31h-395v129h1196v-129h-250l49 -80q61 -100 61 -196q0 -146 -124 -197q41 -26 51 -69l6 -46q1 -20 1 -51v-610q0 -51 -74 -51q-37 0 -53 20q-80 101 -174 101q-8 0 -137 -18q-40 -5 -56 -5q-105 0 -157 61q-17 21 -33 52q-41 80 -41 182
q0 33 4 61q29 33 60 33q30 0 51 -33q-4 -32 -4 -63q0 -180 129 -180q11 0 136 21q42 7 58 7q80 0 164 -53v469q0 74 -22 78q-13 2 -27 2q-79 0 -125 -90q-31 -61 -31 -133q0 -33 8 -60q9 -26 -30 -44q-19 -9 -37 -9q-31 0 -39 23q-25 69 -25 137z" />
    <glyph glyph-name="u09b8_u09cd.half_u0995_u09b0_u09cd.blwf.vatu.pres" horiz-adv-x="1567" 
d="M802 870q55 0 83 59q15 31 15 68q0 60 -33 109q-65 98 -110 143h-230q0 -24 33 -80l96 -176q78 -123 146 -123zM531 508q0 141 93 225q31 28 70 45q-39 20 -72 56q-58 61 -125 194q-168 -254 -279 -254q-82 0 -158 105q-9 39 28 63q29 18 63 10q14 -55 45 -55
q77 0 182 223q15 54 10 98q-2 16 -6 31h-395v129h1573v-129h-627l49 -80q61 -100 61 -196q0 -143 -120 -196q65 -36 65 -130q86 51 184 51q154 0 209 -123q25 -55 25 -106q0 -101 -81 -168l-32 -22q-75 -44 -162 -33q-34 22 -34 57q0 37 41 57q84 13 106 27q39 27 41 105
q-25 88 -111 88q-108 0 -188 -97v-483q0 -51 -74 -51q-37 0 -53 20q-80 101 -174 101q-8 0 -137 -18q-40 -5 -56 -5q-105 0 -157 61q-17 21 -33 52q-41 80 -41 182q0 33 4 61q29 33 60 33q30 0 51 -33q-4 -32 -4 -63q0 -180 129 -180q11 0 136 21q42 7 58 7q80 0 164 -53
v469q0 74 -22 78q-13 2 -27 2q-79 0 -125 -90q-31 -61 -31 -133q0 -33 8 -60q9 -26 -29 -44q-19 -9 -38 -9q-31 0 -39 23q-25 69 -25 137z" />
    <glyph glyph-name="u09b9_u09cd.half_u09a8.pres" horiz-adv-x="1447" 
d="M1048 902q-82 0 -190 -102q-15 -14 -29 -28q-81 -286 -526 -340l719 -444q4 -13 4 -25q0 -56 -59 -53h-6l-906 555q-18 24 -18 51q0 57 51 57q10 0 23 -4q84 -12 159 -12q342 0 443 236q6 30 6 63q0 130 -89 197l-31 19l-39 15q-37 11 -81 11q-237 0 -250 -246
q-18 -29 -57 -29q-43 0 -57 43q0 122 79 222q50 62 113 88l-90 73h-233v129h943v1h518v-129h-517v-1h-555q-4 0 6 -4q5 -2 14 -6q37 -14 47 -27q21 5 45 5q158 0 258 -106q67 -71 86 -172q0 -3 1 -6l29 31q86 77 206 57q105 -17 170 -95q52 -63 52 -143q0 -26 -6 -51
q-50 -185 -273 -178h-8q-30 16 -30 47q0 39 39 55q97 -10 142 47q26 32 26 80q0 21 -5 39q-49 80 -124 80z" />
    <glyph glyph-name="u099c_u09cd.half_u099c.pres_u09ac_u09cd.blwf.blws" horiz-adv-x="2359" 
d="M762 1251q-133 -31 -209 -128q-61 -79 -61 -179q0 -121 98 -221l278 111q103 8 183 -105q75 -104 75 -219q0 -45 -16 -78q171 -246 428 -239h8q110 21 178 101q56 66 56 148q0 111 -109 185q-37 -11 -172 -66q-104 -45 -172 -45q-233 133 -233 283q0 84 67 188z
M2103 -289l-63 242l-146 -154zM1892 442q0 -157 -116 -264q-107 -99 -257 -107q-12 -1 -24 -1q-252 0 -442 241q-144 -157 -314 -157q-36 0 -73 6q-447 76 -609 909q15 47 66 47q35 0 55 -33q29 -256 160 -501q166 -308 385 -308q144 0 227 108q52 67 52 144q0 119 -111 185
q-41 -6 -149 -57q-107 -52 -158 -52q-37 0 -66 21q-149 135 -149 313q0 174 141 313h-526v129h2367v-129h-1394l274 -180q147 101 143 102q-10 0 156 -69q477 -203 692 -203q41 -20 41 -68q0 -14 -4 -28q-172 -236 -172 -477q0 -117 37 -254l92 -394q3 -45 -33 -61l-26 -8
l-19 -2l-364 139q-19 6 -19 23q0 16 23 43q225 225 219 260q-37 116 -37 237q0 252 158 498q-84 3 -531 181l-161 67q-5 1 -54 -37l-63 -51q-92 -76 -92 -152q0 -94 147 -174q25 8 156 61q96 39 164 48q104 -28 163 -131q45 -79 45 -177z" />
    <glyph glyph-name="u0995_u09cd.half_u099f_u09b0_u09cd.blwf.vatu.pres" horiz-adv-x="1149" 
d="M543 1001l-297 -118l237 -189q37 86 60 307zM530 201q99 0 176 71q76 71 76 164q0 29 -8 56q25 26 55 26q31 0 56 -22q8 -41 8 -80q0 -104 -57 -181v-344q0 -47 -74 -47q-26 0 -32 13q-37 77 -105 77q-39 0 -123 -34q-194 -80 -270 -80q-125 0 -233 149q-1 41 13 55
q7 7 19 7q21 0 54 -21q53 -98 137 -98q43 0 119 31l139 57q108 39 139 39q49 0 111 -37v140q-104 -62 -210 -62q-182 0 -295 190q-18 31 -18 58q0 32 22 61q142 76 205 191l-348 272q-17 14 -17 37q0 47 41 63l433 176v121h-549v129h757q11 79 -78 111q-45 16 -116 20
q-369 21 -399 29q-218 54 -215 278v5q18 37 55 37q33 0 57 -27q0 -143 111 -184q56 -21 149 -21l234 8q206 0 279 -100q42 -58 50 -156h263v-129h-471v-98q148 -20 238 -108q77 -77 77 -181q0 -102 -80 -217q-43 -2 -70 20q-18 16 -18 37q0 11 6 21q49 82 49 145
q0 127 -202 168q2 -24 2 -51q0 -182 -88 -379q-101 -223 -248 -291q73 -114 194 -114z" />
    <glyph glyph-name="u09a8_u09cd.half_u09a6_u09b0_u09cd.blwf.vatu.pres" horiz-adv-x="1312" 
d="M303 618q0 -37 -30 -57q-12 -8 -25 -8q-105 40 -155 133q-31 58 -31 125q0 90 59 172q78 107 225 107q90 0 174 -39v198h-536v129h1310v-129h-647v-481q49 59 167 145q199 145 301 140l14 -2q67 -7 63 -72q-98 -274 -98 -451q0 -190 102 -387q4 -10 4 -18q0 -31 -42 -52
q-23 -9 -40 -10q-8 0 -12 2q-72 80 -172 80q-74 0 -233 -55q-103 -49 -197 -49q-209 0 -330 229q-6 15 -6 29q0 43 53 43q19 0 41 -8q86 -164 221 -164q54 0 136 24l161 50q134 41 234 18q-39 121 -39 254q0 170 70 393q-232 -90 -412 -305q-25 -14 -55 -14q-58 0 -58 47
v278q-69 66 -162 66q-96 0 -157 -76q-31 -57 -31 -106q0 -103 127 -148q6 -14 6 -31z" />
    <glyph glyph-name="u09a8_u09cd.half_u09a7_u09b0_u09cd.blwf.vatu.pres" horiz-adv-x="1301" 
d="M770 508l-260 -133l260 -168v301zM1020 727q89 0 114 -54q15 -34 15 -106l-16 -286q0 -149 45 -158l59 -4q27 -13 27 -43q0 -31 -27 -62q-61 -3 -96 4l-27 8l-2 1q-88 41 -88 256l15 292q0 25 -1 39q-4 7 -16 7q-43 0 -125 -43v-703q0 -49 -80 -49q-35 0 -47 12
q-63 64 -141 64q-31 0 -115 -18q-124 -28 -236 -9q-63 11 -102 35q-67 43 -133 182q-1 49 19 66q10 8 26 8q21 0 45 -16q33 -103 82 -136q39 -26 100 -26q43 0 117 12q103 18 191 18q92 0 147 -22v74l-385 264q-33 28 -33 59q0 25 19 41l399 203v256q0 84 -83 139
q-65 43 -146 43q-97 0 -154 -67q-29 -60 -29 -107q0 -102 125 -147q13 -4 13 -25q0 -33 -24 -61q-17 -20 -36 -13q-104 41 -154 133q-30 57 -30 123q0 123 86 205q81 76 199 76q147 0 233 -78v135h-782v129h1312v-129h-403v-549q61 27 123 27z" />
    <glyph glyph-name="u09aa_u09cd.half_u09a4_u09b0_u09cd.blwf.vatu.pres" horiz-adv-x="1110" 
d="M627 1167q-98 99 -209 99t-199 -101l185 -221zM464 135q11 0 136 21q42 7 58 7q80 0 164 -53v469q0 16 -1 29q-6 -1 -4 15q1 8 0 11q-16 24 -44 25q-79 0 -125 -90l-17 -41q-14 -45 -14 -92q0 -33 8 -60q9 -26 -30 -44q-19 -9 -37 -9q-31 0 -39 23q-25 69 -25 137
q0 143 93 225q75 68 188 68q22 0 42 -2v131q0 76 -47 134q-29 37 -65 44l-367 -360q-34 -5 -60 32q-18 24 -16 48l64 67l-174 203q-29 -47 -45 -78q-9 -10 -25 -10q-63 0 -70 66q159 317 420 317q101 0 172 -45q164 -106 213 -207v133q0 61 49 101q34 28 78 28h156v-129
h-156v-574q5 -29 5 -90v-610q0 -51 -74 -51q-37 0 -53 20q-80 101 -174 101q-8 0 -137 -18q-40 -5 -56 -5q-105 0 -157 61q-17 21 -33 52q-41 80 -41 182q0 33 4 61q29 33 60 33q30 0 51 -33q-4 -32 -4 -63q0 -180 129 -180z" />
    <glyph glyph-name="u09ae_u09cd.half_u09aa_u09b0_u09cd.blwf.vatu.pres" horiz-adv-x="2220" 
d="M1706 1110q-137 131 -276 131t-273 -131l250 -295zM850 1008q0 84 -62 168q-49 51 -81 65q-23 8 -84 8h-312q41 -57 41 -135q0 -18 -4 -33q58 -24 164 -118q94 -84 150 -93q22 -4 43 -4q145 0 145 142zM195 897q0 -51 36 -78q16 -13 35 -14q23 -37 23 -62q0 -43 -66 -43
q-137 70 -137 213q0 142 141 181q9 22 9 47q0 55 -48 108h-200v129h995v-129h-139q65 -38 102 -137q12 -32 17 -65q143 246 393 307q45 10 90 10q271 0 490 -336v219q0 66 52 105q33 26 75 26h155v-129h-155v-845h6v-291q0 -47 -99 -47q-37 0 -54 14q-93 82 -222 82
q-83 0 -223 -35q-122 -30 -239 -30q-356 0 -462 276q3 55 89 55q22 0 42 -6q83 -211 319 -211q75 0 167 21q211 49 320 49q76 0 228 -56l1 179v268q0 94 -49 192q-23 47 -99 160l-469 -459q-49 -11 -75 23q-13 16 -13 39q0 12 4 22l82 84l-229 277l-62 -103q-14 -8 -28 -8
q-20 0 -36 10q-25 -116 -135 -159q-53 -21 -104 -21q-90 0 -184 68q-29 18 -146 125q-74 67 -114 67q-43 0 -70 -45q-14 -24 -14 -47z" />
    <glyph glyph-name="u09b7_u09cd.half_u099f_u09b0_u09cd.blwf.vatu.pres" horiz-adv-x="888" 
d="M586 1217q-64 32 -129 32q-96 0 -193 -71l332 -195q41 66 41 131q0 76 -51 103zM543 911l-340 197q-56 -71 -36 -156q11 -47 44 -80l51 -38q56 -23 92 -23q82 0 189 100zM835 534q0 -162 -125 -272q-11 -10 -23 -20v-336q0 -47 -74 -47q-26 0 -32 13q-37 76 -105 77
q-39 0 -123 -34q-194 -80 -270 -80q-125 0 -233 149q-1 41 13 55q7 7 19 7q21 0 54 -21q53 -98 137 -98q43 0 119 31l139 57q108 39 139 39q49 0 111 -37v169q-52 -17 -110 -17q-105 0 -191 64q-145 108 -145 217q0 107 226 268q-58 0 -115 24q-188 103 -188 277
q0 145 114 235h-180v129h608q26 112 -111 149q-70 19 -181 19l-282 -9q-29 0 -42 1q-291 25 -330 350q19 41 62 41q28 0 55 -22q12 -158 118 -213q75 -39 220 -39l201 4q168 0 270 -39q96 -47 126 -104l13 -33q13 -43 8 -105h152v-129h-187q48 -78 48 -159q17 -85 1 -146
q-7 -30 -23 -55q-21 -111 -327 -270q-123 -90 -123 -182q0 -78 84 -110q40 -15 90 -15q76 0 164 33q113 59 113 164q0 34 -13 88q-5 23 26 30q15 4 40 4q51 0 57 -30q6 -37 6 -72z" />
    <glyph glyph-name="u09b8_u09cd.half_u09aa_u09b0_u09cd.blwf.vatu.pres" horiz-adv-x="2244" 
d="M1731 1115q-137 131 -276 131t-273 -131l250 -295zM803 870q55 0 83 59q15 31 15 68q0 60 -33 109q-65 98 -110 143h-230q0 -24 33 -80l96 -176q78 -123 146 -123zM1018 1100q60 89 136 149h-220q61 -99 71 -121q8 -14 13 -28zM1036 906q-28 -110 -157 -144
q-41 -10 -76 -10q-103 0 -180 82q-58 61 -125 194q-168 -254 -279 -254q-82 0 -158 105q-9 39 28 63q29 18 63 10q14 -55 45 -55q77 0 182 223q15 54 10 98q-2 16 -6 31h-395v129h1196v-107q88 62 197 88q45 10 90 10q271 0 490 -336v219q0 66 52 105q33 26 75 26h155v-129
h-155l2 -789v-325l-10 -55q0 -19 -11 -21l-64 2q-37 0 -54 14q-93 82 -222 82q-83 0 -223 -35q-122 -30 -239 -30q-356 0 -462 276q3 55 89 55q22 0 42 -6q83 -211 319 -211q75 0 167 21q211 49 320 49q75 0 113 -11q18 -5 45 -15l70 -15l-9 164v273q0 94 -49 192
q-23 47 -99 160l-469 -459q-49 -11 -75 23q-13 16 -13 39q0 12 4 22l82 84l-229 277l-62 -103q-7 -4 -15 -6z" />
    <glyph glyph-name="tata_u09ac_u09cd.blwf.blws" horiz-adv-x="1448" 
d="M926 -288v242l-236 -107zM-21 1378h1465v-129h-1465v129zM1258 387q0 -139 -112 -232q-53 -44 -120 -67q27 -11 27 -38v-416q0 -51 -84 -51q-27 0 -43 8l-387 224q-13 14 -13 30q0 31 37 58l313 160h-15q-160 0 -356 150q-81 63 -142 131q-225 254 -321 729q-4 45 19 60
q11 8 30 8q39 0 64 -43l86 -303q53 -160 145 -285q240 -324 498 -324q47 0 94 11q158 36 158 192q0 115 -95 176q-67 29 -67 70q0 35 45 84q59 51 59 129q0 92 -71 157q-64 58 -152 58q-31 0 -61 -8q-123 -64 -123 -185q0 -55 26 -129q3 -43 -23 -58q-13 -7 -34 -7
q-31 0 -49 24q-41 74 -41 158q0 132 86 226q88 96 217 96q138 0 239 -93l30 -32q75 -89 75 -201q0 -109 -72 -197q133 -116 133 -270z" />
    <glyph glyph-name="u09a8_u09cd.half_u09a6.pres_u09ac_u09cd.blwf.blws" horiz-adv-x="1397" 
d="M1115 165v354l-271 -143zM453 1250l-465 -1v129l502 7v-7h907v-129h-723v-336q130 126 200 171q107 70 199 59q72 0 115 -70q53 -61 53 -145v-54l1 1v-819q0 -39 -78 -39q-31 0 -47 13l-396 319q-20 17 -20 41q0 27 31 43l385 201l-3 22v1v238q0 143 -82 143
q-84 0 -229 -133q-119 -110 -160 -178q-14 -4 -31 -4q-51 0 -65 41v114q-66 101 -191 101q-96 0 -157 -76q-31 -57 -31 -106q0 -103 127 -148q6 -14 6 -31q0 -37 -30 -57q-12 -8 -25 -8q-105 40 -155 133q-32 58 -32 125q0 90 60 172q78 107 225 107q115 0 203 -56v215h-94
v1z" />
    <glyph glyph-name="u09a8_u09cd.half_u099f.pres" horiz-adv-x="1469" 
d="M849 72q-77 0 -145 77q-72 85 -74 179v268h-3v299q-16 92 -101 147q-65 41 -143 41q-102 0 -168 -73q-18 -23 -18 -58q0 -67 54 -118q25 -24 54 -33q8 -19 8 -37q0 -62 -51 -62q-92 36 -143 124q-37 62 -37 132q0 80 47 129q94 101 238 101q153 0 260 -105v166h-639v129
h1248q6 21 6 39q0 131 -307 131l-176 -6q-289 31 -364 74q-127 67 -140 289q4 39 54 39q39 0 59 -27q2 -156 113 -211q83 -41 270 -41h121q223 -2 323 -39q168 -63 168 -248h107v-129h-713v-889q0 -68 55 -104q32 -20 72 -20q78 0 154 79q159 172 159 330q0 82 -35 122
q-16 19 -85 70l-9 7q-8 12 -8 26q0 39 38 58q17 8 36 8q180 -125 180 -279q0 -186 -145 -381q-152 -204 -320 -204z" />
    <glyph glyph-name="u09a8_u09cd.half_u09a0.pres" horiz-adv-x="1287" 
d="M807 1128q2 -34 2 -69q0 -377 -394 -555q-1 -91 30 -160q16 -35 40 -64q72 -87 176 -87q109 0 207 94q149 143 149 336q0 237 -210 505zM696 985q6 42 6 88q0 80 -18 176h-697v129h635q-20 45 -117 207q-133 229 -133 361q0 170 217 208q56 -16 56 -73q0 -31 -23 -41
q-131 0 -131 -96q0 -68 72 -220q129 -235 198 -346h525v-129h-422q264 -319 264 -641q0 -200 -127 -360q-135 -168 -332 -168q-73 0 -147 26q-82 29 -156 151t-74 226q0 76 43 115q209 86 293 208q18 27 32 56q-81 61 -209 99q-60 18 -96 18q-96 0 -157 -76
q-31 -57 -31 -106q0 -103 127 -148q6 -14 6 -31q0 -37 -30 -57q-12 -8 -25 -8q-105 40 -155 133q-32 58 -32 125q0 90 60 172q78 107 225 107q74 0 236 -56q79 -27 117 -49z" />
    <glyph glyph-name="u09a8_u09cd.half_u09a1.pres" horiz-adv-x="1639" 
d="M985 207q133 0 242 103q106 100 128 240q5 30 5 60q0 88 -39 176q-221 -241 -375 -241q-76 0 -121 73q-26 46 -26 72v162q0 110 -76 159l-29 15l-35 9q-16 3 -34 3q-83 0 -120 -60l-13 -27q-7 -22 -7 -48q0 -55 44 -88q11 -8 61 -37q10 -16 10 -37q0 -61 -59 -65
q-102 32 -151 117q-30 51 -30 112q0 58 29 113q68 135 236 135q98 0 174 -51v147h-811v129h1650v-129h-712v-526q0 -61 41 -61q55 0 163 100q97 88 138 156q24 22 55 22q25 0 45 -14q117 -123 117 -297q0 -166 -103 -315q-113 -164 -288 -212q-61 -16 -125 -16
q-314 0 -623 383q-186 229 -285 555q13 45 64 45q25 0 51 -14q103 -324 260 -520q262 -328 549 -328z" />
    </font>
</defs>
</svg>
